GloDLS.to - Download Movies, TV, Games and Other Torrents Free RSS 2.0enGloDLS.to - Download Movies, TV, Games and Other Torrents FreeGloDLS.to - Download Movies, TV, Games and Other Torrents Free RSS Feedhttp://glodls.toCopyright GloDLS.to - Download Movies, TV, Games and Other Torrents FreeMon, 27 Mar 2017 03:54:08 +0100 [Evilangel] Rizzo Ford - Tattooed Rizzos Interracial Butt Fuck/27 03 2017 [ mp4] http://glodls.to/torrent.php?id=2329910 http://glodls.to/torrent.php?id=2329910 Mon, 27 Mar 2017 02:48:44 +0100 Adult XXX
[center][URL=http://imgtornado.com/img-58d8ce08bf8f5.html][IMG]http://imgtornado.com/upload/small/2017/03/27/58d8ce08bf8be.jpeg[/IMG][/URL][size=4]


[Evilangel] Rizzo Ford - Tattooed Rizzos Interracial Butt Fuck/27.03.2017 [.mp4]

Video Duration: 00:34:19
Video Size: 491 MB


[b]Screen 1[/b]
[url]http://imgtornado.com/img-58d8ce1e1377f.html[/url]
[b]Screen 2[/b]
[url]http://imggold.org/x4mo199v6glh/2612eb9b1116.jpeg.html[/url]
[b]Best Shoot[/b]
[url]http://imgstudio.org/img-58d87b8459199.html[/url]
[/size]
[/center] ]]>
[AllAnalAllTheTime]Cristi Ann - Cristi Ann Loves Anal [ mp4] http://glodls.to/torrent.php?id=2329909 http://glodls.to/torrent.php?id=2329909 Mon, 27 Mar 2017 02:47:47 +0100 Adult XXX


[center][URL=http://imgtornado.com/img-58d8ce7596b32.html][IMG]http://imgtornado.com/upload/small/2017/03/27/58d8ce7596afd.jpeg[/IMG][/URL][size=4]

[AllAnalAllTheTime]Cristi Ann - Cristi Ann Loves Anal [.mp4]


Video Duration: 00:28:58
Video Size: 243 MB


[b]Screen 1[/b]
[url]http://imgtornado.com/img-58d8ce889f1eb.html[/url]
[b]Screen 2[/b]
[url]http://imggold.org/58945clnveqo/e26f06d955c0.jpeg.html[/url]
[b]Best Shoot[/b]
[url]http://imgstudio.org/img-58d87b9556bbc.html[/url]
[/size]
[/center] ]]>
Girls.S06E07.720p.HDTV.x264-AVS[PRiME] http://glodls.to/torrent.php?id=2329908 http://glodls.to/torrent.php?id=2329908 Mon, 27 Mar 2017 02:35:28 +0100 TV Girls.S06E07.720p.HDTV.x264-AVS[PRiME]

[url=https://www.sparrowpics.com/image/LwB][img]https://www.sparrowpics.com/images/2015/12/10/Info.png[/img][/url]

[color=green]Complete name : Girls.S06E07.720p.HDTV.x264-AVS[PRiME].mkv
Format : Matroska
Format version : Version 4 / Version 2
File size : 529 MiB
Duration : 28 min 7 s
Overall bit rate : 2 630 kb/s
Encoded date : UTC 2017-03-27 02:04:54
Writing application : FastLE v3.0.0 - AVS
Writing library : libx264 + libebml + libmatroska + libfastrar

Video
ID : 1
Format : AVC
Format/Info : Advanced Video Codec
Format profile : High@L4.1
Format settings, CABAC : Yes
Format settings, ReFrames : 5 frames
Codec ID : V_MPEG4/ISO/AVC
Duration : 28 min 7 s
Bit rate : 2 193 kb/s
Width : 1 280 pixels
Height : 718 pixels
Display aspect ratio : 16:9
Frame rate mode : Constant
Frame rate : 23.976 (24000/1001) FPS
Color space : YUV
Chroma subsampling : 4:2:0
Bit depth : 8 bits
Scan type : Progressive
Bits/(Pixel*Frame) : 0.100
Stream size : 441 MiB (83%)
Writing library : x264 core 148 r2762 90a61ec
Encoding settings : cabac=1 / ref=5 / deblock=1:0:0 / analyse=0x3:0x113 / me=hex / subme=8 / psy=1 / psy_rd=1.00:0.00 / mixed_ref=1 / me_range=16 / chroma_me=1 / trellis=2 / 8x8dct=1 / cqm=0 / deadzone=21,11 / fast_pskip=1 / chroma_qp_offset=-2 / threads=22 / lookahead_threads=3 / sliced_threads=0 / nr=0 / decimate=1 / interlaced=0 / bluray_compat=0 / constrained_intra=0 / bframes=3 / b_pyramid=2 / b_adapt=1 / b_bias=0 / direct=3 / weightb=1 / open_gop=0 / weightp=2 / keyint=250 / keyint_min=23 / scenecut=40 / intra_refresh=0 / rc_lookahead=50 / rc=crf / mbtree=1 / crf=18.0 / qcomp=0.60 / qpmin=0 / qpmax=69 / qpstep=4 / ip_ratio=1.40 / aq=1:1.00
Default : Yes
Forced : No
Color range : Limited
Matrix coefficients : BT.709

Audio
ID : 2
Format : AC-3
Format/Info : Audio Coding 3
Mode extension : CM (complete main)
Format settings, Endianness : Big
Codec ID : A_AC3
Duration : 28 min 7 s
Bit rate mode : Constant
Bit rate : 384 kb/s
Channel(s) : 6 channels
Channel positions : Front: L C R, Side: L R, LFE
Sampling rate : 48.0 kHz
Frame rate : 31.250 FPS (1536 spf)
Compression mode : Lossy
Stream size : 77.2 MiB (15%)
Default : Yes
Forced : No[/color]

[url=https://www.sparrowpics.com/image/UYe][img]https://www.sparrowpics.com/images/2015/12/10/Screens.png[/img][/url]

[color=red]Click Image To View Full Size[/color]

[URL=https://www.sparrowpics.com/image/DIZ0c][IMG]https://www.sparrowpics.com/images/2017/03/27/DIZ0c.th.jpg[/IMG][/URL]
[URL=https://www.sparrowpics.com/image/DI0e6][b]Click To View Screenshot[/b][/URL]
[URL=https://www.sparrowpics.com/image/DITfh][b]Click To View Screenshot[/b][/URL]
[URL=https://www.sparrowpics.com/image/DI6Rt][b]Click To View Screenshot[/b][/URL]

[/center] ]]>
[Clips4sale]Cadence Lux - Blackmailing Cadence [ mp4] http://glodls.to/torrent.php?id=2329907 http://glodls.to/torrent.php?id=2329907 Mon, 27 Mar 2017 02:35:26 +0100 Adult XXX
[center][URL=http://imgtornado.com/img-58d8caf30a8ae.html][IMG]http://imgtornado.com/upload/small/2017/03/27/58d8caf30a873.jpeg[/IMG][/URL][size=4]



[Clips4sale]Cadence Lux - Blackmailing Cadence [.mp4]


Video Duration: 00:13:16
Video Size: 529 MB

[b]Screen 1[/b]
[url]http://imgtornado.com/img-58d8cb04a9751.html[/url]
[b]Screen 2[/b]
[url]http://imggold.org/4hktdva5adjo/c77f15f104a0.jpeg.html[/url]
[b]Best Shoot[/b]
[url]http://imgstudio.org/img-58d87861edbbf.html[/url]
[/size]
[/center] ]]>
[AllAnalAllTheTime]Chloe Brooke - Chloe Brookes First Anal Scene! [ mp4] http://glodls.to/torrent.php?id=2329906 http://glodls.to/torrent.php?id=2329906 Mon, 27 Mar 2017 02:34:41 +0100 Adult XXX
[center][URL=http://imgtornado.com/img-58d8cb4ba5850.html][IMG]http://imgtornado.com/upload/small/2017/03/27/58d8cb4ba5815.jpeg[/IMG][/URL][size=4]


[AllAnalAllTheTime]Chloe Brooke - Chloe Brookes First Anal Scene! [.mp4]


Video Duration: 00:29:37
Video Size: 240 MB


[b]Screen 1[/b]
[url]http://imgtornado.com/img-58d8cb5d10d2c.html[/url]
[b]Screen 2[/b]
[url]http://imggold.org/o4w1j0qsjedc/7d779a518e53.jpeg.html[/url]
[b]Best Shoot[/b]
[url]http://imgstudio.org/img-58d87870250a5.html[/url]
[/size]
[/center] ]]>
Girls.S06E07.HDTV.x264-SVA[PRiME] http://glodls.to/torrent.php?id=2329905 http://glodls.to/torrent.php?id=2329905 Mon, 27 Mar 2017 02:34:34 +0100 TV Girls.S06E07.HDTV.x264-SVA[PRiME]

[url=https://www.sparrowpics.com/image/LwB][img]https://www.sparrowpics.com/images/2015/12/10/Info.png[/img][/url]

[color=green]Complete name : Girls.S06E07.HDTV.x264-SVA[PRiME].mkv
Format : Matroska
Format version : Version 4 / Version 2
File size : 154 MiB
Duration : 28 min 7 s
Overall bit rate : 768 kb/s
Encoded date : UTC 2017-03-27 02:29:35
Writing application : FastLE v3.0.0 - AVS
Writing library : libx264 + libebml + libmatroska + libfastrar

Video
ID : 1
Format : AVC
Format/Info : Advanced Video Codec
Format profile : High@L3.1
Format settings, CABAC : Yes
Format settings, ReFrames : 5 frames
Codec ID : V_MPEG4/ISO/AVC
Duration : 28 min 7 s
Width : 720 pixels
Height : 404 pixels
Display aspect ratio : 16:9
Frame rate mode : Constant
Frame rate : 23.976 (24000/1001) FPS
Color space : YUV
Chroma subsampling : 4:2:0
Bit depth : 8 bits
Scan type : Progressive
Writing library : x264 core 148 r2762 90a61ec
Encoding settings : cabac=1 / ref=5 / deblock=1:0:0 / analyse=0x3:0x113 / me=hex / subme=8 / psy=1 / psy_rd=1.00:0.00 / mixed_ref=1 / me_range=16 / chroma_me=1 / trellis=2 / 8x8dct=1 / cqm=0 / deadzone=21,11 / fast_pskip=1 / chroma_qp_offset=-2 / threads=13 / lookahead_threads=2 / sliced_threads=0 / nr=0 / decimate=1 / interlaced=0 / bluray_compat=0 / constrained_intra=0 / bframes=3 / b_pyramid=2 / b_adapt=1 / b_bias=0 / direct=3 / weightb=1 / open_gop=0 / weightp=2 / keyint=250 / keyint_min=23 / scenecut=40 / intra_refresh=0 / rc_lookahead=50 / rc=crf / mbtree=1 / crf=19.0 / qcomp=0.60 / qpmin=0 / qpmax=69 / qpstep=4 / ip_ratio=1.40 / aq=1:1.00
Default : Yes
Forced : No
Color range : Limited
Matrix coefficients : BT.709

Audio
ID : 2
Format : AAC
Format/Info : Advanced Audio Codec
Format profile : LC
Codec ID : A_AAC
Duration : 28 min 7 s
Channel(s) : 2 channels
Channel positions : Front: L R
Sampling rate : 48.0 kHz
Frame rate : 46.875 FPS (1024 spf)
Compression mode : Lossy
Default : Yes
Forced : No[/color]

[url=https://www.sparrowpics.com/image/UYe][img]https://www.sparrowpics.com/images/2015/12/10/Screens.png[/img][/url]

[color=red]Click Image To View Full Size[/color]

[URL=https://www.sparrowpics.com/image/DIRUW][IMG]https://www.sparrowpics.com/images/2017/03/27/DIRUW.th.jpg[/IMG][/URL]
[URL=https://www.sparrowpics.com/image/DIYpn][b]Click To View Screenshot[/b][/URL]
[URL=https://www.sparrowpics.com/image/DIocy][b]Click To View Screenshot[/b][/URL]
[URL=https://www.sparrowpics.com/image/DIsqJ][b]Click To View Screenshot[/b][/URL]

[/center] ]]>
MyFriendsHotGirl - Rachel Starr - 22505 (360p) ***NEW MARCH 26, 2017 NEW*** http://glodls.to/torrent.php?id=2329904 http://glodls.to/torrent.php?id=2329904 Mon, 27 Mar 2017 02:25:48 +0100 Adult XXX [URL=http://damimage.com/img-58d870ad1d532.html]
[IMG]http://damimage.com/upload/small/2017/03/27/58d870ad1d4f8.jpg[/IMG][/URL]

[b][u]Screenshots[/u][/b]
[b][url]http://damimage.com/img-58d870ad1d532.html[/url][/b]

[b][u]Description/Synopsis[/u][/b]
Rachel Starr STILL has the key to her boyfriend's friend Johnny's house, so when she sneaks in for a fuck, he shouldn't be surprised, right? WRONG! Johnny can't handle the fact that he banged his friend's woman a few times, and he thought they had agreed to end it. But what he REALLY can't handle is when Rachel struts in wearing heels, stockings, and lingerie, waving her fat, bubbly, big ass in his face! You know, she had better hold on to that key for a while, after all!

[b][u]MediaInfo[/u][/b]
Video: MPEG4 Video (H264) 640x360 23.98fps 900kbps [V: English [eng] (h264 main L3.0, yuv420p, 640x360, 900 kb/s)]
Audio: AAC 48000Hz stereo 317kbps [A: SoundHandler [eng] (aac, 48000 Hz, stereo, 317 kb/s)] ]]>
Jokers Wild (2016) DVDRip Xvid English Dolby 5 1 V Power [WWRG] http://glodls.to/torrent.php?id=2329903 http://glodls.to/torrent.php?id=2329903 Mon, 27 Mar 2017 02:25:23 +0100 Movies

[img]http://i.imgur.com/7ydyaOE.png[/img] ]]>
[TwistysHard]Twistys - Blair Williams - A Treat Story New Recruit Part 3/27 03 2017 [ mp4] http://glodls.to/torrent.php?id=2329902 http://glodls.to/torrent.php?id=2329902 Mon, 27 Mar 2017 02:21:38 +0100 Adult XXX
[center][URL=http://imgtornado.com/img-58d8c6a09c98f.html][IMG]http://imgtornado.com/upload/small/2017/03/27/58d8c6a09c95a.jpeg[/IMG][/URL][size=4]


[TwistysHard]Twistys - Blair Williams - A Treat Story New Recruit Part 3/27.03.2017 [.mp4]


Video Duration: 00:25:18
Video Size: 216 MiB

[b]Screen 1[/b]
[url]http://imgtornado.com/img-58d8c6b8193f5.html[/url]
[b]Screen 2[/b]
[url]http://imggold.org/eu267ak26mvd/7300568145a9.jpg.html[/url]
[b]Best Shoot[/b]
[url]http://imgstudio.org/img-58d874ca3115b.html[/url]
[/size]
[/center] ]]>
[FakeTaxi]FakeHub - Vickie Powell - Street Lady Fucks Cabbie for Cash [ mp4] http://glodls.to/torrent.php?id=2329901 http://glodls.to/torrent.php?id=2329901 Mon, 27 Mar 2017 02:20:58 +0100 Adult XXX

[center][URL=http://imgtornado.com/img-58d8c70a54637.html][IMG]http://imgtornado.com/upload/small/2017/03/27/58d8c70a545fb.jpeg[/IMG][/URL][size=4]

[FakeTaxi]FakeHub - Vickie Powell - Street Lady Fucks Cabbie for Cash [.mp4]


Video Duration: 00:21:45
Video Size: 258 MB


[b]Screen 1[/b]
[url]http://imgtornado.com/img-58d8c71d7fee6.html[/url]
[b]Screen 2[/b]
[url]http://imggold.org/q3blbjys3fe7/f9e24901ca81.jpeg.html[/url]
[b]Best Shoot[/b]
[url]http://imgstudio.org/img-58d874deb24ca.html[/url]
[/size]
[/center] ]]>
[PublicAgent]FakeHub - Amber Nevada, Martin Gun - Spanish Student Fucks for Party Cash [ mp4] http://glodls.to/torrent.php?id=2329900 http://glodls.to/torrent.php?id=2329900 Mon, 27 Mar 2017 02:20:17 +0100 Adult XXX
[center][URL=http://imgtornado.com/img-58d8c777032af.html][IMG]http://imgtornado.com/upload/small/2017/03/27/58d8c77703273.jpeg[/IMG][/URL][size=4]


[PublicAgent]FakeHub - Amber Nevada, Martin Gun - Spanish Student Fucks for Party Cash [.mp4]

Video Duration: 00:28:58
Video Size: 336 MiB

[b]Screen 1[/b]
[url]http://imgtornado.com/img-58d8c7883ed3a.html[/url]
[b]Screen 2[/b]
[url]http://imggold.org/z8mpsxay078o/e38d5be5860c.jpg.html[/url]
[b]Best Shoot[/b]
[url]http://imgstudio.org/img-58d874f49ff50.html[/url]
[/size]
[/center] ]]>
Rizzo Ford - Tattooed Rizzos Interracial Butt Fuck http://glodls.to/torrent.php?id=2329899 http://glodls.to/torrent.php?id=2329899 Mon, 27 Mar 2017 02:15:25 +0100 Adult XXX
[b]Date[/b]: 12.04.2017
[b]Cast[/b]: Rizzo Ford
[b]Genre[/b]: Interracial, Hardcore, Anal, Deepthroat, Blowjob, Big Dick, Ass to mouth, Pussy to mouth, College, Brunette
[b]Name[/b]: Tattooed Rizzos Interracial Butt Fuck


[b]Video[/b]: 960x540 (16:9), 29.970 fps
[b]Audio[/b]: AAC, 128 Kbps, 2 ch, 48 KHz
[b]Format[/b]: mp4
[b]Duration[/b]: 00:34:19
]]>
The.Walking.Dead.S07E15.720p.HDTV.x264-AVS[PRiME] http://glodls.to/torrent.php?id=2329898 http://glodls.to/torrent.php?id=2329898 Mon, 27 Mar 2017 02:11:23 +0100 TV The.Walking.Dead.S07E15.720p.HDTV.x264-AVS[PRiME]

[url=https://www.sparrowpics.com/image/LwB][img]https://www.sparrowpics.com/images/2015/12/10/Info.png[/img][/url]

[color=green]Complete name : The.Walking.Dead.S07E15.720p.HDTV.x264-AVS[PRiME].mkv
Format : Matroska
Format version : Version 4 / Version 2
File size : 2.07 GiB
Duration : 42 min 42 s
Overall bit rate : 6 928 kb/s
Encoded date : UTC 2017-03-27 01:03:36
Writing application : FastLE v3.0.0 - AVS
Writing library : libx264 + libebml + libmatroska + libfastrar

Video
ID : 1
Format : AVC
Format/Info : Advanced Video Codec
Format profile : High@L4.1
Format settings, CABAC : Yes
Format settings, ReFrames : 5 frames
Codec ID : V_MPEG4/ISO/AVC
Duration : 42 min 42 s
Bit rate : 6 406 kb/s
Width : 1 280 pixels
Height : 718 pixels
Display aspect ratio : 16:9
Frame rate mode : Constant
Frame rate : 23.976 (24000/1001) FPS
Color space : YUV
Chroma subsampling : 4:2:0
Bit depth : 8 bits
Scan type : Progressive
Bits/(Pixel*Frame) : 0.291
Stream size : 1.91 GiB (92%)
Writing library : x264 core 148 r2762 90a61ec
Encoding settings : cabac=1 / ref=5 / deblock=1:0:0 / analyse=0x3:0x113 / me=hex / subme=8 / psy=1 / psy_rd=1.00:0.00 / mixed_ref=1 / me_range=16 / chroma_me=1 / trellis=2 / 8x8dct=1 / cqm=0 / deadzone=21,11 / fast_pskip=1 / chroma_qp_offset=-2 / threads=22 / lookahead_threads=3 / sliced_threads=0 / nr=0 / decimate=1 / interlaced=0 / bluray_compat=0 / constrained_intra=0 / bframes=3 / b_pyramid=2 / b_adapt=1 / b_bias=0 / direct=3 / weightb=1 / open_gop=0 / weightp=2 / keyint=250 / keyint_min=23 / scenecut=40 / intra_refresh=0 / rc_lookahead=50 / rc=crf / mbtree=1 / crf=18.0 / qcomp=0.60 / qpmin=0 / qpmax=69 / qpstep=4 / ip_ratio=1.40 / aq=1:1.00
Default : Yes
Forced : No
Color range : Limited
Matrix coefficients : BT.709

Audio
ID : 2
Format : AC-3
Format/Info : Audio Coding 3
Mode extension : CM (complete main)
Format settings, Endianness : Big
Codec ID : A_AC3
Duration : 42 min 42 s
Bit rate mode : Constant
Bit rate : 384 kb/s
Channel(s) : 6 channels
Channel positions : Front: L C R, Side: L R, LFE
Sampling rate : 48.0 kHz
Frame rate : 31.250 FPS (1536 spf)
Compression mode : Lossy
Stream size : 117 MiB (6%)
Default : Yes
Forced : No[/color]

[url=https://www.sparrowpics.com/image/UYe][img]https://www.sparrowpics.com/images/2015/12/10/Screens.png[/img][/url]

[color=red]Click Image To View Full Size[/color]

[URL=https://www.sparrowpics.com/image/DIUf5][IMG]https://www.sparrowpics.com/images/2017/03/27/DIUf5.th.jpg[/IMG][/URL]
[URL=https://www.sparrowpics.com/image/DIgRP][b]Click To View Screenshot[/b][/URL]
[URL=https://www.sparrowpics.com/image/DI3Om][b]Click To View Screenshot[/b][/URL]
[URL=https://www.sparrowpics.com/image/DIIKr][b]Click To View Screenshot[/b][/URL]

[/center] ]]>
Homeland.S06E10.PROPER.720p.HDTV.x264-AVS[PRiME] http://glodls.to/torrent.php?id=2329897 http://glodls.to/torrent.php?id=2329897 Mon, 27 Mar 2017 02:11:19 +0100 TV Homeland.S06E10.PROPER.720p.HDTV.x264-AVS[PRiME]

[url=https://www.sparrowpics.com/image/LwB][img]https://www.sparrowpics.com/images/2015/12/10/Info.png[/img][/url]

[color=green]Complete name : Homeland.S06E10.PROPER.720p.HDTV.x264-AVS[PRiME].mkv
Format : Matroska
Format version : Version 4 / Version 2
File size : 866 MiB
Duration : 51 min 56 s
Overall bit rate : 2 332 kb/s
Encoded date : UTC 2017-03-27 01:56:45
Writing application : FastLE v3.0.0 - AVS
Writing library : libx264 + libebml + libmatroska + libfastrar

Video
ID : 1
Format : AVC
Format/Info : Advanced Video Codec
Format profile : High@L4.1
Format settings, CABAC : Yes
Format settings, ReFrames : 5 frames
Codec ID : V_MPEG4/ISO/AVC
Duration : 51 min 56 s
Bit rate : 1 901 kb/s
Width : 1 280 pixels
Height : 718 pixels
Display aspect ratio : 16:9
Frame rate mode : Constant
Frame rate : 23.976 (24000/1001) FPS
Color space : YUV
Chroma subsampling : 4:2:0
Bit depth : 8 bits
Scan type : Progressive
Bits/(Pixel*Frame) : 0.086
Stream size : 706 MiB (82%)
Writing library : x264 core 148 r2762 90a61ec
Encoding settings : cabac=1 / ref=5 / deblock=1:0:0 / analyse=0x3:0x113 / me=hex / subme=8 / psy=1 / psy_rd=1.00:0.00 / mixed_ref=1 / me_range=16 / chroma_me=1 / trellis=2 / 8x8dct=1 / cqm=0 / deadzone=21,11 / fast_pskip=1 / chroma_qp_offset=-2 / threads=22 / lookahead_threads=3 / sliced_threads=0 / nr=0 / decimate=1 / interlaced=0 / bluray_compat=0 / constrained_intra=0 / bframes=3 / b_pyramid=2 / b_adapt=1 / b_bias=0 / direct=3 / weightb=1 / open_gop=0 / weightp=2 / keyint=250 / keyint_min=23 / scenecut=40 / intra_refresh=0 / rc_lookahead=50 / rc=crf / mbtree=1 / crf=18.0 / qcomp=0.60 / qpmin=0 / qpmax=69 / qpstep=4 / ip_ratio=1.40 / aq=1:1.00
Default : Yes
Forced : No
Color range : Limited
Matrix coefficients : BT.709

Audio
ID : 2
Format : AC-3
Format/Info : Audio Coding 3
Mode extension : CM (complete main)
Format settings, Endianness : Big
Codec ID : A_AC3
Duration : 51 min 56 s
Bit rate mode : Constant
Bit rate : 384 kb/s
Channel(s) : 6 channels
Channel positions : Front: L C R, Side: L R, LFE
Sampling rate : 48.0 kHz
Frame rate : 31.250 FPS (1536 spf)
Compression mode : Lossy
Stream size : 143 MiB (16%)
Default : Yes
Forced : No[/color]

[url=https://www.sparrowpics.com/image/UYe][img]https://www.sparrowpics.com/images/2015/12/10/Screens.png[/img][/url]

[color=red]Click Image To View Full Size[/color]

[URL=https://www.sparrowpics.com/image/DI1GB][IMG]https://www.sparrowpics.com/images/2017/03/27/DI1GB.th.jpg[/IMG][/URL]
[URL=https://www.sparrowpics.com/image/DIFhe][b]Click To View Screenshot[/b][/URL]
[URL=https://www.sparrowpics.com/image/DIL0s][b]Click To View Screenshot[/b][/URL]
[URL=https://www.sparrowpics.com/image/DIMSf][b]Click To View Screenshot[/b][/URL]

[/center] ]]>
The.Walking.Dead.S07E15.HDTV.x264-SVA[PRiME] http://glodls.to/torrent.php?id=2329896 http://glodls.to/torrent.php?id=2329896 Mon, 27 Mar 2017 02:09:02 +0100 TV The.Walking.Dead.S07E15.HDTV.x264-SVA[PRiME]

[url=https://www.sparrowpics.com/image/LwB][img]https://www.sparrowpics.com/images/2015/12/10/Info.png[/img][/url]

[color=green]Complete name : The.Walking.Dead.S07E15.HDTV.x264-SVA[PRiME].mkv
Format : Matroska
Format version : Version 4 / Version 2
File size : 456 MiB
Duration : 42 min 42 s
Overall bit rate : 1 493 kb/s
Encoded date : UTC 2017-03-27 02:01:49
Writing application : FastLE v3.0.0 - AVS
Writing library : libx264 + libebml + libmatroska + libfastrar

Video
ID : 1
Format : AVC
Format/Info : Advanced Video Codec
Format profile : High@L3.1
Format settings, CABAC : Yes
Format settings, ReFrames : 5 frames
Codec ID : V_MPEG4/ISO/AVC
Duration : 42 min 42 s
Width : 720 pixels
Height : 404 pixels
Display aspect ratio : 16:9
Frame rate mode : Constant
Frame rate : 23.976 (24000/1001) FPS
Color space : YUV
Chroma subsampling : 4:2:0
Bit depth : 8 bits
Scan type : Progressive
Writing library : x264 core 148 r2762 90a61ec
Encoding settings : cabac=1 / ref=5 / deblock=1:0:0 / analyse=0x3:0x113 / me=hex / subme=8 / psy=1 / psy_rd=1.00:0.00 / mixed_ref=1 / me_range=16 / chroma_me=1 / trellis=2 / 8x8dct=1 / cqm=0 / deadzone=21,11 / fast_pskip=1 / chroma_qp_offset=-2 / threads=13 / lookahead_threads=2 / sliced_threads=0 / nr=0 / decimate=1 / interlaced=0 / bluray_compat=0 / constrained_intra=0 / bframes=3 / b_pyramid=2 / b_adapt=1 / b_bias=0 / direct=3 / weightb=1 / open_gop=0 / weightp=2 / keyint=250 / keyint_min=23 / scenecut=40 / intra_refresh=0 / rc_lookahead=50 / rc=crf / mbtree=1 / crf=19.0 / qcomp=0.60 / qpmin=0 / qpmax=69 / qpstep=4 / ip_ratio=1.40 / aq=1:1.00
Default : Yes
Forced : No
Color range : Limited
Matrix coefficients : BT.709

Audio
ID : 2
Format : AAC
Format/Info : Advanced Audio Codec
Format profile : LC
Codec ID : A_AAC
Duration : 42 min 42 s
Channel(s) : 2 channels
Channel positions : Front: L R
Sampling rate : 48.0 kHz
Frame rate : 46.875 FPS (1024 spf)
Compression mode : Lossy
Default : Yes
Forced : No[/color]

[url=https://www.sparrowpics.com/image/UYe][img]https://www.sparrowpics.com/images/2015/12/10/Screens.png[/img][/url]

[color=red]Click Image To View Full Size[/color]

[URL=https://www.sparrowpics.com/image/D32Od][IMG]https://www.sparrowpics.com/images/2017/03/27/D32Od.th.jpg[/IMG][/URL]
[URL=https://www.sparrowpics.com/image/D3BK1][b]Click To View Screenshot[/b][/URL]
[URL=https://www.sparrowpics.com/image/D3hMH][b]Click To View Screenshot[/b][/URL]
[URL=https://www.sparrowpics.com/image/D3qpT][b]Click To View Screenshot[/b][/URL]

[/center] ]]>
Chicago.Justice.S01E06.HDTV.x264-SVA[PRiME] http://glodls.to/torrent.php?id=2329895 http://glodls.to/torrent.php?id=2329895 Mon, 27 Mar 2017 02:08:57 +0100 TV Chicago.Justice.S01E06.HDTV.x264-SVA[PRiME]

[url=https://www.sparrowpics.com/image/LwB][img]https://www.sparrowpics.com/images/2015/12/10/Info.png[/img][/url]

[color=green]Complete name : Chicago.Justice.S01E06.HDTV.x264-SVA[PRiME].mkv
Format : Matroska
Format version : Version 4 / Version 2
File size : 207 MiB
Duration : 41 min 56 s
Overall bit rate : 691 kb/s
Encoded date : UTC 2017-03-27 01:59:25
Writing application : FastLE v3.0.0 - AVS
Writing library : libx264 + libebml + libmatroska + libfastrar

Video
ID : 1
Format : AVC
Format/Info : Advanced Video Codec
Format profile : High@L3.1
Format settings, CABAC : Yes
Format settings, ReFrames : 5 frames
Codec ID : V_MPEG4/ISO/AVC
Duration : 41 min 56 s
Width : 720 pixels
Height : 404 pixels
Display aspect ratio : 16:9
Frame rate mode : Constant
Frame rate : 23.976 (24000/1001) FPS
Color space : YUV
Chroma subsampling : 4:2:0
Bit depth : 8 bits
Scan type : Progressive
Writing library : x264 core 148 r2762 90a61ec
Encoding settings : cabac=1 / ref=5 / deblock=1:0:0 / analyse=0x3:0x113 / me=hex / subme=8 / psy=1 / psy_rd=1.00:0.00 / mixed_ref=1 / me_range=16 / chroma_me=1 / trellis=2 / 8x8dct=1 / cqm=0 / deadzone=21,11 / fast_pskip=1 / chroma_qp_offset=-2 / threads=13 / lookahead_threads=2 / sliced_threads=0 / nr=0 / decimate=1 / interlaced=0 / bluray_compat=0 / constrained_intra=0 / bframes=3 / b_pyramid=2 / b_adapt=1 / b_bias=0 / direct=3 / weightb=1 / open_gop=0 / weightp=2 / keyint=250 / keyint_min=23 / scenecut=40 / intra_refresh=0 / rc_lookahead=50 / rc=crf / mbtree=1 / crf=19.0 / qcomp=0.60 / qpmin=0 / qpmax=69 / qpstep=4 / ip_ratio=1.40 / aq=1:1.00
Default : Yes
Forced : No
Color range : Limited
Matrix coefficients : BT.709

Audio
ID : 2
Format : AAC
Format/Info : Advanced Audio Codec
Format profile : LC
Codec ID : A_AAC
Duration : 41 min 56 s
Channel(s) : 2 channels
Channel positions : Front: L R
Sampling rate : 48.0 kHz
Frame rate : 46.875 FPS (1024 spf)
Compression mode : Lossy
Default : Yes
Forced : No[/color]

[url=https://www.sparrowpics.com/image/UYe][img]https://www.sparrowpics.com/images/2015/12/10/Screens.png[/img][/url]

[color=red]Click Image To View Full Size[/color]

[URL=https://www.sparrowpics.com/image/D39ZK][IMG]https://www.sparrowpics.com/images/2017/03/27/D39ZK.th.jpg[/IMG][/URL]
[URL=https://www.sparrowpics.com/image/D3QSX][b]Click To View Screenshot[/b][/URL]
[URL=https://www.sparrowpics.com/image/D3ffM][b]Click To View Screenshot[/b][/URL]
[URL=https://www.sparrowpics.com/image/D3xPV][b]Click To View Screenshot[/b][/URL]

[/center] ]]>
Chicago.Justice.S01E06.720p.HDTV.x264-FLEET[PRiME] http://glodls.to/torrent.php?id=2329894 http://glodls.to/torrent.php?id=2329894 Mon, 27 Mar 2017 02:06:32 +0100 TV Chicago.Justice.S01E06.720p.HDTV.x264-FLEET[PRiME]

[url=https://www.sparrowpics.com/image/LwB][img]https://www.sparrowpics.com/images/2015/12/10/Info.png[/img][/url]

[color=green]Complete name : Chicago.Justice.S01E06.720p.HDTV.x264-FLEET[PRiME].mkv
Format : Matroska
Format version : Version 2
File size : 705 MiB
Duration : 41 min 59 s
Overall bit rate : 2 349 kb/s
Writing application : x264.exe
Writing library : mkv2rls x264-tv version built on 2016.10.12

Video
ID : 1
Format : AVC
Format/Info : Advanced Video Codec
Format profile : High@L4.1
Format settings, CABAC : Yes
Format settings, ReFrames : 5 frames
Codec ID : V_MPEG4/ISO/AVC
Duration : 41 min 59 s
Bit rate : 1 918 kb/s
Width : 1 280 pixels
Height : 718 pixels
Display aspect ratio : 16:9
Frame rate mode : Constant
Frame rate : 23.976 (24000/1001) FPS
Color space : YUV
Chroma subsampling : 4:2:0
Bit depth : 8 bits
Scan type : Progressive
Bits/(Pixel*Frame) : 0.087
Stream size : 576 MiB (82%)
Writing library : x264 core 148 r2762 90a61ec
Encoding settings : cabac=1 / ref=5 / deblock=1:0:0 / analyse=0x3:0x113 / me=umh / subme=9 / psy=1 / psy_rd=1.00:0.00 / mixed_ref=1 / me_range=16 / chroma_me=1 / trellis=2 / 8x8dct=1 / cqm=0 / deadzone=21,11 / fast_pskip=1 / chroma_qp_offset=-2 / threads=22 / lookahead_threads=1 / sliced_threads=0 / nr=0 / decimate=1 / interlaced=0 / bluray_compat=0 / constrained_intra=0 / bframes=3 / b_pyramid=2 / b_adapt=1 / b_bias=0 / direct=3 / weightb=1 / open_gop=0 / weightp=2 / keyint=250 / keyint_min=23 / scenecut=40 / intra_refresh=0 / rc_lookahead=50 / rc=crf / mbtree=1 / crf=18.0 / qcomp=0.60 / qpmin=0 / qpmax=69 / qpstep=4 / ip_ratio=1.40 / aq=1:1.00
Language : English
Default : Yes
Forced : No
Color range : Limited
Matrix coefficients : BT.709

Audio
ID : 2
Format : AC-3
Format/Info : Audio Coding 3
Mode extension : CM (complete main)
Format settings, Endianness : Big
Codec ID : A_AC3
Duration : 41 min 59 s
Bit rate mode : Constant
Bit rate : 384 kb/s
Channel(s) : 6 channels
Channel positions : Front: L C R, Side: L R, LFE
Sampling rate : 48.0 kHz
Frame rate : 31.250 FPS (1536 spf)
Compression mode : Lossy
Stream size : 115 MiB (16%)
Language : English
Default : Yes
Forced : No

Text
ID : 3
Format : UTF-8
Codec ID : S_TEXT/UTF8
Codec ID/Info : UTF-8 Plain Text
Title : English
Language : English
Default : No
Forced : No[/color]

[url=https://www.sparrowpics.com/image/UYe][img]https://www.sparrowpics.com/images/2015/12/10/Screens.png[/img][/url]

[color=red]Click Image To View Full Size[/color]

[URL=https://www.sparrowpics.com/image/D37MY][IMG]https://www.sparrowpics.com/images/2017/03/27/D37MY.th.jpg[/IMG][/URL]
[URL=https://www.sparrowpics.com/image/D3Kd9][b]Click To View Screenshot[/b][/URL]
[URL=https://www.sparrowpics.com/image/D3kGb][b]Click To View Screenshot[/b][/URL]
[URL=https://www.sparrowpics.com/image/D3mh3][b]Click To View Screenshot[/b][/URL]

[/center] ]]>
The.Last.Man.On.Earth.S03E13.HDTV.x264-SVA[PRiME] http://glodls.to/torrent.php?id=2329893 http://glodls.to/torrent.php?id=2329893 Mon, 27 Mar 2017 02:05:11 +0100 TV The.Last.Man.On.Earth.S03E13.HDTV.x264-SVA[PRiME]

[url=https://www.sparrowpics.com/image/LwB][img]https://www.sparrowpics.com/images/2015/12/10/Info.png[/img][/url]

[color=green]Complete name : The.Last.Man.On.Earth.S03E13.HDTV.x264-SVA[PRiME].mkv
Format : Matroska
Format version : Version 4 / Version 2
File size : 173 MiB
Duration : 21 min 30 s
Overall bit rate : 1 122 kb/s
Encoded date : UTC 2017-03-27 01:59:54
Writing application : FastLE v3.0.0 - AVS
Writing library : libx264 + libebml + libmatroska + libfastrar

Video
ID : 1
Format : AVC
Format/Info : Advanced Video Codec
Format profile : High@L3.1
Format settings, CABAC : Yes
Format settings, ReFrames : 5 frames
Codec ID : V_MPEG4/ISO/AVC
Duration : 21 min 30 s
Width : 720 pixels
Height : 404 pixels
Display aspect ratio : 16:9
Frame rate mode : Constant
Frame rate : 23.976 (24000/1001) FPS
Color space : YUV
Chroma subsampling : 4:2:0
Bit depth : 8 bits
Scan type : Progressive
Writing library : x264 core 148 r2762 90a61ec
Encoding settings : cabac=1 / ref=5 / deblock=1:0:0 / analyse=0x3:0x113 / me=hex / subme=8 / psy=1 / psy_rd=1.00:0.00 / mixed_ref=1 / me_range=16 / chroma_me=1 / trellis=2 / 8x8dct=1 / cqm=0 / deadzone=21,11 / fast_pskip=1 / chroma_qp_offset=-2 / threads=13 / lookahead_threads=2 / sliced_threads=0 / nr=0 / decimate=1 / interlaced=0 / bluray_compat=0 / constrained_intra=0 / bframes=3 / b_pyramid=2 / b_adapt=1 / b_bias=0 / direct=3 / weightb=1 / open_gop=0 / weightp=2 / keyint=250 / keyint_min=23 / scenecut=40 / intra_refresh=0 / rc_lookahead=50 / rc=crf / mbtree=1 / crf=19.0 / qcomp=0.60 / qpmin=0 / qpmax=69 / qpstep=4 / ip_ratio=1.40 / aq=1:1.00
Default : Yes
Forced : No
Color range : Limited
Matrix coefficients : BT.709

Audio
ID : 2
Format : AAC
Format/Info : Advanced Audio Codec
Format profile : LC
Codec ID : A_AAC
Duration : 21 min 30 s
Channel(s) : 2 channels
Channel positions : Front: L R
Sampling rate : 48.0 kHz
Frame rate : 46.875 FPS (1024 spf)
Compression mode : Lossy
Default : Yes
Forced : No[/color]

[url=https://www.sparrowpics.com/image/UYe][img]https://www.sparrowpics.com/images/2015/12/10/Screens.png[/img][/url]

[color=red]Click Image To View Full Size[/color]

[URL=https://www.sparrowpics.com/image/D3GQt][IMG]https://www.sparrowpics.com/images/2017/03/27/D3GQt.th.jpg[/IMG][/URL]
[URL=https://www.sparrowpics.com/image/D3DPZ][b]Click To View Screenshot[/b][/URL]
[URL=https://www.sparrowpics.com/image/D3Vrx][b]Click To View Screenshot[/b][/URL]
[URL=https://www.sparrowpics.com/image/D3j7N][b]Click To View Screenshot[/b][/URL]

[/center] ]]>
The.Last.Man.On.Earth.S03E13.720p.HDTV.x264-AVS[PRiME] http://glodls.to/torrent.php?id=2329892 http://glodls.to/torrent.php?id=2329892 Mon, 27 Mar 2017 02:05:09 +0100 TV The.Last.Man.On.Earth.S03E13.720p.HDTV.x264-AVS[PRiME]

[url=https://www.sparrowpics.com/image/LwB][img]https://www.sparrowpics.com/images/2015/12/10/Info.png[/img][/url]

[color=green]Complete name : The.Last.Man.On.Earth.S03E13.720p.HDTV.x264-AVS[PRiME].mkv
Format : Matroska
Format version : Version 4 / Version 2
File size : 768 MiB
Duration : 21 min 30 s
Overall bit rate : 4 996 kb/s
Encoded date : UTC 2017-03-27 01:31:31
Writing application : FastLE v3.0.0 - AVS
Writing library : libx264 + libebml + libmatroska + libfastrar

Video
ID : 1
Format : AVC
Format/Info : Advanced Video Codec
Format profile : High@L4.1
Format settings, CABAC : Yes
Format settings, ReFrames : 5 frames
Codec ID : V_MPEG4/ISO/AVC
Duration : 21 min 30 s
Bit rate : 4 448 kb/s
Width : 1 280 pixels
Height : 720 pixels
Display aspect ratio : 16:9
Frame rate mode : Constant
Frame rate : 23.976 (24000/1001) FPS
Color space : YUV
Chroma subsampling : 4:2:0
Bit depth : 8 bits
Scan type : Progressive
Bits/(Pixel*Frame) : 0.201
Stream size : 684 MiB (89%)
Writing library : x264 core 148 r2762 90a61ec
Encoding settings : cabac=1 / ref=5 / deblock=1:0:0 / analyse=0x3:0x113 / me=hex / subme=8 / psy=1 / psy_rd=1.00:0.00 / mixed_ref=1 / me_range=16 / chroma_me=1 / trellis=2 / 8x8dct=1 / cqm=0 / deadzone=21,11 / fast_pskip=1 / chroma_qp_offset=-2 / threads=18 / lookahead_threads=3 / sliced_threads=0 / nr=0 / decimate=1 / interlaced=0 / bluray_compat=0 / constrained_intra=0 / bframes=3 / b_pyramid=2 / b_adapt=1 / b_bias=0 / direct=3 / weightb=1 / open_gop=0 / weightp=2 / keyint=250 / keyint_min=23 / scenecut=40 / intra_refresh=0 / rc_lookahead=50 / rc=crf / mbtree=1 / crf=18.0 / qcomp=0.60 / qpmin=0 / qpmax=69 / qpstep=4 / ip_ratio=1.40 / aq=1:1.00
Default : Yes
Forced : No
Color range : Limited
Matrix coefficients : BT.709

Audio
ID : 2
Format : AC-3
Format/Info : Audio Coding 3
Mode extension : CM (complete main)
Format settings, Endianness : Big
Codec ID : A_AC3
Duration : 21 min 30 s
Bit rate mode : Constant
Bit rate : 448 kb/s
Channel(s) : 6 channels
Channel positions : Front: L C R, Side: L R, LFE
Sampling rate : 48.0 kHz
Frame rate : 31.250 FPS (1536 spf)
Compression mode : Lossy
Stream size : 68.9 MiB (9%)
Default : Yes
Forced : No[/color]

[url=https://www.sparrowpics.com/image/UYe][img]https://www.sparrowpics.com/images/2015/12/10/Screens.png[/img][/url]

[color=red]Click Image To View Full Size[/color]

[URL=https://www.sparrowpics.com/image/D34rr][IMG]https://www.sparrowpics.com/images/2017/03/27/D34rr.th.jpg[/IMG][/URL]
[URL=https://www.sparrowpics.com/image/D357W][b]Click To View Screenshot[/b][/URL]
[URL=https://www.sparrowpics.com/image/D3NLn][b]Click To View Screenshot[/b][/URL]
[URL=https://www.sparrowpics.com/image/D3Sdy][b]Click To View Screenshot[/b][/URL]

[/center] ]]>
Homeland.S06E10.PROPER.HDTV.x264-SVA[PRiME] http://glodls.to/torrent.php?id=2329891 http://glodls.to/torrent.php?id=2329891 Mon, 27 Mar 2017 02:05:05 +0100 TV Homeland.S06E10.PROPER.HDTV.x264-SVA[PRiME]

[url=https://www.sparrowpics.com/image/LwB][img]https://www.sparrowpics.com/images/2015/12/10/Info.png[/img][/url]

[color=green]Complete name : Homeland.S06E10.PROPER.HDTV.x264-SVA[PRiME].mkv
Format : Matroska
Format version : Version 4 / Version 2
File size : 256 MiB
Duration : 51 min 56 s
Overall bit rate : 688 kb/s
Encoded date : UTC 2017-03-27 01:58:27
Writing application : FastLE v3.0.0 - AVS
Writing library : libx264 + libebml + libmatroska + libfastrar

Video
ID : 1
Format : AVC
Format/Info : Advanced Video Codec
Format profile : High@L3.1
Format settings, CABAC : Yes
Format settings, ReFrames : 5 frames
Codec ID : V_MPEG4/ISO/AVC
Duration : 51 min 56 s
Width : 720 pixels
Height : 404 pixels
Display aspect ratio : 16:9
Frame rate mode : Constant
Frame rate : 23.976 (24000/1001) FPS
Color space : YUV
Chroma subsampling : 4:2:0
Bit depth : 8 bits
Scan type : Progressive
Writing library : x264 core 148 r2762 90a61ec
Encoding settings : cabac=1 / ref=5 / deblock=1:0:0 / analyse=0x3:0x113 / me=hex / subme=8 / psy=1 / psy_rd=1.00:0.00 / mixed_ref=1 / me_range=16 / chroma_me=1 / trellis=2 / 8x8dct=1 / cqm=0 / deadzone=21,11 / fast_pskip=1 / chroma_qp_offset=-2 / threads=13 / lookahead_threads=2 / sliced_threads=0 / nr=0 / decimate=1 / interlaced=0 / bluray_compat=0 / constrained_intra=0 / bframes=3 / b_pyramid=2 / b_adapt=1 / b_bias=0 / direct=3 / weightb=1 / open_gop=0 / weightp=2 / keyint=250 / keyint_min=23 / scenecut=40 / intra_refresh=0 / rc_lookahead=50 / rc=crf / mbtree=1 / crf=19.0 / qcomp=0.60 / qpmin=0 / qpmax=69 / qpstep=4 / ip_ratio=1.40 / aq=1:1.00
Default : Yes
Forced : No
Color range : Limited
Matrix coefficients : BT.709

Audio
ID : 2
Format : AAC
Format/Info : Advanced Audio Codec
Format profile : LC
Codec ID : A_AAC
Duration : 51 min 56 s
Channel(s) : 2 channels
Channel positions : Front: L R
Sampling rate : 48.0 kHz
Frame rate : 46.875 FPS (1024 spf)
Compression mode : Lossy
Default : Yes
Forced : No[/color]

[url=https://www.sparrowpics.com/image/UYe][img]https://www.sparrowpics.com/images/2015/12/10/Screens.png[/img][/url]

[color=red]Click Image To View Full Size[/color]

[URL=https://www.sparrowpics.com/image/D3eGJ][IMG]https://www.sparrowpics.com/images/2017/03/27/D3eGJ.th.jpg[/IMG][/URL]
[URL=https://www.sparrowpics.com/image/D3lCc][b]Click To View Screenshot[/b][/URL]
[URL=https://www.sparrowpics.com/image/D38Z6][b]Click To View Screenshot[/b][/URL]
[URL=https://www.sparrowpics.com/image/D3HNh][b]Click To View Screenshot[/b][/URL]

[/center] ]]>
[Passion-hd]Bella Rose - Reunited /27 03 2017 http://glodls.to/torrent.php?id=2329890 http://glodls.to/torrent.php?id=2329890 Mon, 27 Mar 2017 02:03:09 +0100 Adult XXX
[center][URL=http://imgtornado.com/img-58d8c1db633a5.html][IMG]http://imgtornado.com/upload/small/2017/03/27/58d8c1db6336f.jpeg[/IMG][/URL][size=4]


[Passion-hd]Bella Rose - Reunited /27.03.2017


Video Duration: 00:27:05
Video Size: 158 MiB



[b]Screen 1[/b]
[url]http://imgtornado.com/img-58d8c1f460b2b.html[/url]
[b]Screen 2[/b]
[url]http://imggold.org/9qx89kl7ytuq/4052c16cb57d.jpg.html[/url]
[b]Best Shoot[/b]
[url]http://imgstudio.org/img-58d86ff1d7e05.html[/url]
[/size]
[/center] ]]>
[ManyVids]MySweetApple - Hungry Cock Sucker [ mp4] http://glodls.to/torrent.php?id=2329889 http://glodls.to/torrent.php?id=2329889 Mon, 27 Mar 2017 02:02:18 +0100 Adult XXX
[center][URL=http://imgtornado.com/img-58d8c24a0374e.html][IMG]http://imgtornado.com/upload/small/2017/03/27/58d8c24a03711.jpeg[/IMG][/URL][size=4]

[ManyVids]MySweetApple - Hungry Cock Sucker [.mp4]


Video Duration: 00:12:08
Video: 723 MB


[b]Screen 1[/b]
[url]http://imgtornado.com/img-58d7f0d5a38ec.html[/url]
[b]Screen 2[/b]
[url]http://imggold.org/hlrxkagyc8mr/6d5b122eb3e1.jpeg.html[/url]
[b]Best Shoot[/b]
[url]http://imgstudio.org/img-58d8700653770.html[/url]
[/size]
[/center] ]]>
[Clips4sale]Hope Harper - Stretch Me Daddy low res [ mp4] http://glodls.to/torrent.php?id=2329888 http://glodls.to/torrent.php?id=2329888 Mon, 27 Mar 2017 02:01:27 +0100 Adult XXX
[center][URL=http://imgtornado.com/img-58d8c2b9ef87c.html][IMG]http://imgtornado.com/upload/small/2017/03/27/58d8c2b9ef840.jpeg[/IMG][/URL][size=4]


[Clips4sale]Hope Harper - Stretch Me Daddy low res [.mp4]


Duration: 00:11:50
Size: 344 MB

[url]http://imgtornado.com/img-58d8c2d0c63f4.html[/url]
[b]Screen 2[/b]
[url]http://imggold.org/28a2abm1zrhq/de109c7d4714.jpeg.html[/url]
[b]Best Shoot[/b]
[url]http://imgstudio.org/img-58d8701475e31.html[/url]
[/size]
[/center] ]]>
Homeland.S06E10.720p.HDTV.x264-FLEET[PRiME] http://glodls.to/torrent.php?id=2329887 http://glodls.to/torrent.php?id=2329887 Mon, 27 Mar 2017 02:01:18 +0100 TV Homeland.S06E10.720p.HDTV.x264-FLEET[PRiME]

[url=https://www.sparrowpics.com/image/LwB][img]https://www.sparrowpics.com/images/2015/12/10/Info.png[/img][/url]

[color=green]Complete name : Homeland.S06E10.720p.HDTV.x264-FLEET[PRiME].mkv
Format : Matroska
Format version : Version 2
File size : 845 MiB
Duration : 51 min 26 s
Overall bit rate : 2 296 kb/s
Writing application : x264.exe
Writing library : mkv2rls x264-tv version built on 2016.10.12

Video
ID : 1
Format : AVC
Format/Info : Advanced Video Codec
Format profile : High@L4.1
Format settings, CABAC : Yes
Format settings, ReFrames : 5 frames
Codec ID : V_MPEG4/ISO/AVC
Duration : 51 min 26 s
Bit rate : 1 866 kb/s
Width : 1 280 pixels
Height : 720 pixels
Display aspect ratio : 16:9
Frame rate mode : Constant
Frame rate : 23.976 (24000/1001) FPS
Color space : YUV
Chroma subsampling : 4:2:0
Bit depth : 8 bits
Scan type : Progressive
Bits/(Pixel*Frame) : 0.084
Stream size : 687 MiB (81%)
Writing library : x264 core 148 r2762 90a61ec
Encoding settings : cabac=1 / ref=5 / deblock=1:0:0 / analyse=0x3:0x113 / me=umh / subme=9 / psy=1 / psy_rd=1.00:0.00 / mixed_ref=1 / me_range=16 / chroma_me=1 / trellis=2 / 8x8dct=1 / cqm=0 / deadzone=21,11 / fast_pskip=1 / chroma_qp_offset=-2 / threads=18 / lookahead_threads=1 / sliced_threads=0 / nr=0 / decimate=1 / interlaced=0 / bluray_compat=0 / constrained_intra=0 / bframes=3 / b_pyramid=2 / b_adapt=1 / b_bias=0 / direct=3 / weightb=1 / open_gop=0 / weightp=2 / keyint=250 / keyint_min=23 / scenecut=40 / intra_refresh=0 / rc_lookahead=50 / rc=crf / mbtree=1 / crf=18.0 / qcomp=0.60 / qpmin=0 / qpmax=69 / qpstep=4 / ip_ratio=1.40 / aq=1:1.00
Language : English
Default : Yes
Forced : No
Color range : Limited
Matrix coefficients : BT.709

Audio
ID : 2
Format : AC-3
Format/Info : Audio Coding 3
Mode extension : CM (complete main)
Format settings, Endianness : Big
Codec ID : A_AC3
Duration : 51 min 26 s
Bit rate mode : Constant
Bit rate : 384 kb/s
Channel(s) : 6 channels
Channel positions : Front: L C R, Side: L R, LFE
Sampling rate : 48.0 kHz
Frame rate : 31.250 FPS (1536 spf)
Compression mode : Lossy
Stream size : 141 MiB (17%)
Language : English
Default : Yes
Forced : No

Text
ID : 3
Format : UTF-8
Codec ID : S_TEXT/UTF8
Codec ID/Info : UTF-8 Plain Text
Title : English
Language : English
Default : No
Forced : No[/color]

[url=https://www.sparrowpics.com/image/UYe][img]https://www.sparrowpics.com/images/2015/12/10/Screens.png[/img][/url]

[color=red]Click Image To View Full Size[/color]

[URL=https://www.sparrowpics.com/image/D3Xuf][IMG]https://www.sparrowpics.com/images/2017/03/27/D3Xuf.th.jpg[/IMG][/URL]
[URL=https://www.sparrowpics.com/image/D3aN5][b]Click To View Screenshot[/b][/URL]
[URL=https://www.sparrowpics.com/image/D3rQP][b]Click To View Screenshot[/b][/URL]
[URL=https://www.sparrowpics.com/image/D3bIm][b]Click To View Screenshot[/b][/URL]

[/center] ]]>
Big.Little.Lies.S01E06.720p.HDTV.x264-AVS[PRiME] http://glodls.to/torrent.php?id=2329886 http://glodls.to/torrent.php?id=2329886 Mon, 27 Mar 2017 02:01:14 +0100 TV Big.Little.Lies.S01E06.720p.HDTV.x264-AVS[PRiME]

[url=https://www.sparrowpics.com/image/LwB][img]https://www.sparrowpics.com/images/2015/12/10/Info.png[/img][/url]

[color=green]Complete name : Big.Little.Lies.S01E06.720p.HDTV.x264-AVS[PRiME].mkv
Format : Matroska
Format version : Version 4 / Version 2
File size : 1.00 GiB
Duration : 51 min 29 s
Overall bit rate : 2 790 kb/s
Encoded date : UTC 2017-03-27 01:05:57
Writing application : FastLE v3.0.0 - AVS
Writing library : libx264 + libebml + libmatroska + libfastrar

Video
ID : 1
Format : AVC
Format/Info : Advanced Video Codec
Format profile : High@L4.1
Format settings, CABAC : Yes
Format settings, ReFrames : 5 frames
Codec ID : V_MPEG4/ISO/AVC
Duration : 51 min 29 s
Bit rate : 2 350 kb/s
Width : 1 280 pixels
Height : 718 pixels
Display aspect ratio : 16:9
Frame rate mode : Constant
Frame rate : 23.976 (24000/1001) FPS
Color space : YUV
Chroma subsampling : 4:2:0
Bit depth : 8 bits
Scan type : Progressive
Bits/(Pixel*Frame) : 0.107
Stream size : 866 MiB (84%)
Writing library : x264 core 148 r2762 90a61ec
Encoding settings : cabac=1 / ref=5 / deblock=1:0:0 / analyse=0x3:0x113 / me=hex / subme=8 / psy=1 / psy_rd=1.00:0.00 / mixed_ref=1 / me_range=16 / chroma_me=1 / trellis=2 / 8x8dct=1 / cqm=0 / deadzone=21,11 / fast_pskip=1 / chroma_qp_offset=-2 / threads=22 / lookahead_threads=3 / sliced_threads=0 / nr=0 / decimate=1 / interlaced=0 / bluray_compat=0 / constrained_intra=0 / bframes=3 / b_pyramid=2 / b_adapt=1 / b_bias=0 / direct=3 / weightb=1 / open_gop=0 / weightp=2 / keyint=250 / keyint_min=23 / scenecut=40 / intra_refresh=0 / rc_lookahead=50 / rc=crf / mbtree=1 / crf=18.0 / qcomp=0.60 / qpmin=0 / qpmax=69 / qpstep=4 / ip_ratio=1.40 / aq=1:1.00
Default : Yes
Forced : No
Color range : Limited
Matrix coefficients : BT.709

Audio
ID : 2
Format : AC-3
Format/Info : Audio Coding 3
Mode extension : CM (complete main)
Format settings, Endianness : Big
Codec ID : A_AC3
Duration : 51 min 29 s
Bit rate mode : Constant
Bit rate : 384 kb/s
Channel(s) : 6 channels
Channel positions : Front: L C R, Side: L R, LFE
Sampling rate : 48.0 kHz
Frame rate : 31.250 FPS (1536 spf)
Compression mode : Lossy
Stream size : 141 MiB (14%)
Default : Yes
Forced : No[/color]

[url=https://www.sparrowpics.com/image/UYe][img]https://www.sparrowpics.com/images/2015/12/10/Screens.png[/img][/url]

[color=red]Click Image To View Full Size[/color]

[URL=https://www.sparrowpics.com/image/D3ALT][IMG]https://www.sparrowpics.com/images/2017/03/27/D3ALT.th.jpg[/IMG][/URL]
[URL=https://www.sparrowpics.com/image/D3dAB][b]Click To View Screenshot[/b][/URL]
[URL=https://www.sparrowpics.com/image/D3pHe][b]Click To View Screenshot[/b][/URL]
[URL=https://www.sparrowpics.com/image/D3yCs][b]Click To View Screenshot[/b][/URL]

[/center] ]]>
Big.Little.Lies.Part.6.720p.HDTV.x264-FLEET[PRiME] http://glodls.to/torrent.php?id=2329885 http://glodls.to/torrent.php?id=2329885 Mon, 27 Mar 2017 02:01:11 +0100 TV Big.Little.Lies.Part.6.720p.HDTV.x264-FLEET[PRiME]

[url=https://www.sparrowpics.com/image/LwB][img]https://www.sparrowpics.com/images/2015/12/10/Info.png[/img][/url]

[color=green]Complete name : Big.Little.Lies.Part.6.720p.HDTV.x264-FLEET[PRiME].mkv
Format : Matroska
Format version : Version 2
File size : 1.02 GiB
Duration : 53 min 5 s
Overall bit rate : 2 762 kb/s
Writing application : x264.exe
Writing library : mkv2rls x264-tv version built on 2016.10.12

Video
ID : 1
Format : AVC
Format/Info : Advanced Video Codec
Format profile : High@L4.1
Format settings, CABAC : Yes
Format settings, ReFrames : 5 frames
Codec ID : V_MPEG4/ISO/AVC
Duration : 53 min 5 s
Bit rate : 2 323 kb/s
Width : 1 280 pixels
Height : 718 pixels
Display aspect ratio : 16:9
Frame rate mode : Constant
Frame rate : 23.976 (24000/1001) FPS
Color space : YUV
Chroma subsampling : 4:2:0
Bit depth : 8 bits
Scan type : Progressive
Bits/(Pixel*Frame) : 0.105
Stream size : 882 MiB (84%)
Writing library : x264 core 148 r2762 90a61ec
Encoding settings : cabac=1 / ref=5 / deblock=1:0:0 / analyse=0x3:0x113 / me=hex / subme=8 / psy=1 / psy_rd=1.00:0.00 / mixed_ref=1 / me_range=16 / chroma_me=1 / trellis=2 / 8x8dct=1 / cqm=0 / deadzone=21,11 / fast_pskip=1 / chroma_qp_offset=-2 / threads=22 / lookahead_threads=3 / sliced_threads=0 / nr=0 / decimate=1 / interlaced=0 / bluray_compat=0 / constrained_intra=0 / bframes=3 / b_pyramid=2 / b_adapt=1 / b_bias=0 / direct=3 / weightb=1 / open_gop=0 / weightp=2 / keyint=250 / keyint_min=23 / scenecut=40 / intra_refresh=0 / rc_lookahead=50 / rc=crf / mbtree=1 / crf=18.0 / qcomp=0.60 / qpmin=0 / qpmax=69 / qpstep=4 / ip_ratio=1.40 / aq=1:1.00
Language : English
Default : Yes
Forced : No
Color range : Limited
Matrix coefficients : BT.709

Audio
ID : 2
Format : AC-3
Format/Info : Audio Coding 3
Mode extension : CM (complete main)
Format settings, Endianness : Big
Codec ID : A_AC3
Duration : 53 min 5 s
Bit rate mode : Constant
Bit rate : 384 kb/s
Channel(s) : 6 channels
Channel(s)_Original : 2 channels
Channel positions : Front: L R
Sampling rate : 48.0 kHz
Frame rate : 31.250 FPS (1536 spf)
Compression mode : Lossy
Stream size : 146 MiB (14%)
Language : English
Default : Yes
Forced : No

Text
ID : 3
Format : UTF-8
Codec ID : S_TEXT/UTF8
Codec ID/Info : UTF-8 Plain Text
Title : English
Language : English
Default : No
Forced : No[/color]

[url=https://www.sparrowpics.com/image/UYe][img]https://www.sparrowpics.com/images/2015/12/10/Screens.png[/img][/url]

[color=red]Click Image To View Full Size[/color]

[URL=https://www.sparrowpics.com/image/D3u9V][IMG]https://www.sparrowpics.com/images/2017/03/27/D3u9V.th.jpg[/IMG][/URL]
[URL=https://www.sparrowpics.com/image/D30Id][b]Click To View Screenshot[/b][/URL]
[URL=https://www.sparrowpics.com/image/D3Tr1][b]Click To View Screenshot[/b][/URL]
[URL=https://www.sparrowpics.com/image/D3inH][b]Click To View Screenshot[/b][/URL]

[/center] ]]>
Elementary.S05E18.720p.HDTV.X264-DIMENSION[ettv] http://glodls.to/torrent.php?id=2329884 http://glodls.to/torrent.php?id=2329884 Mon, 27 Mar 2017 02:00:28 +0100 TV http://www.tvrage.com/schedule.php?show_yesterday=1. ]]> Elementary.S05E18.HDTV.x264-LOL[ettv] http://glodls.to/torrent.php?id=2329883 http://glodls.to/torrent.php?id=2329883 Mon, 27 Mar 2017 02:00:27 +0100 TV http://www.tvrage.com/schedule.php?show_yesterday=1. ]]> The Only Way Is Essex S20E07 480p WEBRip x264-SOIL http://glodls.to/torrent.php?id=2329879 http://glodls.to/torrent.php?id=2329879 Mon, 27 Mar 2017 02:00:24 +0100 TV http://www.tvrage.com/schedule.php?show_yesterday=1. ]]> The.Originals.S04E01.WEB-DL.x264-HEFF http://glodls.to/torrent.php?id=2329877 http://glodls.to/torrent.php?id=2329877 Mon, 27 Mar 2017 02:00:22 +0100 TV http://www.tvrage.com/schedule.php?show_yesterday=1. ]]> Saving.Hope.S05E03.HDTV.x264-KILLERS[ettv] http://glodls.to/torrent.php?id=2329876 http://glodls.to/torrent.php?id=2329876 Mon, 27 Mar 2017 02:00:21 +0100 TV http://www.tvrage.com/schedule.php?show_yesterday=1. ]]> Saving.Hope.S05E03.720p.HDTV.x264-KILLERS[ettv] http://glodls.to/torrent.php?id=2329875 http://glodls.to/torrent.php?id=2329875 Mon, 27 Mar 2017 02:00:19 +0100 TV http://www.tvrage.com/schedule.php?show_yesterday=1. ]]> The.Originals.S04E02.HDTV.x264-HEFF http://glodls.to/torrent.php?id=2329874 http://glodls.to/torrent.php?id=2329874 Mon, 27 Mar 2017 02:00:18 +0100 TV http://www.tvrage.com/schedule.php?show_yesterday=1. ]]> Gold.Rush.S07E00.Before.The.Trail.720p.HDTV.x264-W4F[ettv] http://glodls.to/torrent.php?id=2329873 http://glodls.to/torrent.php?id=2329873 Mon, 27 Mar 2017 02:00:16 +0100 TV http://www.tvrage.com/schedule.php?show_yesterday=1. ]]> Gold.Rush.S07E00.Before.The.Trail.HDTV.x264-W4F[ettv] http://glodls.to/torrent.php?id=2329872 http://glodls.to/torrent.php?id=2329872 Mon, 27 Mar 2017 02:00:15 +0100 TV http://www.tvrage.com/schedule.php?show_yesterday=1. ]]> NCIS.Los.Angeles.S08E19.720p.HDTV.X264-DIMENSION[ettv] http://glodls.to/torrent.php?id=2329870 http://glodls.to/torrent.php?id=2329870 Mon, 27 Mar 2017 02:00:13 +0100 TV http://www.tvrage.com/schedule.php?show_yesterday=1. ]]> NCIS.Los.Angeles.S08E19.HDTV.x264-LOL[ettv] http://glodls.to/torrent.php?id=2329869 http://glodls.to/torrent.php?id=2329869 Mon, 27 Mar 2017 02:00:11 +0100 TV http://www.tvrage.com/schedule.php?show_yesterday=1. ]]> Tiny.House.Nation.S05E12.370.Sq.Ft.Triathletes.Tiny.Abode.WEB-DL.x264-JIVE.mp4 [imass] http://glodls.to/torrent.php?id=2329861 http://glodls.to/torrent.php?id=2329861 Mon, 27 Mar 2017 02:00:05 +0100 TV http://www.tvrage.com/schedule.php?show_yesterday=1. ]]> Fighting Man of the Plains (Western 1949) Randolph Scott 720p [WWRG] http://glodls.to/torrent.php?id=2329860 http://glodls.to/torrent.php?id=2329860 Mon, 27 Mar 2017 02:00:04 +0100 Movies Say.Yes.to.the.Dress.UK.S01E04.Price.of.Style.480p.WEB.x264-RMTeam.mkv [imass] http://glodls.to/torrent.php?id=2329859 http://glodls.to/torrent.php?id=2329859 Mon, 27 Mar 2017 02:00:03 +0100 TV http://www.tvrage.com/schedule.php?show_yesterday=1. ]]> Homeland.S06E10.HDTV.x264-FLEET[PRiME] http://glodls.to/torrent.php?id=2329858 http://glodls.to/torrent.php?id=2329858 Mon, 27 Mar 2017 01:58:54 +0100 TV Homeland.S06E10.HDTV.x264-FLEET[PRiME]

[url=https://www.sparrowpics.com/image/LwB][img]https://www.sparrowpics.com/images/2015/12/10/Info.png[/img][/url]

[color=green]Complete name : Homeland.S06E10.HDTV.x264-FLEET[PRiME].mkv
Format : Matroska
Format version : Version 2
File size : 257 MiB
Duration : 51 min 26 s
Overall bit rate : 698 kb/s
Writing application : x264.exe
Writing library : mkv2rls x264-tv version built on 2016.10.12

Video
ID : 1
Format : AVC
Format/Info : Advanced Video Codec
Format profile : High@L3.1
Format settings, CABAC : Yes
Format settings, ReFrames : 5 frames
Codec ID : V_MPEG4/ISO/AVC
Duration : 51 min 26 s
Width : 720 pixels
Height : 404 pixels
Display aspect ratio : 16:9
Frame rate mode : Constant
Frame rate : 23.976 (24000/1001) FPS
Color space : YUV
Chroma subsampling : 4:2:0
Bit depth : 8 bits
Scan type : Progressive
Writing library : x264 core 148 r2762 90a61ec
Encoding settings : cabac=1 / ref=5 / deblock=1:0:0 / analyse=0x3:0x113 / me=umh / subme=9 / psy=1 / psy_rd=1.00:0.00 / mixed_ref=1 / me_range=16 / chroma_me=1 / trellis=2 / 8x8dct=1 / cqm=0 / deadzone=21,11 / fast_pskip=1 / chroma_qp_offset=-2 / threads=13 / lookahead_threads=1 / sliced_threads=0 / nr=0 / decimate=1 / interlaced=0 / bluray_compat=0 / constrained_intra=0 / bframes=3 / b_pyramid=2 / b_adapt=1 / b_bias=0 / direct=3 / weightb=1 / open_gop=0 / weightp=2 / keyint=250 / keyint_min=23 / scenecut=40 / intra_refresh=0 / rc_lookahead=50 / rc=crf / mbtree=1 / crf=19.0 / qcomp=0.60 / qpmin=0 / qpmax=69 / qpstep=4 / ip_ratio=1.40 / aq=1:1.00
Language : English
Default : Yes
Forced : No
Color range : Limited
Matrix coefficients : BT.709

Audio
ID : 2
Format : AAC
Format/Info : Advanced Audio Codec
Format profile : LC
Codec ID : A_AAC
Duration : 51 min 26 s
Channel(s) : 2 channels
Channel positions : Front: L R
Sampling rate : 48.0 kHz
Frame rate : 46.875 FPS (1024 spf)
Compression mode : Lossy
Language : English
Default : Yes
Forced : No[/color]

[url=https://www.sparrowpics.com/image/UYe][img]https://www.sparrowpics.com/images/2015/12/10/Screens.png[/img][/url]

[color=red]Click Image To View Full Size[/color]

[URL=https://www.sparrowpics.com/image/D3PH3][IMG]https://www.sparrowpics.com/images/2017/03/27/D3PH3.th.jpg[/IMG][/URL]
[URL=https://www.sparrowpics.com/image/D3RBK][b]Click To View Screenshot[/b][/URL]
[URL=https://www.sparrowpics.com/image/D3ouX][b]Click To View Screenshot[/b][/URL]
[URL=https://www.sparrowpics.com/image/D3sNM][b]Click To View Screenshot[/b][/URL]

[/center] ]]>
Big.Little.Lies.S01E06.HDTV.x264-SVA[PRiME] http://glodls.to/torrent.php?id=2329857 http://glodls.to/torrent.php?id=2329857 Mon, 27 Mar 2017 01:58:45 +0100 TV Big.Little.Lies.S01E06.HDTV.x264-SVA[PRiME]

[url=https://www.sparrowpics.com/image/LwB][img]https://www.sparrowpics.com/images/2015/12/10/Info.png[/img][/url]

[color=green]Complete name : Big.Little.Lies.S01E06.HDTV.x264-SVA[PRiME].mkv
Format : Matroska
Format version : Version 4 / Version 2
File size : 293 MiB
Duration : 51 min 29 s
Overall bit rate : 795 kb/s
Encoded date : UTC 2017-03-27 01:52:45
Writing application : FastLE v3.0.0 - AVS
Writing library : libx264 + libebml + libmatroska + libfastrar

Video
ID : 1
Format : AVC
Format/Info : Advanced Video Codec
Format profile : High@L3.1
Format settings, CABAC : Yes
Format settings, ReFrames : 5 frames
Codec ID : V_MPEG4/ISO/AVC
Duration : 51 min 29 s
Width : 720 pixels
Height : 404 pixels
Display aspect ratio : 16:9
Frame rate mode : Constant
Frame rate : 23.976 (24000/1001) FPS
Color space : YUV
Chroma subsampling : 4:2:0
Bit depth : 8 bits
Scan type : Progressive
Writing library : x264 core 148 r2762 90a61ec
Encoding settings : cabac=1 / ref=5 / deblock=1:0:0 / analyse=0x3:0x113 / me=hex / subme=8 / psy=1 / psy_rd=1.00:0.00 / mixed_ref=1 / me_range=16 / chroma_me=1 / trellis=2 / 8x8dct=1 / cqm=0 / deadzone=21,11 / fast_pskip=1 / chroma_qp_offset=-2 / threads=13 / lookahead_threads=2 / sliced_threads=0 / nr=0 / decimate=1 / interlaced=0 / bluray_compat=0 / constrained_intra=0 / bframes=3 / b_pyramid=2 / b_adapt=1 / b_bias=0 / direct=3 / weightb=1 / open_gop=0 / weightp=2 / keyint=250 / keyint_min=23 / scenecut=40 / intra_refresh=0 / rc_lookahead=50 / rc=crf / mbtree=1 / crf=19.0 / qcomp=0.60 / qpmin=0 / qpmax=69 / qpstep=4 / ip_ratio=1.40 / aq=1:1.00
Default : Yes
Forced : No
Color range : Limited
Matrix coefficients : BT.709

Audio
ID : 2
Format : AAC
Format/Info : Advanced Audio Codec
Format profile : LC
Codec ID : A_AAC
Duration : 51 min 29 s
Channel(s) : 2 channels
Channel positions : Front: L R
Sampling rate : 48.0 kHz
Frame rate : 46.875 FPS (1024 spf)
Compression mode : Lossy
Default : Yes
Forced : No[/color]

[url=https://www.sparrowpics.com/image/UYe][img]https://www.sparrowpics.com/images/2015/12/10/Screens.png[/img][/url]

[color=red]Click Image To View Full Size[/color]

[URL=https://www.sparrowpics.com/image/D3UaN][IMG]https://www.sparrowpics.com/images/2017/03/27/D3UaN.th.jpg[/IMG][/URL]
[URL=https://www.sparrowpics.com/image/D3WnY][b]Click To View Screenshot[/b][/URL]
[URL=https://www.sparrowpics.com/image/D33J9][b]Click To View Screenshot[/b][/URL]
[URL=https://www.sparrowpics.com/image/D3IAb][b]Click To View Screenshot[/b][/URL]

[/center] ]]>
The.Maiden.Heist.NTSC.DVD9.ISO-D2 http://glodls.to/torrent.php?id=2329856 http://glodls.to/torrent.php?id=2329856 Mon, 27 Mar 2017 01:55:30 +0100 Movies [color=red][b]
The.Maiden.Heist.NTSC.DVD9.ISO-D2

[/b][/color]


IMDb: http://www.imdb.com/title/tt1107860/


[img]https://images-na.ssl-images-amazon.com/images/M/MV5BMTc0MTc0MjE0MF5BMl5BanBnXkFtZTcwMDU1NzI4Mg@@._V1_SX300.jpg[/img]


[url=https://boltimg.com/image/t52z][img]https://boltimg.com/images/t52z.png[/img][/url]



[color=green][b]
No information available.
[/b][/color]


[url=https://boltimg.com/image/tzTE][img]https://boltimg.com/images/tzTE.png[/img][/url]



[color=purple][b](Click to enlarge)[/b][/color]

No screenshots available.

[/center]
]]>
MommyGotBoobs - Julia Ann - Hooked On Bras (480p 1000) ***NEW MARCH 26, 2017 NEW*** http://glodls.to/torrent.php?id=2329855 http://glodls.to/torrent.php?id=2329855 Mon, 27 Mar 2017 01:50:19 +0100 Adult XXX [URL=http://imagedecode.com/img-58d86917657a9.html]
[IMG]http://imagedecode.com/upload/small/2017/03/27/58d8691765770.jpg[/IMG][/URL]

[b][u]Screenshots[/u][/b]
[b][url]http://imagedecode.com/img-58d86917657a9.html[/url][/b]

[b][u]Description/Synopsis[/u][/b]
Julia Ann is worried about her step-son since he often has girls come over and then suddenly leave. Julia decides to ask Jessy about his luck with the ladies, and he confesses to being unable to unhook their bras. Julia decides to help her downtrodden step-son by allowing him to practice unhooking her bra! Once the bra is off, Julia congratulates Jessy who can't help but succumb to his step-mom's huge tits! Julia decides to continue to educate her step-son, because once the bra's off, he has to learn how to worship her big tits!

[b][u]MediaInfo[/u][/b]
Video: MPEG4 Video (H264) 854x480 (16:9) 23.976fps 989kbps [V: English [eng] (h264 high L3.0, yuv420p, 854x480, 989 kb/s)]
Audio: AAC 48000Hz stereo 128kbps [A: SoundHandler [eng] (aac, 48000 Hz, stereo, 128 kb/s)] ]]>
Bella Rose - Reunited http://glodls.to/torrent.php?id=2329854 http://glodls.to/torrent.php?id=2329854 Mon, 27 Mar 2017 01:48:12 +0100 Adult XXX
[b]Date[/b]: 27.03.2017
[b]Cast[/b]: Bella Rose
[b]Genre[/b]: all sex
[b]Name[/b]: Reunited


[b]Video[/b]: 1280x720 (16:9), 29.970 fps
[b]Audio[/b]: AAC, 128 Kbps, 2 ch, 48 KHz
[b]Format[/b]: mp4
[b]Duration[/b]: 00:27:05
]]>
[AnimeRG] Hand Shakers - 9 [720p] [English Dub] [ReleaseBitch] http://glodls.to/torrent.php?id=2329853 http://glodls.to/torrent.php?id=2329853 Mon, 27 Mar 2017 01:47:35 +0100 Anime [center]If you Find any corruption or errors in encoding, Please mention in comments or site chat.
[u][b][size=150]..::Video Specs::..[/size][/b][/u]

Format/Info : Advanced Video Codec
Resolution : 1280x720
Frame Rate : 23.976 fps

[u][b][size=150]..::Audio Specs::..[/size][/b][/u]

Format/Info : Advanced Audio Codec
Channels : 2 channels
Sample Rate : 48KHz
Language : English

[u][b][size=150]..::Subtitles::..[/size][/b][/u]

Language : English
Type : None
Format : -[/center]
]]>
[DorcelClub]Alexa Tomas - Pornstar Alexa Tomas/27 03 2017 [ mp4] http://glodls.to/torrent.php?id=2329852 http://glodls.to/torrent.php?id=2329852 Mon, 27 Mar 2017 01:43:32 +0100 Adult XXX
[center][URL=http://imgtornado.com/img-58d8bcf95f08b.html][IMG]http://imgtornado.com/upload/small/2017/03/27/58d8bcf95f051.jpeg[/IMG][/URL][size=4]

[DorcelClub]Alexa Tomas - Pornstar : Alexa Tomas/27.03.2017 [.mp4]


Video Duration: 00:28:30
Video: 431 MiB

[b]Screen 1[/b]
[url]http://imgtornado.com/img-58d8bd18d1044.html[/url]
[b]Screen 2[/b]
[url]http://imggold.org/d26xvfooan9g/4672506ab427.jpg.html[/url]
[b]Best Shoot[/b]
[url]http://imgstudio.org/img-58d86b484ea4c.html[/url]
[/size]
[/center] ]]>
[WoodmanCastingX]PierreWoodman - Stasy Riviera - Hard - Mad destruction by 3 men [ mp4] http://glodls.to/torrent.php?id=2329851 http://glodls.to/torrent.php?id=2329851 Mon, 27 Mar 2017 01:42:47 +0100 Adult XXX [center][URL=http://imgtornado.com/img-58d8bd88f085c.html][IMG]http://imgtornado.com/upload/small/2017/03/27/58d8bd88f0821.jpeg[/IMG][/URL][size=4]


[WoodmanCastingX]PierreWoodman - Stasy Riviera - Hard - Mad destruction by 3 men [.mp4]


Video Duration: 00:52:43
Video: 572 Mb

[b]Screen 1[/b]
[url]http://imgtornado.com/img-58d8bd9ceaacc.html[/url]
[b]Screen 2[/b]
[url]http://imggold.org/z1a60zl6xu8x/21e8a650e923.jpg.html[/url]
[b]Best Shoot[/b]
[url]http://imgstudio.org/img-58d86b7a84243.html[/url]
[/size]
[/center] ]]>
[CzechMassage]Czechav - Amateurs - Czech Massage 335/27 03 2017 [ mp4] http://glodls.to/torrent.php?id=2329850 http://glodls.to/torrent.php?id=2329850 Mon, 27 Mar 2017 01:42:02 +0100 Adult XXX
[center][URL=http://imgtornado.com/img-58d8be0cd5d48.html][IMG]http://imgtornado.com/upload/small/2017/03/27/58d8be0cd5d0b.jpeg[/IMG][/URL][size=4]

[CzechMassage]Czechav - Amateurs - Czech Massage 335/27.03.2017 [.mp4]


Video Duration: 00:17;31
Video: 267 Mib



[b]Screen 1[/b]
[url]http://imgtornado.com/img-58d8be1e8fbb3.html[/url]
[b]Screen 2[/b]
[url]http://imggold.org/rs6ipjsg6nqw/32c0d336a851.jpg.html[/url]
[b]Best Shoot[/b]
[url]http://imgstudio.org/img-58d86b60f1960.html[/url]
[/size]
[/center] ]]>
Family.Guy.S15E17.720p.HDTV.x264-AVS[PRiME] http://glodls.to/torrent.php?id=2329849 http://glodls.to/torrent.php?id=2329849 Mon, 27 Mar 2017 01:34:37 +0100 TV Family.Guy.S15E17.720p.HDTV.x264-AVS[PRiME]

[url=https://www.sparrowpics.com/image/LwB][img]https://www.sparrowpics.com/images/2015/12/10/Info.png[/img][/url]

[color=green]Complete name : Family.Guy.S15E17.720p.HDTV.x264-AVS[PRiME].mkv
Format : Matroska
Format version : Version 4 / Version 2
File size : 383 MiB
Duration : 20 min 57 s
Overall bit rate : 2 555 kb/s
Encoded date : UTC 2017-03-27 01:06:29
Writing application : FastLE v3.0.0 - AVS
Writing library : libx264 + libebml + libmatroska + libfastrar

Video
ID : 1
Format : AVC
Format/Info : Advanced Video Codec
Format profile : High@L4.1
Format settings, CABAC : Yes
Format settings, ReFrames : 5 frames
Codec ID : V_MPEG4/ISO/AVC
Duration : 20 min 57 s
Bit rate : 2 056 kb/s
Width : 1 280 pixels
Height : 720 pixels
Display aspect ratio : 16:9
Frame rate mode : Constant
Frame rate : 23.976 (24000/1001) FPS
Color space : YUV
Chroma subsampling : 4:2:0
Bit depth : 8 bits
Scan type : Progressive
Bits/(Pixel*Frame) : 0.093
Stream size : 308 MiB (80%)
Writing library : x264 core 148 r2762 90a61ec
Encoding settings : cabac=1 / ref=5 / deblock=1:0:0 / analyse=0x3:0x113 / me=hex / subme=8 / psy=1 / psy_rd=1.00:0.00 / mixed_ref=1 / me_range=16 / chroma_me=1 / trellis=2 / 8x8dct=1 / cqm=0 / deadzone=21,11 / fast_pskip=1 / chroma_qp_offset=-2 / threads=18 / lookahead_threads=3 / sliced_threads=0 / nr=0 / decimate=1 / interlaced=0 / bluray_compat=0 / constrained_intra=0 / bframes=3 / b_pyramid=2 / b_adapt=1 / b_bias=0 / direct=3 / weightb=1 / open_gop=0 / weightp=2 / keyint=250 / keyint_min=23 / scenecut=40 / intra_refresh=0 / rc_lookahead=50 / rc=crf / mbtree=1 / crf=18.0 / qcomp=0.60 / qpmin=0 / qpmax=69 / qpstep=4 / ip_ratio=1.40 / aq=1:1.00
Default : Yes
Forced : No
Color range : Limited
Matrix coefficients : BT.709

Audio
ID : 2
Format : AC-3
Format/Info : Audio Coding 3
Mode extension : CM (complete main)
Format settings, Endianness : Big
Codec ID : A_AC3
Duration : 20 min 57 s
Bit rate mode : Constant
Bit rate : 448 kb/s
Channel(s) : 6 channels
Channel positions : Front: L C R, Side: L R, LFE
Sampling rate : 48.0 kHz
Frame rate : 31.250 FPS (1536 spf)
Compression mode : Lossy
Stream size : 67.1 MiB (18%)
Default : Yes
Forced : No[/color]

[url=https://www.sparrowpics.com/image/UYe][img]https://www.sparrowpics.com/images/2015/12/10/Screens.png[/img][/url]

[color=red]Click Image To View Full Size[/color]

[URL=https://www.sparrowpics.com/image/D31sh][IMG]https://www.sparrowpics.com/images/2017/03/27/D31sh.th.jpg[/IMG][/URL]
[URL=https://www.sparrowpics.com/image/D3FEt][b]Click To View Screenshot[/b][/URL]
[URL=https://www.sparrowpics.com/image/D3J9Z][b]Click To View Screenshot[/b][/URL]
[URL=https://www.sparrowpics.com/image/D3M3x][b]Click To View Screenshot[/b][/URL]

[/center] ]]>