GloDLS.to - Download Movies, TV, Games and Other Torrents Free RSS 2.0enGloDLS.to - Download Movies, TV, Games and Other Torrents FreeGloDLS.to - Download Movies, TV, Games and Other Torrents Free RSS Feedhttp://glodls.toCopyright GloDLS.to - Download Movies, TV, Games and Other Torrents FreeTue, 27 Jun 2017 16:48:38 +0100 Chuttalabbayi aka Chuttalabbai (2016) HDRip H264 Hindi Dubbed AAC - SSEC http://glodls.to/torrent.php?id=2588481 http://glodls.to/torrent.php?id=2588481 Tue, 27 Jun 2017 15:48:34 +0100 Movies > Click Here To Help Us. It Cost Nothing Just Need One Mouse Click ! Cheers[/url]

[url=http://786zx.com/i/image/xNrq][img]http://786zx.com/i/images/2017/05/13/28209838058092017913.png[/img][/url]

[url=http://786zx.com/i/image/dWAB][img]http://786zx.com/i/images/2017/06/27/imgchuttalabbayi.md.jpg[/img][/url]

[color=#FF0080][b]Media iNfo:[/b][/color]

[url=http://786zx.com/paste/paste.php?id=66]http://786zx.com/paste/paste.php?id=66[/url]

[url=http://www.imdb.com/title/tt6070344/]IMDb: 5.9/10[/url]

[url=http://786zx.com/i/image/dqSd][img]http://786zx.com/i/images/2017/06/27/vlcsnap-2017-06-27-21h09m57s147.md.png[/img][/url]
[url=http://786zx.com/i/image/d97E][img]http://786zx.com/i/images/2017/06/27/vlcsnap-2017-06-27-21h10m31s668.md.png[/img][/url]
[url=http://786zx.com/i/image/dh0z][img]http://786zx.com/i/images/2017/06/27/vlcsnap-2017-06-27-21h10m50s612.md.png[/img][/url]
[url=http://786zx.com/i/image/dQJn][img]http://786zx.com/i/images/2017/06/27/vlcsnap-2017-06-27-21h11m02s946.md.png[/img][/url]
[url=http://786zx.com/i/image/dMrs][img]http://786zx.com/i/images/2017/06/27/vlcsnap-2017-06-27-21h11m14s859.md.png[/img][/url]
[url=http://786zx.com/i/image/dlNy][img]http://786zx.com/i/images/2017/06/27/vlcsnap-2017-06-27-21h11m33s467.md.png[/img][/url]
[url=http://786zx.com/i/image/deIN][img]http://786zx.com/i/images/2017/06/27/vlcsnap-2017-06-27-21h12m18s790.md.png[/img][/url]




[/center] ]]>
Glastonbury.2017.Lisa.Hannigan.Highlights.HDTV.x264-PLUTONiUM http://glodls.to/torrent.php?id=2588480 http://glodls.to/torrent.php?id=2588480 Tue, 27 Jun 2017 15:47:12 +0100 TV
[url=https://www.sparrowpics.com/image/LwB][img]https://www.sparrowpics.com/images/2015/12/10/Info.png[/img][/url]

[b]Complete name : glastonbury.2017.lisa.hannigan.highlights.hdtv.x264-plutonium.mkv
Format : Matroska
Format version : Version 4 / Version 2
File size : 169 MiB
Duration : 30 min 26 s
Overall bit rate : 774 kb/s
Encoded date : UTC 2010-02-22 21:41:29
Writing application : no_variable_data
Writing library : no_variable_data

Video
ID : 1
Format : AVC
Format/Info : Advanced Video Codec
Format profile : High@L3.1
Format settings, CABAC : Yes
Format settings, ReFrames : 5 frames
Codec ID : V_MPEG4/ISO/AVC
Duration : 30 min 26 s
Width : 720 pixels
Height : 404 pixels
Display aspect ratio : 16:9
Frame rate mode : Constant
Frame rate : 50.000 FPS
Color space : YUV
Chroma subsampling : 4:2:0
Bit depth : 8 bits
Scan type : Progressive
Writing library : x264 core 150 r2833 df79067
Encoding settings : cabac=1 / ref=5 / deblock=1:0:0 / analyse=0x3:0x113 / me=hex / subme=8 / psy=1 / psy_rd=1.00:0.00 / mixed_ref=1 / me_range=16 / chroma_me=1 / trellis=2 / 8x8dct=1 / cqm=0 / deadzone=21,11 / fast_pskip=1 / chroma_qp_offset=-2 / threads=12 / lookahead_threads=2 / sliced_threads=0 / nr=0 / decimate=1 / interlaced=0 / bluray_compat=0 / constrained_intra=0 / bframes=3 / b_pyramid=2 / b_adapt=1 / b_bias=0 / direct=3 / weightb=1 / open_gop=0 / weightp=2 / keyint=250 / keyint_min=25 / scenecut=40 / intra_refresh=0 / rc_lookahead=50 / rc=crf / mbtree=1 / crf=24.0 / qcomp=0.60 / qpmin=0 / qpmax=69 / qpstep=4 / ip_ratio=1.40 / aq=1:1.00
Language : English
Default : Yes
Forced : No
Color range : Limited
Matrix coefficients : BT.709

Audio
ID : 2
Format : AAC
Format/Info : Advanced Audio Codec
Format profile : LC
Codec ID : A_AAC
Duration : 30 min 26 s
Channel(s) : 2 channels
Channel positions : Front: L R
Sampling rate : 48.0 kHz
Frame rate : 46.875 FPS (1024 spf)
Compression mode : Lossy
Language : English
Default : Yes
Forced : No[/b]

[url=https://www.sparrowpics.com/image/UYe][img]https://www.sparrowpics.com/images/2015/12/10/Screens.png[/img][/url]

[URL=https://tv.sparrowpics.com/image/kSCH][IMG]https://tv.sparrowpics.com/images/2017/06/27/kSCH.th.jpg[/IMG][/URL]
[URL=https://tv.sparrowpics.com/image/kyZ0][b]Click To View Screenshot[/b][/URL]
[URL=https://tv.sparrowpics.com/image/kUFy][b]Click To View Screenshot[/b][/URL]
[URL=https://tv.sparrowpics.com/image/kp23][b]Click To View Screenshot[/b][/URL][/center] ]]>
[Anal-Beauty - TeenMegaWorld] Carry Cherry Lad checks brunette holes (26 06 2017) http://glodls.to/torrent.php?id=2588479 http://glodls.to/torrent.php?id=2588479 Tue, 27 Jun 2017 15:47:06 +0100 Adult XXX
Genre :- [Anal, 400p]

Screenshot :-

[url=http://imgtorrnt.in/view.php?id=nbo09CX][color=green] View Screen 1 [/color] [/url]

[url=http://imgtorrnt.in/view.php?id=i8H5n9F][color=green] View Screen 2 [/color] [/url]

[img]http://i95.fastpic.ru/big/2017/0626/fa/e2bb12591f9305f897e3d01cf0faf4fa.jpg[/img]

]]>
[PornstarsLikeItBig] Kagney Linn Karter - Kagney s Anal Expert-Tease (29 06 2017) rq (2k) mp4 http://glodls.to/torrent.php?id=2588478 http://glodls.to/torrent.php?id=2588478 Tue, 27 Jun 2017 15:45:01 +0100 Adult XXX Audio: aac, 48000 Hz, stereo, s16, 128 kb/s (eng)
Video: h264, yuv420p, 854x480, 1986 kb/s, 23,98 fps(r) (eng)

http://www.pixsense.net/site/v/2144529#51&2144529

]]>
[TeenErotica xxx] Monika Wild In a Young Babes Backdoor (26 06 2017) http://glodls.to/torrent.php?id=2588477 http://glodls.to/torrent.php?id=2588477 Tue, 27 Jun 2017 15:43:50 +0100 Adult XXX
Genre :- [Anal, 480p]

Screenshot :-

[url=http://imgtorrnt.in/view.php?id=0TvRj4A][color=green] View Screen 1 [/color] [/url]

[url=http://imgtorrnt.in/view.php?id=gAIzzyA][color=green] View Screen 2 [/color] [/url]

[img]http://i95.fastpic.ru/big/2017/0626/0d/4225d37ca68510019ab350f1b894e20d.jpg[/img]

]]>
[PornstarsLikeItBig] Kagney Linn Karter - Kagney s Anal Expert-Tease (29 06 2017) rq (1k) mp4 http://glodls.to/torrent.php?id=2588476 http://glodls.to/torrent.php?id=2588476 Tue, 27 Jun 2017 15:41:26 +0100 Adult XXX Audio: aac, 48000 Hz, stereo, s16, 128 kb/s (eng)
Video: h264, yuv420p, 854x480, 991 kb/s, 23,98 fps(r) (eng)

http://www.pixsense.net/site/v/2144529#51&2144529

]]>
FirstAnalQuest 17 06 27 Kira Roller XXX 480p MP4-TK http://glodls.to/torrent.php?id=2588475 http://glodls.to/torrent.php?id=2588475 Tue, 27 Jun 2017 15:40:49 +0100 Adult XXX
[b]Screenshots:[/b]

[url]http://imgking.co/imgs-59527c82d4b84.html[/url]

[url]http://imgking.co/imgs-59527c82c813d.html[/url]

[url]http://imgking.co/imgs-59527c82acd81.html[/url]

[url]http://imgking.co/imgs-59527c80dcc45.html[/url]

File Size : 296 MiB
Duration : 35mn 35s
Video : h264, yuv420p, 854x480p, 1024 Kbps
Audio : aac , 2 ch, stereo , 128 Kbps ]]>
[DoTheWife] Laura Devis Hey Dude- Wanna Ass Fuck My Wife (26 06 2017) http://glodls.to/torrent.php?id=2588474 http://glodls.to/torrent.php?id=2588474 Tue, 27 Jun 2017 15:40:45 +0100 Adult XXX
Genre :- [Anal, IR, 480p]

Screenshot :-

[url=http://imgtorrnt.in/view.php?id=8SwnG5o][color=green] View Screen 1 [/color] [/url]

[url=http://imgtorrnt.in/view.php?id=PNN0BFP][color=green] View Screen 2 [/color] [/url]

[img]http://i94.fastpic.ru/big/2017/0626/d2/80a8265d8b2cc198db73c6b7cd158cd2.jpg[/img]

]]>
[JacquieEtMichelTV] Lindsay 25ans- veut semanciper (26 06 2017) http://glodls.to/torrent.php?id=2588472 http://glodls.to/torrent.php?id=2588472 Tue, 27 Jun 2017 15:37:35 +0100 Adult XXX
Genre :- [All sex, 480p]

Screenshot :-

[url=http://imgtorrnt.in/view.php?id=XznELpu][color=green] View Screen 1 [/color] [/url]

[url=http://imgtorrnt.in/view.php?id=0eqEOpe][color=green] View Screen 2 [/color] [/url]

[img]http://i95.fastpic.ru/big/2017/0626/22/2953ade4045460e094907f512ad40422.jpg[/img]

]]>
Lullu Gun - Quick Afternoon Fuck in the Kitchen http://glodls.to/torrent.php?id=2588470 http://glodls.to/torrent.php?id=2588470 Tue, 27 Jun 2017 15:36:39 +0100 Adult XXX
[b]Date[/b]: 27.06.2017
[b]Cast[/b]: Lullu Gun
[b]Genre[/b]: all sex
[b]Name[/b]: Quick Afternoon Fuck in the Kitchen


[b]Video[/b]: 1280x720 (16:9), 29.970 fps
[b]Audio[/b]: AAC, 128 Kbps, 2 ch, 48 KHz
[b]Format[/b]: mp4
[b]Duration[/b]: 00:23:57
]]>
Motivational.Growth.2013.BDRip.x264-VoMiT http://glodls.to/torrent.php?id=2588468 http://glodls.to/torrent.php?id=2588468 Tue, 27 Jun 2017 15:35:33 +0100 Movies
[b]ImDb: [URL]http://www.imdb.com/title/tt1754228[/URL][/b]

[url=https://www.sparrowpics.com/image/LwB][img]https://www.sparrowpics.com/images/2015/12/10/Info.png[/img][/url]

[b]Complete name : Motivational.Growth.2013.BDRip.x264-VoMiT.mkv
Format : Matroska
Format version : Version 4 / Version 2
File size : 528 MiB
Duration : 1 h 45 min
Overall bit rate : 703 kb/s
Encoded date : UTC 2017-06-27 13:40:09
Writing application : mkvmerge v13.0.0 ('The Juggler') 64bit
Writing library : libebml v1.3.4 + libmatroska v1.4.5

Video
ID : 1
Format : AVC
Format/Info : Advanced Video Codec
Format profile : High@L3.1
Format settings, CABAC : Yes
Format settings, ReFrames : 5 frames
Codec ID : V_MPEG4/ISO/AVC
Duration : 1 h 45 min
Bit rate : 586 kb/s
Width : 720 pixels
Height : 308 pixels
Display aspect ratio : 2.35:1
Frame rate mode : Constant
Frame rate : 23.976 (24000/1001) FPS
Color space : YUV
Chroma subsampling : 4:2:0
Bit depth : 8 bits
Scan type : Progressive
Bits/(Pixel*Frame) : 0.110
Stream size : 441 MiB (83%)
Writing library : x264 core 150 r2833 df79067
Encoding settings : cabac=1 / ref=5 / deblock=1:-3:-3 / analyse=0x3:0x113 / me=umh / subme=8 / psy=1 / psy_rd=1.00:0.25 / mixed_ref=1 / me_range=24 / chroma_me=1 / trellis=2 / 8x8dct=1 / cqm=0 / deadzone=21,11 / fast_pskip=1 / chroma_qp_offset=-4 / threads=10 / lookahead_threads=1 / sliced_threads=0 / nr=0 / decimate=1 / interlaced=0 / bluray_compat=0 / constrained_intra=0 / bframes=3 / b_pyramid=2 / b_adapt=1 / b_bias=0 / direct=3 / weightb=1 / open_gop=0 / weightp=2 / keyint=240 / keyint_min=24 / scenecut=40 / intra_refresh=0 / rc_lookahead=50 / rc=crf / mbtree=1 / crf=19.0 / qcomp=0.60 / qpmin=0 / qpmax=69 / qpstep=4 / ip_ratio=1.40 / aq=1:0.75
Default : Yes
Forced : No
Color range : Limited
Matrix coefficients : BT.709

Audio
ID : 2
Format : AAC
Format/Info : Advanced Audio Codec
Format profile : LC
Codec ID : A_AAC
Duration : 1 h 45 min
Bit rate : 115 kb/s
Channel(s) : 2 channels
Channel positions : Front: L R
Sampling rate : 48.0 kHz
Frame rate : 46.875 FPS (1024 spf)
Compression mode : Lossy
Delay relative to video : 9 ms
Stream size : 86.2 MiB (16%)
Language : English
Default : Yes
Forced : No

Menu
00:00:00.000 : en:00:00:00.000
00:12:25.745 : en:00:12:25.745
00:19:58.698 : en:00:19:58.698
00:30:31.830 : en:00:30:31.830
00:41:52.510 : en:00:41:52.510
00:53:14.441 : en:00:53:14.441
01:05:05.151 : en:01:05:05.151
01:15:24.520 : en:01:15:24.520
01:29:54.764 : en:01:29:54.764
01:42:25.514 : en:01:42:25.514
01:45:01.504 : en:01:45:01.504[/b]

[url=https://www.sparrowpics.com/image/UYe][img]https://www.sparrowpics.com/images/2015/12/10/Screens.png[/img][/url]

[URL=https://www.sparrowpics.com/image/k3mRb][IMG]https://www.sparrowpics.com/images/2017/06/27/k3mRb.th.jpg[/IMG][/URL]
[URL=https://www.sparrowpics.com/image/k3vb3][b]Click To View Screenshot[/b][/URL]
[URL=https://www.sparrowpics.com/image/k39KK][b]Click To View Screenshot[/b][/URL]
[URL=https://www.sparrowpics.com/image/k3fUX][b]Click To View Screenshot[/b][/URL][/center] ]]>
Motivational.Growth.2013.BDRip.x264-VoMiT http://glodls.to/torrent.php?id=2588464 http://glodls.to/torrent.php?id=2588464 Tue, 27 Jun 2017 15:34:37 +0100 Movies [color=red][b]
Motivational.Growth.2013.BDRip.x264-VoMiT

[/b][/color]


IMDb: http://www.imdb.com/title/tt1754228/





[url=https://boltimg.com/image/t52z][img]https://boltimg.com/images/t52z.png[/img][/url]



[color=green][b]
General

(Duration): 1h 45mn
(FileSize): 528 MiB



Audio

(Format): AAC - Advanced Audio Codec
(Codec): AAC LC



Video

(Format): AVC - Advanced Video Codec
(Media): video/H264
(Format): x264
(Resolution): 720x308 px
(AspectRatio): 2.35:1
(FrameRate): 23.976 fps




[/b][/color]


[url=https://boltimg.com/image/tzTE][img]https://boltimg.com/images/tzTE.png[/img][/url]



[color=purple][b](Click to enlarge)[/b][/color]

[url=https://boltimg.com/image/WqgO3][img]https://boltimg.com/images/WqgO3.th.jpg[/img][/url] [url=https://boltimg.com/image/Wq4Hn][img]https://boltimg.com/images/Wq4Hn.th.jpg[/img][/url] [url=https://boltimg.com/image/WqMWA][img]https://boltimg.com/images/WqMWA.th.jpg[/img][/url] [url=https://boltimg.com/image/WqQXk][img]https://boltimg.com/images/WqQXk.th.jpg[/img][/url] [url=https://boltimg.com/image/WqyUm][img]https://boltimg.com/images/WqyUm.th.jpg[/img][/url] [url=https://boltimg.com/image/WqSPI][img]https://boltimg.com/images/WqSPI.th.jpg[/img][/url]

[/center]
]]>
[PornstarPlatinum] Ava Devine The Head Nurse (26 06 2017) http://glodls.to/torrent.php?id=2588463 http://glodls.to/torrent.php?id=2588463 Tue, 27 Jun 2017 15:34:29 +0100 Adult XXX
Genre :- [All sex, IR, 540p]

Screenshot :-

[url=http://imgtorrnt.in/view.php?id=Vpe8fic][color=green] View Screen 1 [/color] [/url]

[url=http://imgtorrnt.in/view.php?id=RjwkAPE][color=green] View Screen 2 [/color] [/url]

[img]http://i96.fastpic.ru/big/2017/0626/e7/b13f41378e8fec4b0cf9f17188f398e7.jpg[/img]

]]>
I.Came.Inside.A.School.Girl.3.XXX.720P.WEBRIP.MP4-GUSH[N1C] http://glodls.to/torrent.php?id=2588459 http://glodls.to/torrent.php?id=2588459 Tue, 27 Jun 2017 15:33:19 +0100 Adult XXX I.Came.Inside.A.School.Girl.3.XXX.720P.WEBRIP.MP4-GUSH


[Format]: MPEG-4
[Duration]: 1h 40mn
[Resolution]: 1 280 x 720 pixels
[Display aspect ratio]: 16:9
[Frame rate mode]: Constant
[Frame rate]: 25.000 fps


[color=green][b]#N1C -> To avoid fakes, ALWAYS check that the torrent was added by NO1CARES[/b][/color]




[color=green][b]Help us by donating with Bitcoin: 1Pgwp16gmLHmPzgjJLxZnMw7YeqiUekUoe[/b][/color]

[b]Screens...[/b]
[url]http://HotImage.uk/img-59527a743877e.html[/url]
[url]http://HotImage.uk/img-59527a74448ec.html[/url]
[url]http://HotImage.uk/img-59527a744d842.html[/url]
[url]http://HotImage.uk/img-59527a74555d5.html[/url] ]]>
I Came Inside A School Girl 3 XXX 720P WEBRIP MP4-GUSH http://glodls.to/torrent.php?id=2588454 http://glodls.to/torrent.php?id=2588454 Tue, 27 Jun 2017 15:31:25 +0100 Adult XXX
[b]Screenshots:[/b]

[url]http://imgking.co/imgs-59527a4e96261.html[/url]

[url]http://imgking.co/imgs-59527a4e7e783.html[/url]

[url]http://imgking.co/imgs-59527a4e4d203.html[/url]

[url]http://imgking.co/imgs-59527a4abafc6.html[/url]

]]>
[MomKnowsBest - Twistys] Arya Fae- Lauren Phillips Horny In Hiding (30 06 2017) http://glodls.to/torrent.php?id=2588453 http://glodls.to/torrent.php?id=2588453 Tue, 27 Jun 2017 15:31:21 +0100 Adult XXX
Genre :- [Domination, Pussy Licking, 69, Lesbian, Sex, Tribbing, Boob play, Kissing, Pussy Fingering, Spanking, Scissoring]

Screenshot :-

[url=http://imgtorrnt.in/view.php?id=Sbe1Oyw][color=green] View Screen 1 [/color] [/url]

[url=http://imgtorrnt.in/view.php?id=J2sOO4D][color=green] View Screen 2 [/color] [/url]

[img]http://i93.fastpic.ru/big/2017/0626/52/fe99ebffa52093688a8e3392ba655e52.jpg[/img]

]]>
DaneJones.17.06.27.Lullu.Gun.XXX.1080p.MP4-KTR[N1C] http://glodls.to/torrent.php?id=2588450 http://glodls.to/torrent.php?id=2588450 Tue, 27 Jun 2017 15:30:30 +0100 Adult XXX DaneJones.17.06.27.Lullu.Gun.XXX.1080p.MP4-KTR


[Format]: MPEG-4
[Duration]: 23mn 57s
[Resolution]: 1 920 x 1 080 pixels
[Display aspect ratio]: 16:9
[Frame rate mode]: Constant
[Frame rate]: 25.000 fps


[color=green][b]#N1C -> To avoid fakes, ALWAYS check that the torrent was added by NO1CARES[/b][/color]




[color=green][b]Help us by donating with Bitcoin: 1Pgwp16gmLHmPzgjJLxZnMw7YeqiUekUoe[/b][/color]

[b]Screens...[/b]
[url]http://HotImage.uk/img-595279b37160c.html[/url]
[url]http://HotImage.uk/img-595279b3855ad.html[/url]
[url]http://HotImage.uk/img-595279b393694.html[/url]
[url]http://HotImage.uk/img-595279b39f7d7.html[/url] ]]>
The.Lost.City.of.Z.(2017)720p.WebRip.H264.AAC.Plex-PapaFatHead.mp4 http://glodls.to/torrent.php?id=2588448 http://glodls.to/torrent.php?id=2588448 Tue, 27 Jun 2017 15:29:54 +0100 Movies [color=red][b]
The.Lost.City.of.Z.(2017)720p.WebRip.H264.AAC.Plex-PapaFatHead.mp4

[/b][/color]


IMDb: http://www.imdb.com/title/tt6839052





[url=https://boltimg.com/image/t52z][img]https://boltimg.com/images/t52z.png[/img][/url]



[color=green][b]
No information available.
[/b][/color]


[url=https://boltimg.com/image/tzTE][img]https://boltimg.com/images/tzTE.png[/img][/url]



[color=purple][b](Click to enlarge)[/b][/color]

[url=https://boltimg.com/image/WqbUZ][img]https://boltimg.com/images/WqbUZ.th.jpg[/img][/url] [url=https://boltimg.com/image/WqoKl][img]https://boltimg.com/images/WqoKl.th.jpg[/img][/url] [url=https://boltimg.com/image/WqucP][img]https://boltimg.com/images/WqucP.th.jpg[/img][/url] [url=https://boltimg.com/image/WqB3e][img]https://boltimg.com/images/WqB3e.th.jpg[/img][/url] [url=https://boltimg.com/image/WqKac][img]https://boltimg.com/images/WqKac.th.jpg[/img][/url] [url=https://boltimg.com/image/WqP7u][img]https://boltimg.com/images/WqP7u.th.jpg[/img][/url]

[/center]
]]>
MomsLickTeens.17.06.27.Naomi.Woods.And.Alena.Croft.Sealing.The.Deal.XXX.1080p.MP4-KTR[N1C] http://glodls.to/torrent.php?id=2588447 http://glodls.to/torrent.php?id=2588447 Tue, 27 Jun 2017 15:29:18 +0100 Adult XXX MomsLickTeens.17.06.27.Naomi.Woods.And.Alena.Croft.Sealing.The.Deal.XXX.1080p.MP4-KTR


[Format]: MPEG-4
[Duration]: 49mn 17s
[Resolution]: 1 920 x 1 080 pixels
[Display aspect ratio]: 16:9
[Frame rate mode]: Constant
[Frame rate]: 23.976 fps


[color=green][b]#N1C -> To avoid fakes, ALWAYS check that the torrent was added by NO1CARES[/b][/color]




[color=green][b]Help us by donating with Bitcoin: 1Pgwp16gmLHmPzgjJLxZnMw7YeqiUekUoe[/b][/color]

[b]Screens...[/b]
[url]http://HotImage.uk/img-595279a2a109b.html[/url]
[url]http://HotImage.uk/img-595279a2b60c5.html[/url]
[url]http://HotImage.uk/img-595279a2c4ba0.html[/url]
[url]http://HotImage.uk/img-595279a2d11de.html[/url] ]]>
[PublicAgent] Lullu Gun - Amazing Ass Rides Big Cock in Public (27 06 2017) rq mp4 http://glodls.to/torrent.php?id=2588446 http://glodls.to/torrent.php?id=2588446 Tue, 27 Jun 2017 15:28:31 +0100 Adult XXX Audio: aac, 48000 Hz, 2 channels, s16, 128 kb/s (eng)
Video: h264, yuv420p, 854x480, 1503 kb/s, 25,00 fps(r) (und)

http://imgclick.net/zqqmws1t6t14/pba.jpeg.html


]]>
Francesca Le Is A Hotwife 2 XXX DVDRip x264-Pr0nStarS http://glodls.to/torrent.php?id=2588445 http://glodls.to/torrent.php?id=2588445 Tue, 27 Jun 2017 15:26:09 +0100 Adult XXX
xmr^AiiA

a

These mad Pr0nStarS proudly present their next release!

Francesca.Le.Is.A.Hotwife.2.XXX.DVDRip.x264-Pr0nStarS

RELEASE.DATE..27.06.2017 SIZE..........42x50MB
DVD.DATE......22.06.2017 CRF...........20
PROD..YEAR....2017
SOURCE........DVD RUNNING.TIME..177 Min
AUDIO.BITRATE.172 kbps CODEC.........X264
VIDEO.BITRATE.1402 kbps GENRE.........Milf
COMPANY.......Evil Angel RESOLUTION....720x404

Starring
Francesca Le, Angela White

Pr0nStarS is a XXX group dedicated to bringing
some of the best releases and the best possible
quality for the XXX lovers out there!

All releases will follow these rules:

Max 2 months from DVD date
Production date 2012

If you like the release... go buy the DVD :wink:

Our Regards:
SCREAM,HATRED,SPARE,WiiZARD,STRiKE
PORNOLATION,DIVXFACTORY,SWE6RUS

ASCII PROUDLY DONE BY XMR^AiiA FEB 2003

Cover:
[url=https://pixxxels.org/image/4q869m3z3/]https://pixxxels.org/image/4q869m3z3/[/url]
[url=https://pixxxels.org/image/bfeppmpb3/]https://pixxxels.org/image/bfeppmpb3/[/url]

Screens:
[url=https://pixxxels.org/image/wiomxdwgv/]https://pixxxels.org/image/wiomxdwgv/[/url]
[url=https://pixxxels.org/image/b7r2t4ecf/]https://pixxxels.org/image/b7r2t4ecf/[/url]
[url=https://pixxxels.org/image/f2ugvoxi7/]https://pixxxels.org/image/f2ugvoxi7/[/url] ]]>
Bruno Mars & David Guetta - Versace On The Floor (Single) (2017) Mp3 320kbps [WR Music] http://glodls.to/torrent.php?id=2588444 http://glodls.to/torrent.php?id=2588444 Tue, 27 Jun 2017 15:25:55 +0100 Music
[b]
Artist : Bruno Mars & David Guetta

Genres : Pop

Quality - Mp3, 320Kbps

Tracklist

Versace On The Floor (Bruno Mars vs. David Guetta) (3:48) [/b]

[/center]
]]>
CumFiesta.17.06.27.Daisy.Stone.Daisy.Is.Fucking.Flexible.XXX.1080p.MP4-KTR[N1C] http://glodls.to/torrent.php?id=2588438 http://glodls.to/torrent.php?id=2588438 Tue, 27 Jun 2017 15:21:13 +0100 Adult XXX CumFiesta.17.06.27.Daisy.Stone.Daisy.Is.Fucking.Flexible.XXX.1080p.MP4-KTR


[Format]: MPEG-4
[Duration]: 33mn 6s
[Resolution]: 1 920 x 1 080 pixels
[Display aspect ratio]: 16:9
[Frame rate mode]: Constant
[Frame rate]: 29.970 fps


[color=green][b]#N1C -> To avoid fakes, ALWAYS check that the torrent was added by NO1CARES[/b][/color]




[color=green][b]Help us by donating with Bitcoin: 1Pgwp16gmLHmPzgjJLxZnMw7YeqiUekUoe[/b][/color]

[b]Screens...[/b]
[url]http://HotImage.uk/img-595277b81ea67.html[/url]
[url]http://HotImage.uk/img-595277b833feb.html[/url]
[url]http://HotImage.uk/img-595277b8430bb.html[/url]
[url]http://HotImage.uk/img-595277b84eac8.html[/url] ]]>
[DaneJones] Lullu Gun - Quick Afternoon Fuck in the Kitchen (27 06 2017) rq mp4 http://glodls.to/torrent.php?id=2588437 http://glodls.to/torrent.php?id=2588437 Tue, 27 Jun 2017 15:20:31 +0100 Adult XXX Audio: aac, 48000 Hz, 2 channels, s16, 128 kb/s (eng)
Video: h264, yuv420p, 854x480, 1498 kb/s, 25,00 fps(r) (und)

https://imgadult.com/img-595277964d7f7.html

]]>
[MomsLickTeens] Naomi Woods, Alena Croft - Sealing The Deal (27 06 2017) rq mp4 http://glodls.to/torrent.php?id=2588436 http://glodls.to/torrent.php?id=2588436 Tue, 27 Jun 2017 15:15:39 +0100 Adult XXX Audio: aac, 48000 Hz, 2 channels, s16, 127 kb/s (und)
Video: h264, yuv420p, 768x432, 794 kb/s, 23,98 fps(r) (und)

https://imgwallet.com/img-59527666c171d.html

]]>
SisLovesMe 17 06 27 Daisy Stone XXX 480p MP4-TK http://glodls.to/torrent.php?id=2588435 http://glodls.to/torrent.php?id=2588435 Tue, 27 Jun 2017 15:14:17 +0100 Adult XXX
[b]Screenshots:[/b]

[url]http://imgking.co/imgs-5952764b04f6f.html[/url]

[url]http://imgking.co/imgs-5952764aed0af.html[/url]

[url]http://imgking.co/imgs-5952764ad50dc.html[/url]

[url]http://imgking.co/imgs-59527644808d3.html[/url]

File Size : 240 MiB
Duration : 28mn 46s
Video : h264, yuv420p, 854x480p, 1024 Kbps
Audio : aac , 2 ch, stereo , 128 Kbps ]]>
Olivia Grace - Naughty blonde in great massage porn movie http://glodls.to/torrent.php?id=2588434 http://glodls.to/torrent.php?id=2588434 Tue, 27 Jun 2017 15:12:23 +0100 Adult XXX
[b]Date[/b]: 2016
[b]Cast[/b]: Olivia Grace
[b]Genre[/b]: blonde, massage, licking
[b]Name[/b]: Naughty blonde in great massage porn movie


[b]Video[/b]: AVC, 1280x720, 29.970 FPS, 2000 kb/s
[b]Audio[/b]: AAC LC, 48.0 kHz, 2 channels, 128 kb/s
[b]Format[/b]: mp4
[b]Duration[/b]: 00:24:57
]]>
[CumFiesta] Daisy Stone - Daisy Is Fucking Flexible (27 06 2017) rq mp4 http://glodls.to/torrent.php?id=2588433 http://glodls.to/torrent.php?id=2588433 Tue, 27 Jun 2017 15:09:14 +0100 Adult XXX Audio: aac, 48000 Hz, 2 channels, s16, 128 kb/s (und)
Video: h264, yuv420p, 768x432, 921 kb/s, 29,97 fps(r) (und)

https://imgtaxi.com/img-595274e01c7da.html

]]>
ReadyOrNotHereICum 17 06 27 Canela Skin And Susy Gala XXX 480p MP4-TK http://glodls.to/torrent.php?id=2588432 http://glodls.to/torrent.php?id=2588432 Tue, 27 Jun 2017 15:08:54 +0100 Adult XXX
[b]Screenshots:[/b]

[url]http://imgking.co/imgs-595275076a308.html[/url]

[url]http://imgking.co/imgs-595275075d968.html[/url]

[url]http://imgking.co/imgs-5952750745f57.html[/url]

[url]http://imgking.co/imgs-5952750425152.html[/url]

File Size : 316 MiB
Duration : 38mn 14s
Video : h264, yuv420p, 854x480p, 1024 Kbps
Audio : aac , 2 ch, stereo , 128 Kbps ]]>
Ava Hardy (Stretchy Pussy) 24 06 2017 [TeensLoveHugeCocks - RealityKings] http://glodls.to/torrent.php?id=2588431 http://glodls.to/torrent.php?id=2588431 Tue, 27 Jun 2017 15:07:06 +0100 Adult XXX

Screenshot :-

[url=http://imgtorrnt.in/view.php?id=SwIuy1T][color=green] View Screen 1 [/color] [/url]

[url=http://imgtorrnt.in/view.php?id=QXpjw11][color=green] View Screen 2 [/color] [/url]

[img]http://i92.fastpic.ru/big/2017/0625/85/2c75a2f2dfc88544133a376ebf2a9d85.jpg[/img]

]]>
Rebecca - You Make Me Weak http://glodls.to/torrent.php?id=2588430 http://glodls.to/torrent.php?id=2588430 Tue, 27 Jun 2017 15:06:22 +0100 Adult XXX
[b]Date[/b]: 2016
[b]Cast[/b]: Rebecca
[b]Genre[/b]: brunette, licking
[b]Name[/b]: You Make Me Weak


[b]Video[/b]: AVC, 1280x720, 29.970 FPS, 2000 kb/s
[b]Audio[/b]: AAC LC, 48.0 kHz, 2 channels, 128 kb/s
[b]Format[/b]: mp4
[b]Duration[/b]: 00:22:16
]]>
Pure-BBW 17 03 09 Sophia Marie Brand New TS SSBBW Sophia Marie Gets Fucked XXX 480p MP4-TK http://glodls.to/torrent.php?id=2588429 http://glodls.to/torrent.php?id=2588429 Tue, 27 Jun 2017 15:06:03 +0100 Adult XXX
[b]Screenshots:[/b]

[url]http://imgking.co/imgs-5952745d67d54.html[/url]

[url]http://imgking.co/imgs-5952745d5b72b.html[/url]

[url]http://imgking.co/imgs-5952745d4334c.html[/url]

[url]http://imgking.co/imgs-5952745ba8999.html[/url]

File Size : 225 MiB
Duration : 27mn 22s
Video : h264, yuv420p, 854x480p, 1024 Kbps
Audio : aac , 2 ch, stereo , 128 Kbps ]]>
[OfficeObsession] Mischa Cross - Oral Fixation (NEW**02 07 2017) http://glodls.to/torrent.php?id=2588428 http://glodls.to/torrent.php?id=2588428 Tue, 27 Jun 2017 15:04:39 +0100 Adult XXX
Genre: Outie Pussy, Work Fantasies, Average Dick, Uniform, Office, Sex, Handjob, Feet , Fetish, Deep Throat, Blowjob, Leggings, Thong, Natural Tits, Hairy Pussy

Duration: 00:26:28

[size=5][url=http://HotImage.uk/img-595270bc08140.html]http://HotImage.uk/img-595270bc08140.html[/url]

[url=http://HotImage.uk/img-595270bc123e8.html]http://HotImage.uk/img-595270bc123e8.html[/url]

[url=https://www.xxximagetpb.org/image/yOBDK]https://www.xxximagetpb.org/image/yOBDK[/url]

[url=http://HotImage.uk/img-595270bc215e4.html]http://HotImage.uk/img-595270bc215e4.html[/url][/size] ]]>
Adria Rae Do anything for her daddy [TeensLikeItBig - Brazzers] http://glodls.to/torrent.php?id=2588427 http://glodls.to/torrent.php?id=2588427 Tue, 27 Jun 2017 15:03:44 +0100 Adult XXX
Screenshot :-

[url=http://imgtorrnt.in/view.php?id=de7M1tg][color=green] View Screen 1 [/color] [/url]

[url=http://imgtorrnt.in/view.php?id=kJL9chd][color=green] View Screen 2 [/color] [/url]

[img]http://i95.fastpic.ru/big/2017/0625/0d/72d74427a7a3d641ca9106dc4de4de0d.jpg[/img]

]]>
Travis - Singles http://glodls.to/torrent.php?id=2588426 http://glodls.to/torrent.php?id=2588426 Tue, 27 Jun 2017 15:03:37 +0100 Music

Label: Independiente ISM 202708 9
Format: DVD, DVD-Video, Compilation, Copy Protected
Country: UK
Released: 01 Nov 2004
Genre: Pop, Rock
Style: Alternative Rock, Acoustic, Pop Rock

.: Tracklist :.


Travis are a British post-Britpop alternative rock band formed in Glasgow, Scotland, in 1990, comprising Fran Healy (lead vocals, rhythm guitar), Dougie Payne (bass guitar, backing vocals), Andy Dunlop (lead guitar, banjo, backing vocals) and Neil Primrose (drums, percussion).

The band has released 7 studio albums: Good Feeling (1997), The Man Who (1999), The Invisible Band (2001), 12 Memories (2003), The Boy With No Name (2007), Ode To J. Smith (2008) and Where You Stand (2013).

Travis have twice been awarded best band at the BRIT Awards, and are often credited for having paved the way for bands such as Coldplay and Keane (Coldplay's Chris Martin has called himself "a poor man's Fran Healy", while saying that Travis "invented" Coldplay "and lots of others". The band named themselves after the Harry Dean Stanton character Travis Henderson from the film Paris, Texas.

Tracklist Hide Credits
Videos
V1 U16 Girls
Film Director – Lawrence Watson
V2 All I Want To Do Is Rock
Film Director – Jamie Thraves
V3 Tied To The 90's
Film Director – Pedro Romhanyi
V4 Happy
Film Director – Nick Wickham
V5 More Than Us
Film Director – Pedro Romhanyi
V6 Writing To Reach You
Film Director – John Hardwick
V7 Driftwood
Film Director – Hammer & Tongs
V8 Why Does It Always Rain On Me?
Film Director – John Hardwick
V9 Turn
Film Director – Ringan Ledwidge
V10 Coming Around
Film Director – Ringan Ledwidge
V11 Sing
Film Director – J. Dayton*, V. Faris*
V12 Side
Film Director – J. Dayton*, V. Faris*
V13 Flowers In The Window
Film Director – Todd Carty
V14 Re-Offender
Film Director – Anton Corbijn
V15 The Beautiful Occupation
Film Director – Mike Lipscombe
V16 Love Will Come Through
Film Director – Ami & Kinski*
V17 Walking In The Sun
Film Director – Jeff Thomas (5)
TV & Live Performances
T1 All I Want To Do Is Rock (Live With Jools Holland 1996)
T2 Why Does It Always Rain On Me? (Glastonbury 2000)
T3 Sing (Top Of The Pops 2001)
T4 Baby One More Time (VH1 Storytellers 2002)
Written-By – Max Martin
Making Of's
M1 Sing
M2 Side
M3 Flowers In The Window
Band Commentaries
B1 All I Want To Do Is Rock
B2 Writing To Reach You
B3 Why Does It Always Rain On Me?
B4 Turn
B5 Re-Offender
Companies, etc.
Phonographic Copyright (p) – Independiente Ltd.
Copyright (c) – Independiente Ltd.
Distributed By – Sony Music Entertainment
Notes
Exclusive documentary footage is features before each video. Aprox. running time 127 mins
.: Other Files :.

log+cue+m3u+cover


]]>
My Brothers Girlfriend (2017)[DVDRIP][ MP4] http://glodls.to/torrent.php?id=2588424 http://glodls.to/torrent.php?id=2588424 Tue, 27 Jun 2017 15:01:06 +0100 Adult XXX
Screen:

[url=http://picfox.org/share-662D_59526F22.html][img]http://picfox.org/thumb-662D_59526F22.jpg[/img][/url]

[url=http://picfox.org/share-7D3E_59526F22.html][img]http://picfox.org/thumb-7D3E_59526F22.jpg[/img][/url]

[url=http://picfox.org/share-A03A_59526F22.html][img]http://picfox.org/thumb-A03A_59526F22.jpg[/img][/url]

[url=http://picfox.org/share-4145_59526F22.html][img]http://picfox.org/thumb-4145_59526F22.jpg[/img][/url]

COVER:

[url=http://picfox.org/share-70FE_59526F22.html][img]http://picfox.org/thumb-70FE_59526F22.jpg[/img][/url]

File Size: 914 MB | Resolution: 720x400 | Duration: 01:32:14 | Format: mp4 ]]>
Hot hard anal destruction and rough sex for hot Russian babe Lovenia Lux http://glodls.to/torrent.php?id=2588422 http://glodls.to/torrent.php?id=2588422 Tue, 27 Jun 2017 15:00:34 +0100 Adult XXX
Screenshot :-

[url=http://imgtorrnt.in/view.php?id=hLkQBaJ][color=green] View Screen 1 [/color] [/url]

[url=http://imgtorrnt.in/view.php?id=qThkbGd][color=green] View Screen 2 [/color] [/url]

[img]http://i92.fastpic.ru/big/2017/0624/73/6da46462af1e83e4f7240e81f8184d73.jpg[/img]

]]>
Smurfs The Lost Village 2017 BRRip x264 AAC-SSN. http://glodls.to/torrent.php?id=2588417 http://glodls.to/torrent.php?id=2588417 Tue, 27 Jun 2017 14:58:24 +0100 Movies
[b]ImDb: [URL]http://www.imdb.com/title/tt2398241[/URL][/b]

[url=https://www.sparrowpics.com/image/LwB][img]https://www.sparrowpics.com/images/2015/12/10/Info.png[/img][/url]

[b]Complete name : Smurfs The Lost Village 2017 BRRip x264 AAC-SSN.mkv
Format : Matroska
Format version : Version 4 / Version 2
File size : 1.19 GiB
Duration : 1 h 29 min
Overall bit rate : 1 900 kb/s
Encoded date : UTC 2017-06-27 15:40:28
Writing application : mkvmerge v9.4.2 ('So High') 64bit
Writing library : libebml v1.3.4 + libmatroska v1.4.5

Video
ID : 1
Format : AVC
Format/Info : Advanced Video Codec
Format profile : High@L4.1
Format settings, CABAC : Yes
Format settings, ReFrames : 5 frames
Codec ID : V_MPEG4/ISO/AVC
Duration : 1 h 29 min
Bit rate : 1 564 kb/s
Width : 900 pixels
Height : 484 pixels
Display aspect ratio : 1.85:1
Frame rate mode : Constant
Frame rate : 23.976 (24000/1001) FPS
Color space : YUV
Chroma subsampling : 4:2:0
Bit depth : 8 bits
Scan type : Progressive
Bits/(Pixel*Frame) : 0.150
Stream size : 1 002 MiB (82%)
Writing library : x264 core 150 r2833 df79067
Encoding settings : cabac=1 / ref=5 / deblock=1:0:0 / analyse=0x3:0x112 / me=dia / subme=1 / psy=0 / mixed_ref=1 / me_range=16 / chroma_me=1 / trellis=0 / 8x8dct=1 / cqm=0 / deadzone=22,11 / fast_pskip=1 / chroma_qp_offset=1 / threads=6 / lookahead_threads=3 / sliced_threads=0 / nr=0 / decimate=1 / interlaced=0 / bluray_compat=0 / constrained_intra=0 / bframes=10 / b_pyramid=2 / b_adapt=2 / b_bias=23 / direct=3 / weightb=1 / open_gop=1 / weightp=2 / keyint=250 / keyint_min=1 / scenecut=40 / intra_refresh=0 / rc_lookahead=100 / rc=2pass / mbtree=1 / bitrate=1564 / ratetol=3.0 / qcomp=0.80 / qpmin=10 / qpmax=40 / qpstep=3 / cplxblur=20.0 / qblur=0.5 / vbv_maxrate=50000 / vbv_bufsize=50000 / nal_hrd=none / filler=0 / ip_ratio=1.30 / aq=1:1.00
Language : English
Default : Yes
Forced : No

Audio
ID : 2
Format : AAC
Format/Info : Advanced Audio Codec
Format profile : LC
Codec ID : A_AAC
Duration : 1 h 29 min
Bit rate : 337 kb/s
Channel(s) : 6 channels
Channel positions : Front: L C R, Side: L R, LFE
Sampling rate : 32.0 kHz
Frame rate : 31.250 FPS (1024 spf)
Compression mode : Lossy
Stream size : 217 MiB (18%)
Language : English
Default : Yes
Forced : No[/b]

[url=https://www.sparrowpics.com/image/UYe][img]https://www.sparrowpics.com/images/2015/12/10/Screens.png[/img][/url]

[URL=https://www.sparrowpics.com/image/k3Vhx][IMG]https://www.sparrowpics.com/images/2017/06/27/k3Vhx.th.jpg[/IMG][/URL]
[URL=https://www.sparrowpics.com/image/k3n0N][b]Click To View Screenshot[/b][/URL]
[URL=https://www.sparrowpics.com/image/k37eY][b]Click To View Screenshot[/b][/URL]
[URL=https://www.sparrowpics.com/image/k3Kf9][b]Click To View Screenshot[/b][/URL][/center] ]]>
Smurfs.The.Lost.Village.2017.BRRip.x264.AAC-SSN http://glodls.to/torrent.php?id=2588414 http://glodls.to/torrent.php?id=2588414 Tue, 27 Jun 2017 14:57:38 +0100 Movies [color=red][b]
Smurfs.The.Lost.Village.2017.BRRip.x264.AAC-SSN

[/b][/color]


IMDb: http://www.imdb.com/title/tt2398241/





[url=https://boltimg.com/image/t52z][img]https://boltimg.com/images/t52z.png[/img][/url]



[color=green][b]
General

(Duration): 1h 29mn
(FileSize): 1.19 GiB



Audio

(Format): AAC - Advanced Audio Codec
(Codec): AAC LC



Video

(Format): AVC - Advanced Video Codec
(Media): video/H264
(Format): x264
(Resolution): 900x484 px
(AspectRatio): 1.85:1
(FrameRate): 23.976 fps




[/b][/color]


[url=https://boltimg.com/image/tzTE][img]https://boltimg.com/images/tzTE.png[/img][/url]



[color=purple][b](Click to enlarge)[/b][/color]

[url=https://boltimg.com/image/WqEaf][img]https://boltimg.com/images/WqEaf.th.jpg[/img][/url] [url=https://boltimg.com/image/WqH1O][img]https://boltimg.com/images/WqH1O.th.jpg[/img][/url] [url=https://boltimg.com/image/WqIOS][img]https://boltimg.com/images/WqIOS.th.jpg[/img][/url] [url=https://boltimg.com/image/WqfHE][img]https://boltimg.com/images/WqfHE.th.jpg[/img][/url] [url=https://boltimg.com/image/Wq2Qz][img]https://boltimg.com/images/Wq2Qz.th.jpg[/img][/url] [url=https://boltimg.com/image/WqAXM][img]https://boltimg.com/images/WqAXM.th.jpg[/img][/url]

[/center]
]]>
AsianaStarr.Good.Night.Sleep.Tight-A.Short.Story.XXX.HR.MP4-hUSHhUSH[N1C] http://glodls.to/torrent.php?id=2588413 http://glodls.to/torrent.php?id=2588413 Tue, 27 Jun 2017 14:57:31 +0100 Adult XXX AsianaStarr.Good.Night.Sleep.Tight-A.Short.Story.XXX.HR.MP4-hUSHhUSH


[Format]: MPEG-4
[Duration]: 9mn 10s
[Resolution]: 720 x 400 pixels
[Display aspect ratio]: 16:9
[Frame rate mode]: Variable
[Frame rate]: 29.970 fps
[Minimum frame rate]: 29.940 fps
[Maximum frame rate]: 29.970 fps


[color=green][b]#N1C -> To avoid fakes, ALWAYS check that the torrent was added by NO1CARES[/b][/color]




[color=green][b]Help us by donating with Bitcoin: 1Pgwp16gmLHmPzgjJLxZnMw7YeqiUekUoe[/b][/color]

[b]Screens...[/b]
[url]http://HotImage.uk/img-595271fd74ee7.html[/url]
[url]http://HotImage.uk/img-595271fd7903c.html[/url]
[url]http://HotImage.uk/img-595271fd7c662.html[/url]
[url]http://HotImage.uk/img-595271fd7f846.html[/url] ]]>
Tina Kay (Anal Picnic) 24 06 2017 [21EroticAnal - 21Naturals] http://glodls.to/torrent.php?id=2588412 http://glodls.to/torrent.php?id=2588412 Tue, 27 Jun 2017 14:57:26 +0100 Adult XXX
Screenshot :-

[url=http://imgtorrnt.in/view.php?id=bPnLpzB][color=green] View Screen 1 [/color] [/url]

[url=http://imgtorrnt.in/view.php?id=qjVug2J][color=green] View Screen 2 [/color] [/url]

[img]http://i94.fastpic.ru/big/2017/0624/df/befe20c5bc9691b9ac4d007f8bad2cdf.jpg[/img]

]]>
Melon (Anal Treat) 24 06 2017 [AssholeFever - 21Sextury] http://glodls.to/torrent.php?id=2588407 http://glodls.to/torrent.php?id=2588407 Tue, 27 Jun 2017 14:54:24 +0100 Adult XXX
Screenshot :-

[url=http://imgtorrnt.in/view.php?id=AwEj1Te][color=green] View Screen 1 [/color] [/url]

[url=http://imgtorrnt.in/view.php?id=zN0oKnf][color=green] View Screen 2 [/color] [/url]

[img]http://i95.fastpic.ru/big/2017/0624/a2/67efcdd0d8318f5915a1ec8e234529a2.jpg[/img]

]]>
[CumLouder] Canela Skin, Susy Gala - A threesome sublime (27 06 2017) rq mp4 http://glodls.to/torrent.php?id=2588404 http://glodls.to/torrent.php?id=2588404 Tue, 27 Jun 2017 14:53:38 +0100 Adult XXX Audio: aac, 48000 Hz, 2 channels, s16, 125 kb/s (und)
Video: h264, yuv420p, 720x404, 996 kb/s, 25,00 fps(r) (und)

https://imgdrive.net/img-595270bb03d8c.html

]]>
AsianaStarr.Foreplay.XXX.HR.MP4-hUSHhUSH[N1C] http://glodls.to/torrent.php?id=2588403 http://glodls.to/torrent.php?id=2588403 Tue, 27 Jun 2017 14:53:29 +0100 Adult XXX AsianaStarr.Foreplay.XXX.HR.MP4-hUSHhUSH


[Format]: MPEG-4
[Duration]: 15mn 15s
[Resolution]: 720 x 400 pixels
[Display aspect ratio]: 16:9
[Frame rate mode]: Variable
[Frame rate]: 29.970 fps
[Minimum frame rate]: 29.940 fps
[Maximum frame rate]: 29.970 fps


[color=green][b]#N1C -> To avoid fakes, ALWAYS check that the torrent was added by NO1CARES[/b][/color]




[color=green][b]Help us by donating with Bitcoin: 1Pgwp16gmLHmPzgjJLxZnMw7YeqiUekUoe[/b][/color]

[b]Screens...[/b]
[url]http://HotImage.uk/img-5952710eeb754.html[/url]
[url]http://HotImage.uk/img-5952710eef3c2.html[/url]
[url]http://HotImage.uk/img-5952710ef29db.html[/url]
[url]http://HotImage.uk/img-5952710f0194f.html[/url] ]]>
Hardcore Interrogation Squirting Blonde Double Penetrated) 24 06 2017 [HandsOnHardcore - DDFNetwork] http://glodls.to/torrent.php?id=2588400 http://glodls.to/torrent.php?id=2588400 Tue, 27 Jun 2017 14:51:02 +0100 Adult XXX
Screenshot :-

[url=http://imgtorrnt.in/view.php?id=Odbbcnu][color=green] View Screen 1 [/color] [/url]

[url=http://imgtorrnt.in/view.php?id=pzDQX7M][color=green] View Screen 2 [/color] [/url]

[img]http://i95.fastpic.ru/big/2017/0624/5f/5b92ae56c7edc61f0f0b4bbdd8166a5f.jpg[/img]

]]>
FirstAnalQuest.17.06.27.Kira.Roller.XXX.1080p.MP4-KTR[N1C] http://glodls.to/torrent.php?id=2588395 http://glodls.to/torrent.php?id=2588395 Tue, 27 Jun 2017 14:49:15 +0100 Adult XXX FirstAnalQuest.17.06.27.Kira.Roller.XXX.1080p.MP4-KTR


[Format]: MPEG-4
[Duration]: 35mn 35s
[Resolution]: 1 920 x 1 080 pixels
[Display aspect ratio]: 16:9
[Frame rate mode]: Constant
[Frame rate]: 29.970 fps


[color=green][b]#N1C -> To avoid fakes, ALWAYS check that the torrent was added by NO1CARES[/b][/color]




[color=green][b]Help us by donating with Bitcoin: 1Pgwp16gmLHmPzgjJLxZnMw7YeqiUekUoe[/b][/color]

[b]Screens...[/b]
[url]http://HotImage.uk/img-5952702f458fa.html[/url]
[url]http://HotImage.uk/img-5952702f5cd19.html[/url]
[url]http://HotImage.uk/img-5952702f6bc63.html[/url]
[url]http://HotImage.uk/img-5952702f991b6.html[/url] ]]>
Jana Q Leda - Friendly foot rub http://glodls.to/torrent.php?id=2588392 http://glodls.to/torrent.php?id=2588392 Tue, 27 Jun 2017 14:48:41 +0100 Adult XXX
[b]Date[/b]: 2016
[b]Cast[/b]: Jana Q Leda
[b]Genre[/b]: deep throat, creampie, licking
[b]Name[/b]: Friendly foot rub


[b]Video[/b]: AVC, 1280x720, 29.970 FPS, 2000 kb/s
[b]Audio[/b]: AAC LC, 48.0 kHz, 2 channels, 128 kb/s
[b]Format[/b]: mp4
[b]Duration[/b]: 00:23:21
]]>
Alisha Lera - Kick-ass sex toys video with a horny couple http://glodls.to/torrent.php?id=2588391 http://glodls.to/torrent.php?id=2588391 Tue, 27 Jun 2017 14:48:31 +0100 Adult XXX
[b]Date[/b]: 2016
[b]Cast[/b]: Alisha Lera
[b]Genre[/b]: sex toys, fisting, brunette, facial
[b]Name[/b]: Kick-ass sex toys video with a horny couple


[b]Video[/b]: AVC, 768x432, 29.970 FPS, 570 kb/s
[b]Audio[/b]: AAC LC, 48.0 kHz, 2 channels, 128 kb/s
[b]Format[/b]: mp4
[b]Duration[/b]: 00:25:39
]]>
[MySistersHotFriend] Megan Rain (22895 /NEW** 27 06 2017) http://glodls.to/torrent.php?id=2588388 http://glodls.to/torrent.php?id=2588388 Tue, 27 Jun 2017 14:47:24 +0100 Adult XXX
Genre: Ass smacking, Ball licking, Big Dick, Black Hair, Blow Job, Bubble Butt, Cum in Mouth , deepthroating, Facial, Natural Tits, Outie Pussy, Petite, Shaved, Small Tits, Young

Duration: 00:36:11

[size=5][url=http://HotImage.uk/img-59526e89ea9a0.html]http://HotImage.uk/img-59526e89ea9a0.html[/url]

[url=http://HotImage.uk/img-59526e89f0fc1.html]http://HotImage.uk/img-59526e89f0fc1.html[/url]

[url=https://www.xxximagetpb.org/image/yO7sl]https://www.xxximagetpb.org/image/yO7sl[/url]

[url=http://HotImage.uk/img-59526e8a0770b.html]http://HotImage.uk/img-59526e8a0770b.html[/url][/size] ]]>
Enny (Sexy Czech girl with glasses Enny gets cum on pussy in the car backseat) 2017 [FuckedInTraffic - PornDoePremium] http://glodls.to/torrent.php?id=2588387 http://glodls.to/torrent.php?id=2588387 Tue, 27 Jun 2017 14:47:15 +0100 Adult XXX
Screenshot :-

[url=http://imgtorrnt.in/view.php?id=4RNYPhT][color=green] View Screen 1 [/color] [/url]

[url=http://imgtorrnt.in/view.php?id=MLeMGGr][color=green] View Screen 2 [/color] [/url]

[img]http://i93.fastpic.ru/big/2017/0624/7c/053fca001e9992c2727ca9529dccf17c.jpg[/img]

]]>