GloDLS.to - Download Movies, TV, Games and Other Torrents Free RSS 2.0enGloDLS.to - Download Movies, TV, Games and Other Torrents FreeGloDLS.to - Download Movies, TV, Games and Other Torrents Free RSS Feedhttp://glodls.toCopyright GloDLS.to - Download Movies, TV, Games and Other Torrents FreeTue, 22 Aug 2017 23:23:36 +0100 Timebomb.1981.720p.BluRay.x264-x0r http://glodls.to/torrent.php?id=2729396 http://glodls.to/torrent.php?id=2729396 Tue, 22 Aug 2017 22:15:20 +0100 Movies
[b][/b]

[url=https://www.sparrowpics.com/image/kbFon][img]https://www.sparrowpics.com/images/2017/07/04/kbFon.png[/img][/url]

[b]Complete name : Timebomb.1981.720p.BluRay.x264-x0r.mkv
Format : Matroska
Format version : Version 4 / Version 2
File size : 1.85 GiB
Duration : 1 h 36 min
Overall bit rate : 2 754 kb/s
Movie name : Timebomb.1981.720p.BluRay.x264-x0r
Encoded date : UTC 2017-08-22 20:08:51
Writing application : mkvmerge v7.7.0 ('Six Voices') 64bit built on Mar 1 2015 01:50:05
Writing library : libebml v1.3.1 + libmatroska v1.4.2

Video
ID : 1
Format : AVC
Format/Info : Advanced Video Codec
Format profile : High@L4
Format settings, CABAC : Yes
Format settings, ReFrames : 8 frames
Codec ID : V_MPEG4/ISO/AVC
Duration : 1 h 36 min
Bit rate : 2 560 kb/s
Width : 1 280 pixels
Height : 720 pixels
Display aspect ratio : 16:9
Frame rate mode : Constant
Frame rate : 23.976 FPS
Color space : YUV
Chroma subsampling : 4:2:0
Bit depth : 8 bits
Scan type : Progressive
Bits/(Pixel*Frame) : 0.116
Stream size : 1.72 GiB (93%)
Writing library : x264 core 142 r2389 956c8d8
Encoding settings : cabac=1 / ref=8 / deblock=1:-2:-2 / analyse=0x3:0x113 / me=umh / subme=9 / psy=1 / psy_rd=1.10:0.30 / mixed_ref=0 / me_range=32 / chroma_me=1 / trellis=2 / 8x8dct=1 / cqm=0 / deadzone=6,6 / fast_pskip=0 / chroma_qp_offset=-4 / threads=12 / lookahead_threads=1 / sliced_threads=0 / nr=0 / decimate=0 / interlaced=0 / bluray_compat=0 / constrained_intra=0 / bframes=4 / b_pyramid=2 / b_adapt=2 / b_bias=0 / direct=3 / weightb=1 / open_gop=0 / weightp=2 / keyint=240 / keyint_min=24 / scenecut=40 / intra_refresh=0 / rc_lookahead=80 / rc=2pass / mbtree=1 / bitrate=2560 / ratetol=1.0 / qcomp=0.00 / qpmin=0 / qpmax=69 / qpstep=4 / cplxblur=20.0 / qblur=0.5 / vbv_maxrate=20000 / vbv_bufsize=25000 / nal_hrd=none / filler=0 / ip_ratio=1.10 / aq=1:1.00
Language : English
Default : Yes
Forced : No
Color range : Limited
Color primaries : BT.709
Transfer characteristics : BT.709
Matrix coefficients : BT.709

Audio
ID : 2
Format : AC-3
Format/Info : Audio Coding 3
Format settings, Endianness : Big
Codec ID : A_AC3
Duration : 1 h 36 min
Bit rate mode : Constant
Bit rate : 192 kb/s
Channel(s) : 2 channels
Channel positions : Front: L R
Sampling rate : 48.0 kHz
Frame rate : 31.250 FPS (1536 spf)
Bit depth : 16 bits
Compression mode : Lossy
Delay relative to video : -5 ms
Stream size : 132 MiB (7%)
Title : Stereo
Language : English
Service kind : Complete Main
Default : Yes
Forced : No

Text
ID : 3
Format : UTF-8
Codec ID : S_TEXT/UTF8
Codec ID/Info : UTF-8 Plain Text
Duration : 1 h 36 min
Bit rate : 50 b/s
Count of elements : 1316
Stream size : 35.5 KiB (0%)
Language : English
Default : Yes
Forced : No

Menu
00:00:00.000 : :Chapter 1
00:08:25.480 : :Chapter 2
00:15:08.800 : :Chapter 3
00:23:36.098 : :Chapter 4
00:32:48.984 : :Chapter 5
00:42:32.067 : :Chapter 6
00:50:19.867 : :Chapter 7
00:59:40.385 : :Chapter 8
01:07:30.438 : :Chapter 9
01:14:33.111 : :Chapter 10
01:21:40.746 : :Chapter 11
01:32:14.171 : :Chapter 12[/b]

[url=https://www.sparrowpics.com/image/kbJ5y][img]https://www.sparrowpics.com/images/2017/07/04/kbJ5y.png[/img][/url]

[URL=https://www.sparrowpics.com/image/QzsSW][IMG]https://www.sparrowpics.com/images/2017/08/23/QzsSW.th.jpg[/IMG][/URL]

[URL=https://www.sparrowpics.com/image/QzuQn][b]Click To View Screenshot[/b][/URL]

[URL=https://www.sparrowpics.com/image/Qz0Py][b]Click To View Screenshot[/b][/URL]

[URL=https://www.sparrowpics.com/image/QzTOJ][b]Click To View Screenshot[/b][/URL][/center] ]]>
Riddles.Of.The.Sphinx.1977.BDRip.x264-SPOOKS http://glodls.to/torrent.php?id=2729395 http://glodls.to/torrent.php?id=2729395 Tue, 22 Aug 2017 22:13:09 +0100 Movies
[b]ImDb: [URL]http://www.imdb.com/title/tt0976167[/URL][/b]

[url=https://www.sparrowpics.com/image/kbFon][img]https://www.sparrowpics.com/images/2017/07/04/kbFon.png[/img][/url]

[b]Complete name : riddles.of.the.sphinx.1977.bdrip.x264-spooks.mkv
Format : Matroska
Format version : Version 4 / Version 2
File size : 1.14 GiB
Duration : 1 h 30 min
Overall bit rate : 1 800 kb/s
Encoded date : UTC 2017-08-21 23:38:29
Writing application : mkvmerge v13.0.0 ('The Juggler') 64bit
Writing library : libebml v1.3.4 + libmatroska v1.4.5

Video
ID : 1
Format : AVC
Format/Info : Advanced Video Codec
Format profile : High@L3.1
Format settings, CABAC : Yes
Format settings, ReFrames : 5 frames
Codec ID : V_MPEG4/ISO/AVC
Duration : 1 h 30 min
Width : 720 pixels
Height : 540 pixels
Display aspect ratio : 4:3
Frame rate mode : Constant
Frame rate : 24.000 FPS
Color space : YUV
Chroma subsampling : 4:2:0
Bit depth : 8 bits
Scan type : Progressive
Writing library : x264 core 152 r2851kMod ba24899
Encoding settings : cabac=1 / ref=5 / deblock=1:-3:-3 / analyse=0x3:0x113 / me=hex / subme=8 / psy=1 / fade_compensate=0.00 / psy_rd=1.00:0.15 / mixed_ref=1 / me_range=16 / chroma_me=1 / trellis=2 / 8x8dct=1 / cqm=0 / deadzone=21,11 / fast_pskip=1 / chroma_qp_offset=-3 / threads=6 / lookahead_threads=1 / sliced_threads=0 / nr=0 / decimate=1 / interlaced=0 / bluray_compat=0 / constrained_intra=0 / bframes=3 / b_pyramid=2 / b_adapt=1 / b_bias=0 / direct=3 / weightb=1 / open_gop=0 / weightp=2 / keyint=250 / keyint_min=24 / scenecut=40 / intra_refresh=0 / rc_lookahead=50 / rc=crf / mbtree=1 / crf=23.0000 / qcomp=0.60 / qpmin=0 / qpmax=69 / qpstep=4 / vbv_maxrate=17500 / vbv_bufsize=17500 / crf_max=0.0 / nal_hrd=none / filler=0 / ip_ratio=1.40 / aq=1:0.60
Default : Yes
Forced : No
Color range : Limited
Matrix coefficients : BT.709

Audio
ID : 2
Format : AAC
Format/Info : Advanced Audio Codec
Format profile : LC
Codec ID : A_AAC
Duration : 1 h 30 min
Channel(s) : 1 channel
Channel positions : Front: C
Sampling rate : 48.0 kHz
Frame rate : 46.875 FPS (1024 spf)
Compression mode : Lossy
Delay relative to video : 20 ms
Language : English
Default : Yes
Forced : No

Menu
00:00:00.000 : en:00:00:00.000
00:01:04.375 : en:00:01:04.375
00:04:39.083 : en:00:04:39.083
00:12:00.000 : en:00:12:00.000
00:18:25.292 : en:00:18:25.292
00:22:18.875 : en:00:22:18.875
00:26:18.708 : en:00:26:18.708
00:28:14.042 : en:00:28:14.042
00:33:20.875 : en:00:33:20.875
00:36:54.750 : en:00:36:54.750
00:39:20.375 : en:00:39:20.375
00:43:12.875 : en:00:43:12.875
00:47:39.083 : en:00:47:39.083
00:51:38.333 : en:00:51:38.333
00:58:54.125 : en:00:58:54.125
01:09:13.292 : en:01:09:13.292
01:16:02.458 : en:01:16:02.458
01:22:51.083 : en:01:22:51.083
01:25:46.250 : en:01:25:46.250
01:28:54.333 : en:01:28:54.333[/b]

[url=https://www.sparrowpics.com/image/kbJ5y][img]https://www.sparrowpics.com/images/2017/07/04/kbJ5y.png[/img][/url]

[URL=https://www.sparrowpics.com/image/QzUre][IMG]https://www.sparrowpics.com/images/2017/08/23/QzUre.th.jpg[/IMG][/URL]

[URL=https://www.sparrowpics.com/image/QzW7s][b]Click To View Screenshot[/b][/URL]

[URL=https://www.sparrowpics.com/image/Qz3Lf][b]Click To View Screenshot[/b][/URL]

[URL=https://www.sparrowpics.com/image/QzId5][b]Click To View Screenshot[/b][/URL][/center] ]]>
Riddles.Of.The.Sphinx.1977.720p.BluRay.x264-SPOOKS http://glodls.to/torrent.php?id=2729394 http://glodls.to/torrent.php?id=2729394 Tue, 22 Aug 2017 22:13:05 +0100 Movies
[b]ImDb: [URL]http://www.imdb.com/title/tt0976167[/URL][/b]

[url=https://www.sparrowpics.com/image/kbFon][img]https://www.sparrowpics.com/images/2017/07/04/kbFon.png[/img][/url]

[b]Complete name : riddles.of.the.sphinx.1977.720p.bluray.x264-spooks.mkv
Format : Matroska
Format version : Version 4 / Version 2
File size : 3.28 GiB
Duration : 1 h 30 min
Overall bit rate : 5 173 kb/s
Encoded date : UTC 2017-08-21 19:19:01
Writing application : mkvmerge v13.0.0 ('The Juggler') 64bit
Writing library : libebml v1.3.4 + libmatroska v1.4.5

Video
ID : 1
Format : AVC
Format/Info : Advanced Video Codec
Format profile : High@L4.1
Format settings, CABAC : Yes
Format settings, ReFrames : 5 frames
Codec ID : V_MPEG4/ISO/AVC
Duration : 1 h 30 min
Bit rate : 4 532 kb/s
Width : 960 pixels
Height : 720 pixels
Display aspect ratio : 4:3
Frame rate mode : Constant
Frame rate : 24.000 FPS
Color space : YUV
Chroma subsampling : 4:2:0
Bit depth : 8 bits
Scan type : Progressive
Bits/(Pixel*Frame) : 0.273
Stream size : 2.81 GiB (86%)
Writing library : x264 core 152 r2851kMod ba24899
Encoding settings : cabac=1 / ref=5 / deblock=1:-3:-3 / analyse=0x3:0x133 / me=umh / subme=8 / psy=1 / fade_compensate=0.00 / psy_rd=1.00:0.00 / mixed_ref=1 / me_range=16 / chroma_me=1 / trellis=1 / 8x8dct=1 / cqm=0 / deadzone=21,11 / fast_pskip=0 / chroma_qp_offset=-2 / threads=6 / lookahead_threads=1 / sliced_threads=0 / nr=0 / decimate=1 / interlaced=0 / bluray_compat=0 / constrained_intra=0 / bframes=3 / b_pyramid=2 / b_adapt=1 / b_bias=0 / direct=3 / weightb=1 / open_gop=0 / weightp=2 / keyint=250 / keyint_min=24 / scenecut=40 / intra_refresh=0 / rc_lookahead=50 / rc=2pass / mbtree=1 / bitrate=4532 / ratetol=1.0 / qcomp=0.60 / qpmin=0 / qpmax=69 / qpstep=4 / cplxblur=20.0 / qblur=0.5 / vbv_maxrate=62500 / vbv_bufsize=78125 / nal_hrd=none / filler=0 / ip_ratio=1.40 / aq=1:1.00
Default : Yes
Forced : No

Audio
ID : 2
Format : AC-3
Format/Info : Audio Coding 3
Format settings, Endianness : Big
Codec ID : A_AC3
Duration : 1 h 30 min
Bit rate mode : Constant
Bit rate : 640 kb/s
Channel(s) : 1 channel
Channel positions : Front: C
Sampling rate : 48.0 kHz
Frame rate : 31.250 FPS (1536 spf)
Bit depth : 16 bits
Compression mode : Lossy
Stream size : 415 MiB (12%)
Language : English
Service kind : Complete Main
Default : Yes
Forced : No

Menu
00:00:00.000 : en:00:00:00.000
00:01:04.375 : en:00:01:04.375
00:04:39.083 : en:00:04:39.083
00:12:00.000 : en:00:12:00.000
00:18:25.292 : en:00:18:25.292
00:22:18.875 : en:00:22:18.875
00:26:18.708 : en:00:26:18.708
00:28:14.042 : en:00:28:14.042
00:33:20.875 : en:00:33:20.875
00:36:54.750 : en:00:36:54.750
00:39:20.375 : en:00:39:20.375
00:43:12.875 : en:00:43:12.875
00:47:39.083 : en:00:47:39.083
00:51:38.333 : en:00:51:38.333
00:58:54.125 : en:00:58:54.125
01:09:13.292 : en:01:09:13.292
01:16:02.458 : en:01:16:02.458
01:22:51.083 : en:01:22:51.083
01:25:46.250 : en:01:25:46.250
01:28:54.333 : en:01:28:54.333[/b]

[url=https://www.sparrowpics.com/image/kbJ5y][img]https://www.sparrowpics.com/images/2017/07/04/kbJ5y.png[/img][/url]

[URL=https://www.sparrowpics.com/image/QyCHV][IMG]https://www.sparrowpics.com/images/2017/08/23/QyCHV.th.jpg[/IMG][/URL]

[URL=https://www.sparrowpics.com/image/QyhCd][b]Click To View Screenshot[/b][/URL]

[URL=https://www.sparrowpics.com/image/Qz1Z1][b]Click To View Screenshot[/b][/URL]

[URL=https://www.sparrowpics.com/image/QzFNH][b]Click To View Screenshot[/b][/URL][/center] ]]>
Panelope Cruz Showing Boobs Exposed photoshoot and Near Naked Sensual Pics - Set 39 http://glodls.to/torrent.php?id=2729393 http://glodls.to/torrent.php?id=2729393 Tue, 22 Aug 2017 22:07:59 +0100 Pictures
44 JPG | mix | 6 Mb [/b]

[url=http://www.wallhdpic.com/2015/01/penelope-cruz-hair-wallpaper.html][b]PREVIEW 1[/b][/url]

[url=http://www.wallhdpic.com/2015/01/penelope-cruz-wallpaper.html][b]PREVIEW 2[/b][/url]

[url=http://www.wallhdpic.com/2015/01/penelope-cruz-wallpaper_22.html][b]PREVIEW 3[/b][/url]

[url=http://www.wallhdpic.com/2015/04/penelope-cruz-wallpaper.html][b]PREVIEW 4[/b][/url]

]]>
Kill.Switch.2017.MULTi.1080p.BluRay.x264-LOST http://glodls.to/torrent.php?id=2729392 http://glodls.to/torrent.php?id=2729392 Tue, 22 Aug 2017 22:07:24 +0100 Movies
[b]ImDb: [URL]http://www.imdb.com/title/tt5464234[/URL][/b]

[url=https://www.sparrowpics.com/image/kbFon][img]https://www.sparrowpics.com/images/2017/07/04/kbFon.png[/img][/url]

[b]Complete name : kill.switch.2017.multi.1080p.bluray.x264-lost.mkv
Format : Matroska
Format version : Version 2
File size : 7.94 GiB
Duration : 1 h 31 min
Overall bit rate : 12.5 Mb/s
Writing application : mkvmerge v6.6.0 ('The Edge Of The In Between') built on Dec 1 2013 17:55:00
Writing library : libebml v1.3.0 + libmatroska v1.4.1

Video
ID : 1
Format : AVC
Format/Info : Advanced Video Codec
Format profile : High@L4.1
Format settings, CABAC : Yes
Format settings, ReFrames : 5 frames
Codec ID : V_MPEG4/ISO/AVC
Duration : 1 h 31 min
Bit rate : 9 440 kb/s
Width : 1 920 pixels
Height : 808 pixels
Display aspect ratio : 2.40:1
Frame rate mode : Constant
Frame rate : 23.976 (24000/1001) FPS
Color space : YUV
Chroma subsampling : 4:2:0
Bit depth : 8 bits
Scan type : Progressive
Bits/(Pixel*Frame) : 0.254
Stream size : 5.86 GiB (74%)
Writing library : x264 core 152 r2851 ba24899
Encoding settings : cabac=1 / ref=5 / deblock=1:0:0 / analyse=0x3:0x113 / me=umh / subme=8 / psy=1 / psy_rd=1.00:0.00 / mixed_ref=1 / me_range=16 / chroma_me=1 / trellis=1 / 8x8dct=1 / cqm=0 / deadzone=21,11 / fast_pskip=1 / chroma_qp_offset=-2 / threads=24 / lookahead_threads=4 / sliced_threads=0 / nr=0 / decimate=1 / interlaced=0 / bluray_compat=0 / constrained_intra=0 / bframes=3 / b_pyramid=2 / b_adapt=2 / b_bias=0 / direct=3 / weightb=1 / open_gop=0 / weightp=2 / keyint=240 / keyint_min=24 / scenecut=40 / intra_refresh=0 / rc_lookahead=50 / rc=2pass / mbtree=1 / bitrate=9440 / ratetol=1.0 / qcomp=0.60 / qpmin=0 / qpmax=69 / qpstep=4 / cplxblur=20.0 / qblur=0.5 / ip_ratio=1.40 / aq=1:1.00
Language : English
Default : Yes
Forced : No

Audio #1
ID : 2
Format : DTS
Format/Info : Digital Theater Systems
Mode : 16
Format settings, Endianness : Big
Codec ID : A_DTS
Duration : 1 h 31 min
Bit rate mode : Constant
Bit rate : 1 509 kb/s
Channel(s) : 6 channels
Channel positions : Front: L C R, Side: L R, LFE
Sampling rate : 48.0 kHz
Frame rate : 93.750 FPS (512 spf)
Bit depth : 24 bits
Compression mode : Lossy
Stream size : 985 MiB (12%)
Title : French DTS 1509kbps
Language : French
Default : Yes
Forced : No

Audio #2
ID : 3
Format : DTS
Format/Info : Digital Theater Systems
Mode : 16
Format settings, Endianness : Big
Codec ID : A_DTS
Duration : 1 h 31 min
Bit rate mode : Constant
Bit rate : 1 509 kb/s
Channel(s) : 6 channels
Channel positions : Front: L C R, Side: L R, LFE
Sampling rate : 48.0 kHz
Frame rate : 93.750 FPS (512 spf)
Bit depth : 24 bits
Compression mode : Lossy
Stream size : 985 MiB (12%)
Title : English DTS 1509kbps
Language : English
Default : Yes
Forced : No

Text #1
ID : 4
Format : UTF-8
Codec ID : S_TEXT/UTF8
Codec ID/Info : UTF-8 Plain Text
Title : Forced
Language : French
Default : Yes
Forced : Yes

Text #2
ID : 5
Format : UTF-8
Codec ID : S_TEXT/UTF8
Codec ID/Info : UTF-8 Plain Text
Title : French
Language : French
Default : No
Forced : No

Text #3
ID : 6
Format : UTF-8
Codec ID : S_TEXT/UTF8
Codec ID/Info : UTF-8 Plain Text
Title : French SDH
Language : French
Default : No
Forced : No

Menu
00:00:00.000 : en:00:00:00.000
00:05:25.575 : en:00:05:25.575
00:10:53.903 : en:00:10:53.903
00:17:10.112 : en:00:17:10.112
00:23:41.420 : en:00:23:41.420
00:29:21.301 : en:00:29:21.301
00:36:41.241 : en:00:36:41.241
00:40:53.034 : en:00:40:53.034
00:47:04.113 : en:00:47:04.113
00:53:18.195 : en:00:53:18.195
00:58:02.020 : en:00:58:02.020
01:04:04.466 : en:01:04:04.466
01:08:53.254 : en:01:08:53.254
01:15:00.121 : en:01:15:00.121
01:21:00.022 : en:01:21:00.022
01:27:18.900 : en:01:27:18.900[/b]

[url=https://www.sparrowpics.com/image/kbJ5y][img]https://www.sparrowpics.com/images/2017/07/04/kbJ5y.png[/img][/url]

[URL=https://www.sparrowpics.com/image/Qyv99][IMG]https://www.sparrowpics.com/images/2017/08/23/Qyv99.th.jpg[/IMG][/URL]

[URL=https://www.sparrowpics.com/image/QyQIb][b]Click To View Screenshot[/b][/URL]

[URL=https://www.sparrowpics.com/image/Qyfr3][b]Click To View Screenshot[/b][/URL]

[URL=https://www.sparrowpics.com/image/QywnK][b]Click To View Screenshot[/b][/URL][/center] ]]>
Huma Qureshi Milky Thigh with Big Cleavage Exposed Picture - Set 38 http://glodls.to/torrent.php?id=2729391 http://glodls.to/torrent.php?id=2729391 Tue, 22 Aug 2017 22:07:01 +0100 Pictures
40 JPG | mix | 3 Mb [/b]

[url=http://www.wallhdpic.com/2014/01/huma-qureshi-wallpaper.html][b]PREVIEW 1[/b][/url]

[url=http://www.wallhdpic.com/2015/01/huma-qureshi-hair-wallpaper.html][b]PREVIEW 2[/b][/url]

[url=http://www.wallhdpic.com/2015/01/huma-qureshi-eyes-wallpaper.html][b]PREVIEW 3[/b][/url]

[url=http://www.wallhdpic.com/2015/11/huma-qureshi-in-saree-wallpaper.html][b]PREVIEW 4[/b][/url]
]]>
Quacks.S01E02.HDTV.x264-MTB[ettv] http://glodls.to/torrent.php?id=2729390 http://glodls.to/torrent.php?id=2729390 Tue, 22 Aug 2017 22:01:21 +0100 TV Et TV Shows


Quacks.S01E02.HDTV.x264-MTB


[Format]: Matroska
[Duration]: 29mn 28s
[Resolution]: 720 x 404 pixels
[Display aspect ratio]: 16:9
[Frame rate mode]: Constant
[Frame rate]: 25.000 fps


[color=green][b]#ettv -> To avoid fakes, ALWAYS check that the torrent was added by ettv[/b][/color]




[color=green][b]To keep us going Support us by donating Bitcoin: 3MDamEmgKepqagtQe9eEdQ3NCrWEWjhoL5[/b][/color]

[b]Screens...[/b]
[url=https://extraimage.net/image/TTWe][img]https://extraimage.net/images/2017/08/22/4440a7797b539810c4c0d03ae0a89ddf.th.jpg[/img][/url] ]]>
Trust Me 2017 S01E03 720p HDTV x264-ORGANiC http://glodls.to/torrent.php?id=2729345 http://glodls.to/torrent.php?id=2729345 Tue, 22 Aug 2017 22:00:16 +0100 TV http://www.tvrage.com/schedule.php?show_yesterday=1. ]]> Trust Me 2017 S01E03 HDTV x264-ORGANiC http://glodls.to/torrent.php?id=2729344 http://glodls.to/torrent.php?id=2729344 Tue, 22 Aug 2017 22:00:13 +0100 TV http://www.tvrage.com/schedule.php?show_yesterday=1. ]]> The State UK S01E03 720p HDTV x264-MTB http://glodls.to/torrent.php?id=2729343 http://glodls.to/torrent.php?id=2729343 Tue, 22 Aug 2017 22:00:11 +0100 TV http://www.tvrage.com/schedule.php?show_yesterday=1. ]]> The State UK S01E03 HDTV x264-MTB http://glodls.to/torrent.php?id=2729342 http://glodls.to/torrent.php?id=2729342 Tue, 22 Aug 2017 22:00:10 +0100 TV http://www.tvrage.com/schedule.php?show_yesterday=1. ]]> Quacks S01E02 720p HDTV x264-MORiTZ http://glodls.to/torrent.php?id=2729341 http://glodls.to/torrent.php?id=2729341 Tue, 22 Aug 2017 22:00:08 +0100 TV http://www.tvrage.com/schedule.php?show_yesterday=1. ]]> Quacks S01E02 HDTV x264-MTB http://glodls.to/torrent.php?id=2729340 http://glodls.to/torrent.php?id=2729340 Tue, 22 Aug 2017 22:00:05 +0100 TV http://www.tvrage.com/schedule.php?show_yesterday=1. ]]> Riddles.Of.The.Sphinx.1977.BDRip.x264-SPOOKS http://glodls.to/torrent.php?id=2729339 http://glodls.to/torrent.php?id=2729339 Tue, 22 Aug 2017 21:55:58 +0100 Movies [color=red][b]
Riddles.Of.The.Sphinx.1977.BDRip.x264-SPOOKS

[/b][/color]


IMDb: http://www.imdb.com/title/tt0076625/





[url=https://boltimg.com/image/t52z][img]https://boltimg.com/images/t52z.png[/img][/url]



[color=green][b]
General

(Duration): 1h 30mn
(FileSize): 1.14 GiB



Audio

(Format): AAC - Advanced Audio Codec
(Codec): AAC LC



Video

(Format): AVC - Advanced Video Codec
(Media): video/H264
(Format): x264
(Resolution): 720x540 px
(AspectRatio): 4:3
(FrameRate): 24.000 fps




[/b][/color]


[url=https://boltimg.com/image/tzTE][img]https://boltimg.com/images/tzTE.png[/img][/url]



[color=purple][b](Click to enlarge)[/b][/color]

[url=https://boltimg.com/image/m9NlX][img]https://boltimg.com/images/m9NlX.th.jpg[/img][/url] [url=https://boltimg.com/image/m9Thw][img]https://boltimg.com/images/m9Thw.th.jpg[/img][/url] [url=https://boltimg.com/image/m99CL][img]https://boltimg.com/images/m99CL.th.jpg[/img][/url] [url=https://boltimg.com/image/m9GFp][img]https://boltimg.com/images/m9GFp.th.jpg[/img][/url] [url=https://boltimg.com/image/m9vTC][img]https://boltimg.com/images/m9vTC.th.jpg[/img][/url] [url=https://boltimg.com/image/m9h2G][img]https://boltimg.com/images/m9h2G.th.jpg[/img][/url]

[/center]
]]>
Vixen - Angela White (My European Assistant) 720p NEW 22 August 2017 http://glodls.to/torrent.php?id=2729338 http://glodls.to/torrent.php?id=2729338 Tue, 22 Aug 2017 21:37:42 +0100 Adult XXX
http://imggold.org/zycv68vwy1ci/vi.jpg.html

http://imggold.org/cpqq31v29or0/vi2.jpg.html

http://imggold.org/j5orjgd8r90m/vi1.jpg.html

http://imgtornado.com/img-599c7146917ad.html


Angela runs her own successful business and she knows its important to take some time off once in a while. Four times a year she follows a strict ritual. She secludes herself in a private villa for complete relaxation. This time she's brought along Chris, one of her boy toys to satisfy her every need. He is very eager to please and hardly understands a word she says. So when she wants something from him, she simply takes it - with no repercussions.
Tags: Prone Bone, Big Tits, Cumshot, Riding, Doggystyle, Reverse Cowgirl, Blowjob, Deep Throat, Pussy Licking, Brunette ]]>
Quacks.S01E02.720p.HDTV.x264-MORiTZ http://glodls.to/torrent.php?id=2729337 http://glodls.to/torrent.php?id=2729337 Tue, 22 Aug 2017 21:34:42 +0100 TV
[url=https://www.sparrowpics.com/image/kbFon][img]https://www.sparrowpics.com/images/2017/07/04/kbFon.png[/img][/url]

[b]Complete name : quacks.s01e02.720p.hdtv.x264-moritz.mkv
Format : Matroska
Format version : Version 4 / Version 2
File size : 449 MiB
Duration : 29 min 0 s
Overall bit rate : 2 163 kb/s
Encoded date : UTC 2017-08-22 21:30:35
Writing application : mkvmerge v9.1.0 ('Little Earthquakes') 64bit
Writing library : libebml v1.3.3 + libmatroska v1.4.4

Video
ID : 1
Format : AVC
Format/Info : Advanced Video Codec
Format profile : High@L4.1
Format settings, CABAC : Yes
Format settings, ReFrames : 5 frames
Codec ID : V_MPEG4/ISO/AVC
Duration : 29 min 0 s
Bit rate : 1 970 kb/s
Width : 1 280 pixels
Height : 720 pixels
Display aspect ratio : 16:9
Frame rate mode : Constant
Frame rate : 25.000 FPS
Color space : YUV
Chroma subsampling : 4:2:0
Bit depth : 8 bits
Scan type : Progressive
Bits/(Pixel*Frame) : 0.085
Stream size : 409 MiB (91%)
Writing library : x264 core 152 r2851 ba24899
Encoding settings : cabac=1 / ref=5 / deblock=1:0:0 / analyse=0x3:0x113 / me=hex / subme=8 / psy=1 / psy_rd=1.00:0.00 / mixed_ref=1 / me_range=16 / chroma_me=1 / trellis=2 / 8x8dct=1 / cqm=0 / deadzone=21,11 / fast_pskip=1 / chroma_qp_offset=-2 / threads=24 / lookahead_threads=4 / sliced_threads=0 / nr=0 / decimate=1 / interlaced=0 / bluray_compat=0 / constrained_intra=0 / bframes=3 / b_pyramid=2 / b_adapt=1 / b_bias=0 / direct=3 / weightb=1 / open_gop=0 / weightp=2 / keyint=250 / keyint_min=25 / scenecut=40 / intra_refresh=0 / rc_lookahead=50 / rc=crf / mbtree=1 / crf=18.0 / qcomp=0.60 / qpmin=0 / qpmax=69 / qpstep=4 / ip_ratio=1.40 / aq=1:1.00
Language : English
Default : Yes
Forced : No
Color range : Limited
Matrix coefficients : BT.709

Audio
ID : 2
Format : AC-3
Format/Info : Audio Coding 3
Format settings, Endianness : Big
Codec ID : A_AC3
Duration : 28 min 59 s
Bit rate mode : Constant
Bit rate : 192 kb/s
Channel(s) : 2 channels
Channel positions : Front: L R
Sampling rate : 48.0 kHz
Frame rate : 31.250 FPS (1536 spf)
Bit depth : 16 bits
Compression mode : Lossy
Delay relative to video : 240 ms
Stream size : 39.8 MiB (9%)
Service kind : Complete Main
Default : Yes
Forced : No[/b]

[url=https://www.sparrowpics.com/image/kbJ5y][img]https://www.sparrowpics.com/images/2017/07/04/kbJ5y.png[/img][/url]

[URL=https://tv.sparrowpics.com/image/KqgZF][IMG]https://tv.sparrowpics.com/images/2017/08/22/KqgZF.th.jpg[/IMG][/URL]

[URL=https://tv.sparrowpics.com/image/Kq4DA][b]Click To View Screenshot[/b][/URL]

[URL=https://tv.sparrowpics.com/image/KqD22][b]Click To View Screenshot[/b][/URL]

[URL=https://tv.sparrowpics.com/image/KqFEg][b]Click To View Screenshot[/b][/URL][/center] ]]>
The.State.UK.S01E03.HDTV.x264-MTB[ettv] http://glodls.to/torrent.php?id=2729336 http://glodls.to/torrent.php?id=2729336 Tue, 22 Aug 2017 21:15:24 +0100 TV Et TV Shows


The.State.UK.S01E03.HDTV.x264-MTB


[Format]: Matroska
[Duration]: 47mn 41s
[Resolution]: 720 x 404 pixels
[Display aspect ratio]: 16:9
[Frame rate mode]: Constant
[Frame rate]: 25.000 fps


[color=green][b]#ettv -> To avoid fakes, ALWAYS check that the torrent was added by ettv[/b][/color]




[color=green][b]To keep us going Support us by donating Bitcoin: 3MDamEmgKepqagtQe9eEdQ3NCrWEWjhoL5[/b][/color]

[b]Screens...[/b]
[url=https://extraimage.net/image/TTWO][img]https://extraimage.net/images/2017/08/22/0190ca9c8bcbbd78c1283d9e7eee69b3.th.jpg[/img][/url] ]]>
SisLovesMe Teen Lily Rader The Never Ending Step Slut XXX http://glodls.to/torrent.php?id=2729330 http://glodls.to/torrent.php?id=2729330 Tue, 22 Aug 2017 21:11:15 +0100 Adult XXX http://img2share.com/img-599c92295984d.html

Duration=00:45:44.960
File size=331 MiB
Resolution=640x360 ]]>
XLGirls Plump Big Natural Tits BBW Elaina Gregory XXX http://glodls.to/torrent.php?id=2729323 http://glodls.to/torrent.php?id=2729323 Tue, 22 Aug 2017 21:10:25 +0100 Adult XXX http://img2share.com/img-599c9222e8f20.html

Duration=00:16:46.773
File size=260 MiB
Resolution=1280x720 ]]>
MyCherryCrush Amateur Girl Clip Blonde Bitch XXX http://glodls.to/torrent.php?id=2729320 http://glodls.to/torrent.php?id=2729320 Tue, 22 Aug 2017 21:10:03 +0100 Adult XXX http://img2share.com/img-599c92205fdbc.html

Duration=00:09:29.903
File size=81 MiB
Resolution=1024x768 ]]>
AmateurAllure Amateur Girl Jane XXX http://glodls.to/torrent.php?id=2729314 http://glodls.to/torrent.php?id=2729314 Tue, 22 Aug 2017 21:09:26 +0100 Adult XXX http://img2share.com/img-599c922e32d21.html

Duration=00:13:46.630
File size=285 MiB
Resolution=800x450 ]]>
Clips4Sale Amateur Xev Bellringer You Will Cum Whether You Like It Or Not XXX http://glodls.to/torrent.php?id=2729313 http://glodls.to/torrent.php?id=2729313 Tue, 22 Aug 2017 21:09:17 +0100 Adult XXX http://img2share.com/img-599c922d3349d.html

Duration=00:30:41.540
File size=466 MiB
Resolution=960x540 ]]>
InnocentHigh Hot Barely Legal High School Teens Kat XXX http://glodls.to/torrent.php?id=2729312 http://glodls.to/torrent.php?id=2729312 Tue, 22 Aug 2017 21:09:10 +0100 Adult XXX http://img2share.com/img-599c922c71f9c.html

Duration=00:31:23.033
File size=259 MiB
Resolution=640x480 ]]>
LatexAngel Extreme Latex Kink Anal Horsecock StrapOn XXX http://glodls.to/torrent.php?id=2729311 http://glodls.to/torrent.php?id=2729311 Tue, 22 Aug 2017 21:09:02 +0100 Adult XXX http://img2share.com/img-599c922b70087.html

Duration=00:10:32.000
File size=620 MiB
Resolution=1920x1080 ]]>
XLGirls Plump Big Natural Tits BBW Alix Lakehurst XXX http://glodls.to/torrent.php?id=2729310 http://glodls.to/torrent.php?id=2729310 Tue, 22 Aug 2017 21:08:55 +0100 Adult XXX http://img2share.com/img-599c922a5afb7.html

Duration=00:17:20.043
File size=268 MiB
Resolution=1280x720 ]]>
AmateurAllure Amateur Girl Angelica XXX http://glodls.to/torrent.php?id=2729309 http://glodls.to/torrent.php?id=2729309 Tue, 22 Aug 2017 21:08:45 +0100 Adult XXX http://img2share.com/img-599c9228a0048.html

Duration=00:21:38.970
File size=259 MiB
Resolution=600x300 ]]>
CzechAmateurs Czech Amateur Episode 63 XXX http://glodls.to/torrent.php?id=2729308 http://glodls.to/torrent.php?id=2729308 Tue, 22 Aug 2017 21:08:38 +0100 Adult XXX http://img2share.com/img-599c922780473.html

Duration=00:32:43.206
File size=820 MiB
Resolution=1280x720 ]]>
LatexAngel Extreme Latex Kink Fist In Every Hole XXX http://glodls.to/torrent.php?id=2729307 http://glodls.to/torrent.php?id=2729307 Tue, 22 Aug 2017 21:08:29 +0100 Adult XXX http://img2share.com/img-599c92268c596.html

Duration=00:18:41.880
File size=220 MiB
Resolution=788x576 ]]>
PublicPickUps Amateur Czech Sex In Public Heather XXX http://glodls.to/torrent.php?id=2729306 http://glodls.to/torrent.php?id=2729306 Tue, 22 Aug 2017 21:08:21 +0100 Adult XXX http://img2share.com/img-599c92259d5b0.html

Duration=00:56:28.560
File size=376 MiB
Resolution=640x368 ]]>
HazeHer College Amateur Girls Haze The Road To Sisterhood XXX http://glodls.to/torrent.php?id=2729305 http://glodls.to/torrent.php?id=2729305 Tue, 22 Aug 2017 21:08:15 +0100 Adult XXX http://img2share.com/img-599c9224c4137.html

Duration=00:37:00.488
File size=816 MiB
Resolution=1280x720 ]]>
GirlsGotCream Anal Amateur Creampie Silk 2 XXX http://glodls.to/torrent.php?id=2729304 http://glodls.to/torrent.php?id=2729304 Tue, 22 Aug 2017 21:08:09 +0100 Adult XXX http://img2share.com/img-599c922437e19.html

Duration=00:20:42.128
File size=468 MiB
Resolution=960x540 ]]>
GirlsGotCream Anal Amateur Creampie Vanessa XXX http://glodls.to/torrent.php?id=2729303 http://glodls.to/torrent.php?id=2729303 Tue, 22 Aug 2017 21:08:03 +0100 Adult XXX http://img2share.com/img-599c922380e9a.html

Duration=00:30:17.911
File size=263 MiB
Resolution=640x480 ]]>
Urabukkake Asian Pet Ai Creampie Reverse Facial XXX http://glodls.to/torrent.php?id=2729302 http://glodls.to/torrent.php?id=2729302 Tue, 22 Aug 2017 21:07:51 +0100 Adult XXX http://img2share.com/img-599c9221ef689.html

Duration=00:15:17.551
File size=927 MiB
Resolution=1920x1080 ]]>
MyCherryCrush Amateur Girl Clip Whipped Cream XXX http://glodls.to/torrent.php?id=2729301 http://glodls.to/torrent.php?id=2729301 Tue, 22 Aug 2017 21:07:45 +0100 Adult XXX http://img2share.com/img-599c922123b53.html

Duration=00:10:28.128
File size=239 MiB
Resolution=1280x720 ]]>
SpermSwap Cum Load Sharing Sandra Adrienne XXX http://glodls.to/torrent.php?id=2729300 http://glodls.to/torrent.php?id=2729300 Tue, 22 Aug 2017 21:07:33 +0100 Adult XXX http://img2share.com/img-599c921f7f704.html

Duration=00:35:36.800
File size=2 GiB
Resolution=1920x1080 ]]>
InnocentHigh Hot Barely Legal High School Teens Alicia XXX http://glodls.to/torrent.php?id=2729299 http://glodls.to/torrent.php?id=2729299 Tue, 22 Aug 2017 21:07:27 +0100 Adult XXX http://img2share.com/img-599c921dd47c8.html

Duration=00:23:53.925
File size=224 MiB
Resolution=640x480 ]]>
Toe.Tag.Parole.To.Live.and.Die.on.Yard.A.2015.HDTV.x264-aAF[ettv] http://glodls.to/torrent.php?id=2729298 http://glodls.to/torrent.php?id=2729298 Tue, 22 Aug 2017 21:07:24 +0100 TV Et TV Shows


Toe.Tag.Parole.To.Live.and.Die.on.Yard.A.2015.HDTV.x264-aAF


[Format]: Matroska
[Duration]: 1h 19mn
[Resolution]: 720 x 404 pixels
[Display aspect ratio]: 16:9
[Frame rate mode]: Constant
[Frame rate]: 29.970 fps


[color=green][b]#ettv -> To avoid fakes, ALWAYS check that the torrent was added by ettv[/b][/color]




[color=green][b]To keep us going Support us by donating Bitcoin: 3MDamEmgKepqagtQe9eEdQ3NCrWEWjhoL5[/b][/color]

[b]Screens...[/b]
[url=https://extraimage.net/image/TTWE][img]https://extraimage.net/images/2017/08/22/1bc57717f57ba62b2d7a90a44ca63372.th.jpg[/img][/url] ]]>
AmateurAllure Amateur Girl Callie Cyprus XXX http://glodls.to/torrent.php?id=2729297 http://glodls.to/torrent.php?id=2729297 Tue, 22 Aug 2017 21:07:18 +0100 Adult XXX http://img2share.com/img-599c921cafa4f.html

Duration=00:33:35.847
File size=662 MiB
Resolution=800x450 ]]>
WatchingMyDaughterGoBlack White Girl And BBC Cindi Loo XXX http://glodls.to/torrent.php?id=2729296 http://glodls.to/torrent.php?id=2729296 Tue, 22 Aug 2017 21:07:09 +0100 Adult XXX http://img2share.com/img-599c921bb31ee.html

Duration=00:40:59.190
File size=937 MiB
Resolution=1280x720 ]]>
Clips4Sale Amateur Xev Bellringer Mommy Lets You Watch Her Change Clothes XXX http://glodls.to/torrent.php?id=2729295 http://glodls.to/torrent.php?id=2729295 Tue, 22 Aug 2017 21:07:02 +0100 Adult XXX http://img2share.com/img-599c9219df4e3.html

Duration=00:23:08.331
File size=1 GiB
Resolution=1920x1080 ]]>
Jayden Black - The Blue Balled Brother http://glodls.to/torrent.php?id=2729294 http://glodls.to/torrent.php?id=2729294 Tue, 22 Aug 2017 21:06:42 +0100 Adult XXX
[b]Date[/b]: 2017
[b]Cast[/b]: Jayden Black
[b]Genre[/b]: All Sex, Blowjob
[b]Name[/b]: The Blue Balled Brother


[b]Video[/b]: AVC, 960x540, 29.970 FPS, 2700 kb/s
[b]Audio[/b]: AAC LC, 48.0 kHz, 2 channels, 149 kb/s
[b]Format[/b]: mp4
[b]Duration[/b]: 00:36:50
]]>
Trust.Me.2017.S01E03.HDTV.x264-ORGANiC[ettv] http://glodls.to/torrent.php?id=2729293 http://glodls.to/torrent.php?id=2729293 Tue, 22 Aug 2017 21:05:34 +0100 TV Et TV Shows


Trust.Me.2017.S01E03.HDTV.x264-ORGANiC


[Format]: Matroska
[Duration]: 55mn 4s
[Resolution]: 720 x 300 pixels
[Display aspect ratio]: 2.40:1
[Frame rate mode]: Constant
[Frame rate]: 25.000 fps


[color=green][b]#ettv -> To avoid fakes, ALWAYS check that the torrent was added by ettv[/b][/color]




[color=green][b]To keep us going Support us by donating Bitcoin: 3MDamEmgKepqagtQe9eEdQ3NCrWEWjhoL5[/b][/color]

[b]Screens...[/b]
[url=https://extraimage.net/image/TTW1][img]https://extraimage.net/images/2017/08/22/58790d94a7fbb03399bc1f4954a20d32.th.jpg[/img][/url] ]]>
Toe.Tag.Parole.To.Live.and.Die.on.Yard.A.2015.HDTV.x264-aAF http://glodls.to/torrent.php?id=2729292 http://glodls.to/torrent.php?id=2729292 Tue, 22 Aug 2017 21:04:45 +0100 TV
[url=https://www.sparrowpics.com/image/kbFon][img]https://www.sparrowpics.com/images/2017/07/04/kbFon.png[/img][/url]

[b]Complete name : Toe.Tag.Parole.To.Live.and.Die.on.Yard.A.2015.HDTV.x264-aAF.mkv
Format : Matroska
Format version : Version 4 / Version 2
File size : 444 MiB
Duration : 1 h 19 min
Overall bit rate : 777 kb/s
Encoded date : UTC 2017-08-22 21:03:00
Writing application : mkvmerge v7.0.0 ('Where We Going') 64bit built on Jun 22 2014 08:19:39
Writing library : libebml v1.3.0 + libmatroska v1.4.1

Video
ID : 1
Format : AVC
Format/Info : Advanced Video Codec
Format profile : High@L3.1
Format settings, CABAC : Yes
Format settings, ReFrames : 5 frames
Codec ID : V_MPEG4/ISO/AVC
Duration : 1 h 19 min
Width : 720 pixels
Height : 404 pixels
Display aspect ratio : 16:9
Frame rate mode : Constant
Frame rate : 29.970 (30000/1001) FPS
Color space : YUV
Chroma subsampling : 4:2:0
Bit depth : 8 bits
Scan type : Progressive
Writing library : x264 core 152 r2851 ba24899
Encoding settings : cabac=1 / ref=5 / deblock=1:0:0 / analyse=0x3:0x113 / me=hex / subme=8 / psy=1 / psy_rd=1.00:0.00 / mixed_ref=1 / me_range=16 / chroma_me=1 / trellis=2 / 8x8dct=1 / cqm=0 / deadzone=21,11 / fast_pskip=1 / chroma_qp_offset=-2 / threads=13 / lookahead_threads=2 / sliced_threads=0 / nr=0 / decimate=1 / interlaced=0 / bluray_compat=0 / constrained_intra=0 / bframes=3 / b_pyramid=2 / b_adapt=1 / b_bias=0 / direct=3 / weightb=1 / open_gop=0 / weightp=2 / keyint=250 / keyint_min=25 / scenecut=40 / intra_refresh=0 / rc_lookahead=50 / rc=crf / mbtree=1 / crf=21.0 / qcomp=0.60 / qpmin=0 / qpmax=69 / qpstep=4 / ip_ratio=1.40 / aq=1:1.00
Default : Yes
Forced : No
Color range : Limited
Matrix coefficients : BT.709

Audio
ID : 2
Format : AAC
Format/Info : Advanced Audio Codec
Format profile : LC
Codec ID : A_AAC
Duration : 1 h 19 min
Channel(s) : 2 channels
Channel positions : Front: L R
Sampling rate : 48.0 kHz
Frame rate : 46.875 FPS (1024 spf)
Compression mode : Lossy
Delay relative to video : 20 ms
Default : Yes
Forced : No[/b]

[url=https://www.sparrowpics.com/image/kbJ5y][img]https://www.sparrowpics.com/images/2017/07/04/kbJ5y.png[/img][/url]

[URL=https://tv.sparrowpics.com/image/KgxIJ][IMG]https://tv.sparrowpics.com/images/2017/08/22/KgxIJ.th.jpg[/IMG][/URL]

[URL=https://tv.sparrowpics.com/image/Kq86G][b]Click To View Screenshot[/b][/URL]

[URL=https://tv.sparrowpics.com/image/Kq9Oc][b]Click To View Screenshot[/b][/URL]

[URL=https://tv.sparrowpics.com/image/KqHMQ][b]Click To View Screenshot[/b][/URL][/center] ]]>
Trust.Me.2017.S01E03.HDTV.x264-ORGANiC http://glodls.to/torrent.php?id=2729291 http://glodls.to/torrent.php?id=2729291 Tue, 22 Aug 2017 21:03:27 +0100 TV
[url=https://www.sparrowpics.com/image/kbFon][img]https://www.sparrowpics.com/images/2017/07/04/kbFon.png[/img][/url]

[b]Complete name : Trust.Me.2017.S01E03.HDTV.x264-ORGANiC.mkv
Format : Matroska
Format version : Version 2
File size : 236 MiB
Duration : 55 min 4 s
Overall bit rate : 598 kb/s
Writing application : x264.exe
Writing library : mkv2rls x264-tv version built on 2016.10.12

Video
ID : 1
Format : AVC
Format/Info : Advanced Video Codec
Format profile : High@L3.1
Format settings, CABAC : Yes
Format settings, ReFrames : 5 frames
Codec ID : V_MPEG4/ISO/AVC
Duration : 55 min 4 s
Width : 720 pixels
Height : 300 pixels
Display aspect ratio : 2.40:1
Frame rate mode : Constant
Frame rate : 25.000 FPS
Color space : YUV
Chroma subsampling : 4:2:0
Bit depth : 8 bits
Scan type : Progressive
Writing library : x264 core 152 r2851 ba24899
Encoding settings : cabac=1 / ref=5 / deblock=1:0:0 / analyse=0x3:0x113 / me=hex / subme=8 / psy=1 / psy_rd=1.00:0.00 / mixed_ref=1 / me_range=16 / chroma_me=1 / trellis=2 / 8x8dct=1 / cqm=0 / deadzone=21,11 / fast_pskip=1 / chroma_qp_offset=-2 / threads=9 / lookahead_threads=1 / sliced_threads=0 / nr=0 / decimate=1 / interlaced=0 / bluray_compat=0 / constrained_intra=0 / bframes=3 / b_pyramid=2 / b_adapt=1 / b_bias=0 / direct=3 / weightb=1 / open_gop=0 / weightp=2 / keyint=250 / keyint_min=25 / scenecut=40 / intra_refresh=0 / rc_lookahead=50 / rc=crf / mbtree=1 / crf=19.0 / qcomp=0.60 / qpmin=0 / qpmax=69 / qpstep=4 / ip_ratio=1.40 / aq=1:1.00
Language : English
Default : Yes
Forced : No
Color range : Limited
Matrix coefficients : BT.709

Audio
ID : 2
Format : AAC
Format/Info : Advanced Audio Codec
Format profile : LC
Codec ID : A_AAC
Duration : 55 min 4 s
Channel(s) : 2 channels
Channel positions : Front: L R
Sampling rate : 48.0 kHz
Frame rate : 46.875 FPS (1024 spf)
Compression mode : Lossy
Language : English
Default : Yes
Forced : No[/b]

[url=https://www.sparrowpics.com/image/kbJ5y][img]https://www.sparrowpics.com/images/2017/07/04/kbJ5y.png[/img][/url]

[URL=https://tv.sparrowpics.com/image/KgZos][IMG]https://tv.sparrowpics.com/images/2017/08/22/KgZos.th.jpg[/IMG][/URL]

[URL=https://tv.sparrowpics.com/image/KgiBK][b]Click To View Screenshot[/b][/URL]

[URL=https://tv.sparrowpics.com/image/KgjTX][b]Click To View Screenshot[/b][/URL]

[URL=https://tv.sparrowpics.com/image/KguDU][b]Click To View Screenshot[/b][/URL][/center] ]]>
Trust.Me.2017.S01E03.720p.HDTV.x264-ORGANiC http://glodls.to/torrent.php?id=2729290 http://glodls.to/torrent.php?id=2729290 Tue, 22 Aug 2017 21:01:37 +0100 TV
[url=https://www.sparrowpics.com/image/kbFon][img]https://www.sparrowpics.com/images/2017/07/04/kbFon.png[/img][/url]

[b]Complete name : Trust.Me.2017.S01E03.720p.HDTV.x264-ORGANiC.mkv
Format : Matroska
Format version : Version 2
File size : 638 MiB
Duration : 55 min 4 s
Overall bit rate : 1 620 kb/s
Writing application : x264.exe
Writing library : mkv2rls x264-tv version built on 2016.10.12

Video
ID : 1
Format : AVC
Format/Info : Advanced Video Codec
Format profile : High@L4.1
Format settings, CABAC : Yes
Format settings, ReFrames : 5 frames
Codec ID : V_MPEG4/ISO/AVC
Duration : 55 min 4 s
Bit rate : 1 396 kb/s
Width : 1 280 pixels
Height : 528 pixels
Display aspect ratio : 2.40:1
Frame rate mode : Constant
Frame rate : 25.000 FPS
Color space : YUV
Chroma subsampling : 4:2:0
Bit depth : 8 bits
Scan type : Progressive
Bits/(Pixel*Frame) : 0.083
Stream size : 550 MiB (86%)
Writing library : x264 core 152 r2851 ba24899
Encoding settings : cabac=1 / ref=5 / deblock=1:0:0 / analyse=0x3:0x113 / me=hex / subme=8 / psy=1 / psy_rd=1.00:0.00 / mixed_ref=1 / me_range=16 / chroma_me=1 / trellis=2 / 8x8dct=1 / cqm=0 / deadzone=21,11 / fast_pskip=1 / chroma_qp_offset=-2 / threads=16 / lookahead_threads=2 / sliced_threads=0 / nr=0 / decimate=1 / interlaced=0 / bluray_compat=0 / constrained_intra=0 / bframes=3 / b_pyramid=2 / b_adapt=1 / b_bias=0 / direct=3 / weightb=1 / open_gop=0 / weightp=2 / keyint=250 / keyint_min=25 / scenecut=40 / intra_refresh=0 / rc_lookahead=50 / rc=crf / mbtree=1 / crf=18.0 / qcomp=0.60 / qpmin=0 / qpmax=69 / qpstep=4 / ip_ratio=1.40 / aq=1:1.00
Language : English
Default : Yes
Forced : No

Audio
ID : 2
Format : AC-3
Format/Info : Audio Coding 3
Format settings, Endianness : Big
Codec ID : A_AC3
Duration : 55 min 4 s
Bit rate mode : Constant
Bit rate : 192 kb/s
Channel(s) : 2 channels
Channel positions : Front: L R
Sampling rate : 48.0 kHz
Frame rate : 31.250 FPS (1536 spf)
Bit depth : 16 bits
Compression mode : Lossy
Stream size : 75.6 MiB (12%)
Language : English
Service kind : Complete Main
Default : Yes
Forced : No[/b]

[url=https://www.sparrowpics.com/image/kbJ5y][img]https://www.sparrowpics.com/images/2017/07/04/kbJ5y.png[/img][/url]

[URL=https://tv.sparrowpics.com/image/Kgz1B][IMG]https://tv.sparrowpics.com/images/2017/08/22/Kgz1B.th.jpg[/IMG][/URL]

[URL=https://tv.sparrowpics.com/image/Kg55Y][b]Click To View Screenshot[/b][/URL]

[URL=https://tv.sparrowpics.com/image/KgdHT][b]Click To View Screenshot[/b][/URL]

[URL=https://tv.sparrowpics.com/image/Kgh6b][b]Click To View Screenshot[/b][/URL][/center] ]]>
Holby City S19E46 Wildest Dreams HDTV x264-ORGANiC http://glodls.to/torrent.php?id=2729243 http://glodls.to/torrent.php?id=2729243 Tue, 22 Aug 2017 21:00:11 +0100 TV http://www.tvrage.com/schedule.php?show_yesterday=1. ]]> Holby City S19E46 Wildest Dreams 720p HDTV x264-ORGANiC http://glodls.to/torrent.php?id=2729242 http://glodls.to/torrent.php?id=2729242 Tue, 22 Aug 2017 21:00:10 +0100 TV http://www.tvrage.com/schedule.php?show_yesterday=1. ]]> WWE Mae Young Classic S01E00 Bracketology 720p WEB h264-PLUTONiUM http://glodls.to/torrent.php?id=2729241 http://glodls.to/torrent.php?id=2729241 Tue, 22 Aug 2017 21:00:08 +0100 TV http://www.tvrage.com/schedule.php?show_yesterday=1. ]]> WWE Mae Young Classic S01E00 Bracketology WEB h264-PLUTONiUM http://glodls.to/torrent.php?id=2729240 http://glodls.to/torrent.php?id=2729240 Tue, 22 Aug 2017 21:00:05 +0100 TV http://www.tvrage.com/schedule.php?show_yesterday=1. ]]> I.Kissed.A.Girl.And.I.Liked.It.7.Hairy.Edition.XXX.iNTERNAL.720p.WEBRiP.MP4-GUSH http://glodls.to/torrent.php?id=2729233 http://glodls.to/torrent.php?id=2729233 Tue, 22 Aug 2017 20:17:34 +0100 Adult XXX
{Duration} : 2 h 12 min
{Format} : MPEG-4
{Resolution} : 1280 x 720 pixels
{Aspect Ratio} : 16:9
{Frame Rate} : 29.970 fps

[b]Thumbnails : -[/b]

[URL=https://www.sizzlingclicks.com/image/Uhvej][IMG]https://www.sizzlingclicks.com/images/2017/08/22/Uhvej.th.jpg[/IMG][/URL]
[b][URL]https://www.sizzlingclicks.com/image/Uhvej[/URL][/b]
[b][URL]https://www.sizzlingclicks.com/image/UhDh8[/URL][/b]
[b][URL]https://www.sizzlingclicks.com/image/UhJlB[/URL][/b]
[b][URL]https://www.sizzlingclicks.com/image/UhfwZ[/URL][/b] ]]>