GloDLS.to - Download Movies, TV, Games and Other Torrents Free RSS 2.0enGloDLS.to - Download Movies, TV, Games and Other Torrents FreeGloDLS.to - Download Movies, TV, Games and Other Torrents Free RSS Feedhttp://glodls.toCopyright GloDLS.to - Download Movies, TV, Games and Other Torrents FreeWed, 29 Mar 2017 18:10:42 +0100 Shoplyfter 17 03 29 Charity Crawford And Zoey Laine XXX 480p MP4-TK http://glodls.to/torrent.php?id=2336630 http://glodls.to/torrent.php?id=2336630 Wed, 29 Mar 2017 17:08:16 +0100 Adult XXX
[b]Screenshots:[/b]

[url]http://imgkings.com/img-58dbe9f91dc83.html[/url]

[url]http://imgkings.com/img-58dbe9f3801ce.html[/url]

[url]http://imgkings.com/img-58dbe9db17b8b.html[/url]



File Size : 473 MiB
Duration : 56mn 33s
Video : h264, yuv420p, 854x480p, 1024 Kbps
Audio : aac , 2 ch, stereo , 128 Kbps ]]>
[FootFetishDaily] Amber Ivy - Hardcore http://glodls.to/torrent.php?id=2336629 http://glodls.to/torrent.php?id=2336629 Wed, 29 Mar 2017 17:07:26 +0100 Adult XXX
Genre :- All Sex, Footjob, Foot Fetish, 1080p]

Screenshot :-

[url=http://imgtorrnt.in/view.php?id=e7kGpbK][color=green] View Screen 1 [/color] [/url]

[url=http://imgtorrnt.in/view.php?id=DIHQ1a8][color=green] View Screen 2 [/color] [/url]

[img]http://i.imgur.com/e7kGpbK.jpg[/img]

]]>
BrutalCastings 17 03 22 Lucie Cline XXX 480p MP4-TK http://glodls.to/torrent.php?id=2336628 http://glodls.to/torrent.php?id=2336628 Wed, 29 Mar 2017 17:04:53 +0100 Adult XXX [b]Screenshots:[/b]



File Size : 500 MiB
Duration : 1h 0mn
Video : h264, yuv420p, 854x480p, 1024 Kbps
Audio : aac , 2 ch, stereo , 128 Kbps ]]>
Jamiroquai - Automaton (2017) [Mp3~320kbps] http://glodls.to/torrent.php?id=2336577 http://glodls.to/torrent.php?id=2336577 Wed, 29 Mar 2017 16:57:33 +0100 Music
[img]https://extraimago.com/images/2016/10/28/f7a5336e77407b7dee00d04d696947d5.png[/img]
[color=red][size=3]
Artist : Jamiroquai

Album : Automaton

Genre : Funk Rock

Release : 2017

Tracks : 12

Quality: 320Kbps/Joint Stereo/44100Hz

Total Time: 00:57:17

Total Size: 132 Mb
[/size][/color]
[img]https://extraimago.com/images/2016/10/28/99616de520d7b3ae31e87aceba477ea3.png[/img]
[color=green][size=3]
1. Shake It On

2. Automaton

3. Cloud 9

4. Superfresh

5. Hot Property

6. Something About You

7. Summer Girl

8. Nights Out in the Jungle

9. Dr Buzz

10. We Can Do It

11. Vitamin

12. Carla
[/size][/color]
[img]https://extraimago.com/images/2015/10/09/CjjF0uX3.gif[/img]
[/center]
]]>
The.Evil.Dead.Treasures.from.the.Cutting.Room.Floor.2007.720p.BluRay.x264-JustWatch[PRiME] http://glodls.to/torrent.php?id=2336576 http://glodls.to/torrent.php?id=2336576 Wed, 29 Mar 2017 16:56:00 +0100 Movies The.Evil.Dead.Treasures.from.the.Cutting.Room.Floor.2007.720p.BluRay.x264-JustWatch[PRiME]

ImDb: [URL]http://www.imdb.com/title/tt1869718[/URL]

[url=https://www.sparrowpics.com/image/LwB][img]https://www.sparrowpics.com/images/2015/12/10/Info.png[/img][/url]

[color=green]Complete name : the.evil.dead.treasures.from.the.cutting.room.floor.2007.720p.bluray.x264-justwatch[PRiME].mkv
Format : Matroska
Format version : Version 2
File size : 2.18 GiB
Duration : 59 min 22 s
Overall bit rate : 5 264 kb/s
Writing application : mkvmerge v6.6.0 ('The Edge Of The In Between') built on Dec 1 2013 17:55:00
Writing library : libebml v1.3.0 + libmatroska v1.4.1

Video
ID : 1
Format : AVC
Format/Info : Advanced Video Codec
Format profile : High@L4.1
Format settings, CABAC : Yes
Format settings, ReFrames : 5 frames
Codec ID : V_MPEG4/ISO/AVC
Duration : 59 min 22 s
Bit rate : 4 751 kb/s
Width : 1 280 pixels
Height : 720 pixels
Display aspect ratio : 16:9
Frame rate mode : Constant
Frame rate : 23.976 (24000/1001) FPS
Color space : YUV
Chroma subsampling : 4:2:0
Bit depth : 8 bits
Scan type : Progressive
Bits/(Pixel*Frame) : 0.215
Stream size : 1.93 GiB (88%)
Writing library : x264 core 148 r2762 90a61ec
Encoding settings : cabac=1 / ref=5 / deblock=1:-2:-2 / analyse=0x3:0x113 / me=umh / subme=8 / psy=1 / psy_rd=1.00:0.00 / mixed_ref=1 / me_range=16 / chroma_me=1 / trellis=2 / 8x8dct=1 / cqm=0 / deadzone=21,11 / fast_pskip=1 / chroma_qp_offset=-2 / threads=12 / lookahead_threads=2 / sliced_threads=0 / nr=0 / decimate=1 / interlaced=0 / bluray_compat=0 / constrained_intra=0 / bframes=3 / b_pyramid=2 / b_adapt=2 / b_bias=0 / direct=3 / weightb=1 / open_gop=0 / weightp=2 / keyint=240 / keyint_min=24 / scenecut=40 / intra_refresh=0 / rc_lookahead=50 / rc=2pass / mbtree=1 / bitrate=4751 / ratetol=1.0 / qcomp=0.60 / qpmin=0 / qpmax=69 / qpstep=4 / cplxblur=20.0 / qblur=0.5 / ip_ratio=1.40 / aq=1:1.00
Language : English
Default : Yes
Forced : No

Audio
ID : 2
Format : DTS
Format/Info : Digital Theater Systems
Mode : 16
Format settings, Endianness : Big
Codec ID : A_DTS
Duration : 59 min 22 s
Bit rate mode : Constant
Bit rate : 510 kb/s
Channel(s) : 2 channels
Channel positions : Front: L R
Sampling rate : 48.0 kHz
Frame rate : 93.750 FPS (512 spf)
Bit depth : 24 bits
Compression mode : Lossy
Stream size : 217 MiB (10%)
Language : English
Default : Yes
Forced : No[/color]

[url=https://www.sparrowpics.com/image/UYe][img]https://www.sparrowpics.com/images/2015/12/10/Screens.png[/img][/url]

[color=red]Click Image To View Full Size[/color]

[URL=https://www.sparrowpics.com/image/DAlgJ][IMG]https://www.sparrowpics.com/images/2017/03/29/DAlgJ.th.jpg[/IMG][/URL]
[URL=https://www.sparrowpics.com/image/DAtzc][b]Click To View Screenshot[/b][/URL]
[URL=https://www.sparrowpics.com/image/DA8V6][b]Click To View Screenshot[/b][/URL]
[URL=https://www.sparrowpics.com/image/DAG1h][b]Click To View Screenshot[/b][/URL]

[/center] ]]>
BrutalCastings 17 03 15 Kendall Woods XXX 480p MP4-TK http://glodls.to/torrent.php?id=2336575 http://glodls.to/torrent.php?id=2336575 Wed, 29 Mar 2017 16:52:22 +0100 Adult XXX
[b]Screenshots:[/b]

[url]http://imgkings.com/img-58dbe6432e527.html[/url]

[url]http://imgkings.com/img-58dbe643145d8.html[/url]

[url]http://imgkings.com/img-58dbe62bbc5e1.html[/url]



File Size : 452 MiB
Duration : 54mn 32s
Video : h264, yuv420p, 854x480p, 1024 Kbps
Audio : aac , 2 ch, stereo , 128 Kbps ]]>
I, Daniel Blake (2016) H264 Italian English Ac3 5 1 sub ita fre iCV-MIRCrew http://glodls.to/torrent.php?id=2336574 http://glodls.to/torrent.php?id=2336574 Wed, 29 Mar 2017 16:49:28 +0100 Movies
[center]

[color=red][b][img]http://s23.postimg.org/b9yhws27f/0sc_Del1.png[/img]
[u]NO FOUND ONLY ORIGINAL RELEASE[/u]

[img]http://i.imgur.com/GDNQx1Z.png[/img]

My release is always in double track audio italian and Original audio
for select it use VLC or dvd player home
not use wmp

I, Daniel Blake (2016)

[img]https://extraimage.net/images/2017/03/29/bf0affbfcf33a927555317adcb15dd83.png[/img]


[URL=http://www.imdb.com/title/tt5168192/][IMG]http://www.userlogos.org/files/logos/Sucka/imdb_new.png[/IMG][/URL]

[img]http://i.imgur.com/fGu1rKv.png[/img]

Riconoscimenti

2017 - British Academy Film Award
Miglior film britannico
2016 - Festival di Cannes
Palma d'oro per il miglior film
2016 - Festival del film Locarno
Premio del pubblico
2016 - Festival internazionale del cinema di San Sebastián
Premio del pubblico al miglior film
2016 - Vancouver International Film Festival
Most Popular International Feature
2016 - British Independent Film Awards
Miglior attore a Dave Johns
Miglior esordiente a Hayley Squires


Titolo originale I, Daniel Blake
Paese di produzione Regno Unito, Francia
Anno 2016
Durata 100 min
Genere drammatico, commedia
Regia Ken Loach
Sceneggiatura Paul Laverty
Distribuzione (Italia) Cinema
Fotografia Robbie Ryan
Montaggio Jonathan Morris
Musiche George Fenton
Scenografia Fergus Clegg e Linda Wilson

[img]http://i.imgur.com/W7kBqiE.png[/img]


Dave Johns: Daniel Blake
Hayley Squires: Katie
Dylan McKiernan: Dylan
Briana Shann: Daisy
Kema Sikazwe: China
Sharon Percy: Sheila
Micky McGregor: Ivan


[img]http://i.imgur.com/bFK3ggF.png[/img]

In seguito a una grave crisi cardiaca, per la prima volta nella sua vita, Daniel Blake, un carpentiere di Newcastle di 59 anni, è costretto a chiedere un sussidio statale. Il suo medico gli ha proibito di lavorare, ma a causa di incredibili incongruenze burocratiche si trova nell'assurda condizione di dover comunque cercare lavoro ........

[img]http://i.imgur.com/48xHWWH.png[/img]

A middle aged carpenter who requires state welfare after suffering a heart attack is joined by a single mother in a similar scenario. .

[img]http://i.imgur.com/K8bfNTy.png[/img]

[img]https://extraimage.net/images/2017/03/29/a8baffcd62fd3fccd4c4abe43b765dd5.png[/img]
[img]https://extraimage.net/images/2017/03/29/c9aea0c1e7b3e136e4e6bb4f13e113b7.png[/img]
[img]https://extraimage.net/images/2017/03/29/6c6052ff0a189f0569c7f6e07f23035a.png[/img]


[img]http://i.imgur.com/aVrMohH.png[/img]


[spoiler]
General
Unique ID : 63674636627331475566203003811307288785 (0x2FE749F7D4CF808B761489E299FD78D1)
Complete name : I Daniel Blake (2016).ita.eng.sub.ita.fre.iCV-MIRCrew.mkv
Format : Matroska
Format version : Version 2
File size : 1.54 GiB
Duration : 1h 40mn
Overall bit rate : 2 186 Kbps
Movie name : VISIT www.icv-crew.org
Encoded date : UTC 2017-03-23 21:32:07
Writing application : Lavf54.63.100
Writing library : Lavf54.63.100
COPYRIGHT : robbyrs

Video
ID : 1
Format : AVC
Format/Info : Advanced Video Codec
Format profile : Main@L4.1
Format settings, CABAC : Yes
Format settings, ReFrames : 2 frames
Codec ID : V_MPEG4/ISO/AVC
Duration : 1h 40mn
Bit rate : 1 290 Kbps
Width : 720 pixels
Height : 384 pixels
Display aspect ratio : 1.854
Original display aspect ratio : 1.853
Frame rate mode : Variable
Frame rate : 23.976 fps
Color space : YUV
Chroma subsampling : 4:2:0
Bit depth : 8 bits
Scan type : Progressive
Bits/(Pixel*Frame) : 0.195
Stream size : 898 MiB (57%)
Writing library : x264 core 130 r2273
Encoding settings : cabac=1 / ref=2 / deblock=1:0:0 / analyse=0x1:0x131 / me=hex / subme=7 / psy=1 / psy_rd=1.00:0.00 / mixed_ref=0 / me_range=16 / chroma_me=1 / trellis=1 / 8x8dct=0 / cqm=0 / deadzone=21,11 / fast_pskip=1 / chroma_qp_offset=-2 / threads=12 / lookahead_threads=2 / sliced_threads=0 / nr=0 / decimate=1 / interlaced=0 / bluray_compat=0 / constrained_intra=0 / bframes=3 / b_pyramid=0 / b_adapt=1 / b_bias=0 / direct=3 / weightb=1 / open_gop=0 / weightp=2 / keyint=230 / keyint_min=23 / scenecut=40 / intra_refresh=0 / rc_lookahead=40 / rc=2pass / mbtree=1 / bitrate=1290 / ratetol=1.0 / qcomp=0.60 / qpmin=10 / qpmax=69 / qpstep=4 / cplxblur=20.0 / qblur=0.5 / vbv_maxrate=24000 / vbv_bufsize=24000 / nal_hrd=none / ip_ratio=1.40 / aq=1:1.00
Language : Italian
Default : Yes
Forced : No
DURATION : 01:40:25.812000000
NUMBER_OF_FRAMES : 144475
NUMBER_OF_BYTES : 7212779570
_STATISTICS_WRITING_APP : mkvmerge v8.7.0 ('All of the above') 64bit
_STATISTICS_WRITING_DATE_UTC : 2017-03-10 18:29:02
_STATISTICS_TAGS : BPS DURATION NUMBER_OF_FRAMES NUMBER_OF_BYTES

Audio #1
ID : 2
Format : AC-3
Format/Info : Audio Coding 3
Mode extension : CM (complete main)
Codec ID : A_AC3
Duration : 1h 40mn
Bit rate mode : Constant
Bit rate : 448 Kbps
Channel(s) : 6 channels
Channel positions : Front: L C R, Side: L R, LFE
Sampling rate : 48.0 KHz
Bit depth : 16 bits
Compression mode : Lossy
Delay relative to video : 1mn 5s
Stream size : 323 MiB (20%)
Title : AC3 ITA
Language : Italian
Default : Yes
Forced : No
DURATION : 01:40:44.960000000
NUMBER_OF_FRAMES : 188905
NUMBER_OF_BYTES : 338517760
_STATISTICS_WRITING_APP : mkvmerge v8.7.0 ('All of the above') 64bit
_STATISTICS_WRITING_DATE_UTC : 2017-03-10 18:29:02
_STATISTICS_TAGS : BPS DURATION NUMBER_OF_FRAMES NUMBER_OF_BYTES

Audio #2
ID : 3
Format : AC-3
Format/Info : Audio Coding 3
Mode extension : CM (complete main)
Codec ID : A_AC3
Duration : 1h 40mn
Bit rate mode : Constant
Bit rate : 448 Kbps
Channel(s) : 6 channels
Channel positions : Front: L C R, Side: L R, LFE
Sampling rate : 48.0 KHz
Bit depth : 16 bits
Compression mode : Lossy
Delay relative to video : 1mn 5s
Stream size : 323 MiB (20%)
Title : AC3 ENG
Language : English
Default : No
Forced : No
DURATION : 01:40:25.888000000
NUMBER_OF_FRAMES : 188309
NUMBER_OF_BYTES : 482071040
_STATISTICS_WRITING_APP : mkvmerge v8.7.0 ('All of the above') 64bit
_STATISTICS_WRITING_DATE_UTC : 2017-03-10 18:29:02
_STATISTICS_TAGS : BPS DURATION NUMBER_OF_FRAMES NUMBER_OF_BYTES

Text #1
ID : 4
Format : UTF-8
Codec ID : S_TEXT/UTF8
Codec ID/Info : UTF-8 Plain Text
Title : FORCED
Language : Italian
Default : Yes
Forced : No
DURATION : 01:16:28.222000000
NUMBER_OF_FRAMES : 6
NUMBER_OF_BYTES : 321
_STATISTICS_WRITING_APP : mkvmerge v8.7.0 ('All of the above') 64bit
_STATISTICS_WRITING_DATE_UTC : 2017-03-10 18:29:02
_STATISTICS_TAGS : BPS DURATION NUMBER_OF_FRAMES NUMBER_OF_BYTES

Text #2
ID : 5
Format : UTF-8
Codec ID : S_TEXT/UTF8
Codec ID/Info : UTF-8 Plain Text
Title : REGULAR
Language : Italian
Default : No
Forced : No
DURATION : 01:37:30.273000000
NUMBER_OF_FRAMES : 1210
NUMBER_OF_BYTES : 49167
_STATISTICS_WRITING_APP : mkvmerge v8.7.0 ('All of the above') 64bit
_STATISTICS_WRITING_DATE_UTC : 2017-03-10 18:29:02
_STATISTICS_TAGS : BPS DURATION NUMBER_OF_FRAMES NUMBER_OF_BYTES

Text #3
ID : 6
Format : UTF-8
Codec ID : S_TEXT/UTF8
Codec ID/Info : UTF-8 Plain Text
Title : FORCED
Language : French
Default : No
Forced : No
DURATION : 01:21:43.607000000
NUMBER_OF_FRAMES : 11
NUMBER_OF_BYTES : 494
_STATISTICS_WRITING_APP : mkvmerge v8.7.0 ('All of the above') 64bit
_STATISTICS_WRITING_DATE_UTC : 2017-03-10 18:29:02
_STATISTICS_TAGS : BPS DURATION NUMBER_OF_FRAMES NUMBER_OF_BYTES

Text #4
ID : 7
Format : UTF-8
Codec ID : S_TEXT/UTF8
Codec ID/Info : UTF-8 Plain Text
Title : REGULAR
Language : French
Default : No
Forced : No
DURATION : 01:39:26.711000000
NUMBER_OF_FRAMES : 1469
NUMBER_OF_BYTES : 56935
_STATISTICS_WRITING_APP : mkvmerge v8.7.0 ('All of the above') 64bit
_STATISTICS_WRITING_DATE_UTC : 2017-03-10 18:29:02
_STATISTICS_TAGS : BPS DURATION NUMBER_OF_FRAMES NUMBER_OF_BYTES

Menu
00:00:00.000 : :00:00:00.000
00:07:05.342 : :00:07:05.342
00:14:28.201 : :00:14:28.201
00:20:13.838 : :00:20:13.838
00:29:27.099 : :00:29:27.099
00:39:02.590 : :00:39:02.590
00:50:56.804 : :00:50:56.804
00:59:52.756 : :00:59:52.756
01:08:53.129 : :01:08:53.129
01:16:19.950 : :01:16:19.950
01:25:27.706 : :01:25:27.706
01:35:23.259 : :01:35:23.259



[/spoiler]

[/color][/b][/center]

]]>
MikesApartment 17 03 29 Antonia Sainz Suck And Fuck XXX 480p MP4-TK http://glodls.to/torrent.php?id=2336573 http://glodls.to/torrent.php?id=2336573 Wed, 29 Mar 2017 16:47:24 +0100 Adult XXX [b]Screenshots:[/b]



File Size : 324 MiB
Duration : 38mn 57s
Video : h264, yuv420p, 854x480p, 1024 Kbps
Audio : aac , 2 ch, stereo , 128 Kbps ]]>
FakeHospital 17 03 29 Kathy Anderson XXX 480p MP4-TK http://glodls.to/torrent.php?id=2336572 http://glodls.to/torrent.php?id=2336572 Wed, 29 Mar 2017 16:45:15 +0100 Adult XXX [b]Screenshots:[/b]



File Size : 277 MiB
Duration : 33mn 28s
Video : h264, yuv420p, 854x480p, 1024 Kbps
Audio : aac , 2 ch, stereo , 128 Kbps ]]>
[Baeb]Anya Olsen - Tennis Match Hookup(NEW***29 03 2017) http://glodls.to/torrent.php?id=2336571 http://glodls.to/torrent.php?id=2336571 Wed, 29 Mar 2017 16:42:11 +0100 Adult XXX [center][URL=https://img.yt/img-58dbe33199b2b.html][IMG]https://img.yt/upload/small/2017/03/29/58dbe33199aea.png[/IMG][/URL]
[size=4]
Anya Olsen - Tennis Match Hookup
Category: All Sex
File size: 192Mb
Duration: 0:22:54

[b]SCREENS:[/b]
[url]https://img.yt/img-58dbe29976897.html[/url]
[url]http://imagedecode.com/img-58dbe2727c23a.html[/url]

[b]SHOOT:[/b]
[url]http://damimage.com/img-58dbe306d0484.html[/url]
[/size]
[/center] ]]>
BigNaturals 17 03 29 Meko Lilly Milk And Cookies XXX 480p MP4-TK http://glodls.to/torrent.php?id=2336570 http://glodls.to/torrent.php?id=2336570 Wed, 29 Mar 2017 16:35:16 +0100 Adult XXX [b]Screenshots:[/b]

[url]http://imgkings.com/img-58dbe1ffc64f4.html[/url]

File Size : 270 MiB
Duration : 32mn 43s
Video : h264, yuv420p, 854x480p, 1024 Kbps
Audio : aac , 2 ch, stereo , 128 Kbps ]]>
[SisLovesMe] Khloe Kapri Perverted Voyeur Stepbrother (28 03 2017) http://glodls.to/torrent.php?id=2336569 http://glodls.to/torrent.php?id=2336569 Wed, 29 Mar 2017 16:34:33 +0100 Adult XXX
Genre :- [All sex, 400p]

Screenshot :-

[url=http://imgtorrnt.in/view.php?id=Ha6JcoI][color=green] View Screen 1 [/color] [/url]

[url=http://imgtorrnt.in/view.php?id=FXGCmhc][color=green] View Screen 2 [/color] [/url]

[img]http://i.imgur.com/Ha6JcoI.jpg[/img]

]]>
NastyRookies 17 03 28 Peaches Gold Porn Casting With A MILF FRENCH XXX 480p MP4-TK http://glodls.to/torrent.php?id=2336568 http://glodls.to/torrent.php?id=2336568 Wed, 29 Mar 2017 16:33:51 +0100 Adult XXX
[b]Screenshots:[/b]

[url]http://imgkings.com/img-58dbe1f0c4543.html[/url]

[url]http://imgkings.com/img-58dbe1f0bd115.html[/url]

[url]http://imgkings.com/img-58dbe1ed75d12.html[/url]

[url]http://imgkings.com/img-58dbe1b94cbf1.html[/url]

File Size : 313 MiB
Duration : 38mn 10s
Video : h264, yuv420p, 854x480p, 1024 Kbps
Audio : aac , 2 ch, stereo , 128 Kbps ]]>
WildOnCam 15 05 14 Jynx Maze XXX 480p MP4-TK http://glodls.to/torrent.php?id=2336567 http://glodls.to/torrent.php?id=2336567 Wed, 29 Mar 2017 16:33:51 +0100 Adult XXX
[b]Screenshots:[/b]

[url]http://imgkings.com/img-58dbe1f0c6399.html[/url]

[url]http://imgkings.com/img-58dbe1f0bd166.html[/url]

[url]http://imgkings.com/img-58dbe1ef6a5e7.html[/url]

[url]http://imgkings.com/img-58dbe1c8570ec.html[/url]

File Size : 498 MiB
Duration : 1h 0mn
Video : h264, yuv420p, 854x480p, 1024 Kbps
Audio : aac , 2 ch, stereo , 128 Kbps ]]>
MomXXX 17 03 29 Kathy Anderson XXX 480p MP4-TK http://glodls.to/torrent.php?id=2336566 http://glodls.to/torrent.php?id=2336566 Wed, 29 Mar 2017 16:30:57 +0100 Adult XXX
[b]Screenshots:[/b]

[url]http://imgkings.com/img-58dbe1430a30e.html[/url]

[url]http://imgkings.com/img-58dbe142f17f1.html[/url]

[url]http://imgkings.com/img-58dbe11415c72.html[/url]

[url]http://imgkings.com/img-58dbe0fb428a6.html[/url]

File Size : 236 MiB
Duration : 28mn 34s
Video : h264, yuv420p, 854x480p, 1024 Kbps
Audio : aac , 2 ch, stereo , 128 Kbps ]]>
WildOnCam 15 05 13 Adriana Chechik XXX 480p MP4-TK http://glodls.to/torrent.php?id=2336565 http://glodls.to/torrent.php?id=2336565 Wed, 29 Mar 2017 16:30:08 +0100 Adult XXX
[b]Screenshots:[/b]

[url]http://imgkings.com/img-58dbe10fb7b55.html[/url]

[url]http://imgkings.com/img-58dbe10c68a6d.html[/url]

[url]http://imgkings.com/img-58dbe0eced3a3.html[/url]



File Size : 487 MiB
Duration : 59mn 13s
Video : h264, yuv420p, 854x480p, 1024 Kbps
Audio : aac , 2 ch, stereo , 128 Kbps ]]>
[TheFuckingRoom - CumLouder] Alexa Blun (Slipping in a horny Mom - 28 03 2017) http://glodls.to/torrent.php?id=2336564 http://glodls.to/torrent.php?id=2336564 Wed, 29 Mar 2017 16:28:14 +0100 Adult XXX
Genre :- [Deep Throat, Tittyfuck, Big Tits, All Sex]

Screenshot :-

[url=http://imgtorrnt.in/view.php?id=bOzTzUT][color=green] View Screen 1 [/color] [/url]

[url=http://imgtorrnt.in/view.php?id=1RlTQFf][color=green] View Screen 2 [/color] [/url]

[img]http://i.imgur.com/bOzTzUT.jpg[/img]

]]>
DeepThroatSirens 17 03 27 Sirena XXX 480p MP4-TK http://glodls.to/torrent.php?id=2336563 http://glodls.to/torrent.php?id=2336563 Wed, 29 Mar 2017 16:22:16 +0100 Adult XXX
[b]Screenshots:[/b]

[url]http://imgkings.com/img-58dbdf3979dee.html[/url]

[url]http://imgkings.com/img-58dbdf39716da.html[/url]

[url]http://imgkings.com/img-58dbdf3622340.html[/url]

[url]http://imgkings.com/img-58dbdeef0f059.html[/url]

File Size : 345 MiB
Duration : 41mn 34s
Video : h264, yuv420p, 854x480p, 1024 Kbps
Audio : aac , 2 ch, stereo , 128 Kbps ]]>
MatureNL 17 03 24 Riona XXX 480p MP4-TK http://glodls.to/torrent.php?id=2336562 http://glodls.to/torrent.php?id=2336562 Wed, 29 Mar 2017 16:22:16 +0100 Adult XXX
[b]Screenshots:[/b]

[url]http://imgkings.com/img-58dbdf397dd9c.html[/url]

[url]http://imgkings.com/img-58dbdf3971636.html[/url]

[url]http://imgkings.com/img-58dbdf35a1167.html[/url]

[url]http://imgkings.com/img-58dbdee1dc1b0.html[/url]

File Size : 300 MiB
Duration : 36mn 24s
Video : h264, yuv420p, 854x480p, 1024 Kbps
Audio : aac , 2 ch, stereo , 128 Kbps ]]>
[MomsLickTeens - RealityKings] Alexis Fawx- Ashley Adams My Shower My Rules (28 03 2017) http://glodls.to/torrent.php?id=2336561 http://glodls.to/torrent.php?id=2336561 Wed, 29 Mar 2017 16:22:03 +0100 Adult XXX
Genre :- [Lesbo, 432p]

Screenshot :-

[url=http://imgtorrnt.in/view.php?id=IQ8Gx0S][color=green] View Screen 1 [/color] [/url]

[url=http://imgtorrnt.in/view.php?id=TvnTFtm][color=green] View Screen 2 [/color] [/url]

[img]http://i.imgur.com/IQ8Gx0S.jpg[/img]

]]>
The.Mick.S01E13.720p.HDTV.x264-AVS[PRiME] http://glodls.to/torrent.php?id=2336560 http://glodls.to/torrent.php?id=2336560 Wed, 29 Mar 2017 16:21:32 +0100 TV The.Mick.S01E13.720p.HDTV.x264-AVS[PRiME]

[url=https://www.sparrowpics.com/image/LwB][img]https://www.sparrowpics.com/images/2015/12/10/Info.png[/img][/url]

[color=green]Complete name : The.Mick.S01E13.720p.HDTV.x264-AVS[PRiME].mkv
Format : Matroska
Format version : Version 4 / Version 2
File size : 507 MiB
Duration : 20 min 59 s
Overall bit rate : 3 375 kb/s
Encoded date : UTC 2017-03-29 00:35:42
Writing application : FastLE v3.0.0 - AVS
Writing library : libx264 + libebml + libmatroska + libfastrar

Video
ID : 1
Format : AVC
Format/Info : Advanced Video Codec
Format profile : High@L4.1
Format settings, CABAC : Yes
Format settings, ReFrames : 5 frames
Codec ID : V_MPEG4/ISO/AVC
Duration : 20 min 59 s
Bit rate : 2 924 kb/s
Width : 1 280 pixels
Height : 718 pixels
Display aspect ratio : 16:9
Frame rate mode : Constant
Frame rate : 23.976 (24000/1001) FPS
Color space : YUV
Chroma subsampling : 4:2:0
Bit depth : 8 bits
Scan type : Progressive
Bits/(Pixel*Frame) : 0.133
Stream size : 439 MiB (87%)
Writing library : x264 core 148 r2762 90a61ec
Encoding settings : cabac=1 / ref=5 / deblock=1:0:0 / analyse=0x3:0x113 / me=hex / subme=8 / psy=1 / psy_rd=1.00:0.00 / mixed_ref=1 / me_range=16 / chroma_me=1 / trellis=2 / 8x8dct=1 / cqm=0 / deadzone=21,11 / fast_pskip=1 / chroma_qp_offset=-2 / threads=22 / lookahead_threads=3 / sliced_threads=0 / nr=0 / decimate=1 / interlaced=0 / bluray_compat=0 / constrained_intra=0 / bframes=3 / b_pyramid=2 / b_adapt=1 / b_bias=0 / direct=3 / weightb=1 / open_gop=0 / weightp=2 / keyint=250 / keyint_min=23 / scenecut=40 / intra_refresh=0 / rc_lookahead=50 / rc=crf / mbtree=1 / crf=18.0 / qcomp=0.60 / qpmin=0 / qpmax=69 / qpstep=4 / ip_ratio=1.40 / aq=1:1.00
Default : Yes
Forced : No
Color range : Limited
Matrix coefficients : BT.709

Audio
ID : 2
Format : AC-3
Format/Info : Audio Coding 3
Mode extension : CM (complete main)
Format settings, Endianness : Big
Codec ID : A_AC3
Duration : 20 min 59 s
Bit rate mode : Constant
Bit rate : 384 kb/s
Channel(s) : 6 channels
Channel positions : Front: L C R, Side: L R, LFE
Sampling rate : 48.0 kHz
Frame rate : 31.250 FPS (1536 spf)
Compression mode : Lossy
Stream size : 57.7 MiB (11%)
Default : Yes
Forced : No[/color]

[url=https://www.sparrowpics.com/image/UYe][img]https://www.sparrowpics.com/images/2015/12/10/Screens.png[/img][/url]

[color=red]Click Image To View Full Size[/color]

[URL=https://www.sparrowpics.com/image/DA4xr][IMG]https://www.sparrowpics.com/images/2017/03/29/DA4xr.th.jpg[/IMG][/URL]
[URL=https://www.sparrowpics.com/image/DAEoW][b]Click To View Screenshot[/b][/URL]
[URL=https://www.sparrowpics.com/image/DAN4n][b]Click To View Screenshot[/b][/URL]
[URL=https://www.sparrowpics.com/image/DASmy][b]Click To View Screenshot[/b][/URL]

[/center] ]]>
Mothers and Daughters (2016) H264 Italian English Ac3 5 1 sub ita iCV-MIRCrew http://glodls.to/torrent.php?id=2336559 http://glodls.to/torrent.php?id=2336559 Wed, 29 Mar 2017 16:16:11 +0100 Movies
[center]

[color=red][b][img]http://s23.postimg.org/b9yhws27f/0sc_Del1.png[/img]
[u]NO FOUND ONLY ORIGINAL RELEASE[/u]

[img]http://i.imgur.com/GDNQx1Z.png[/img]

My release is always in double track audio italian and Original audio
for select it use VLC or dvd player home
not use wmp

Mothers and Daughters (2016)

[img]https://extraimage.net/images/2017/03/29/72b00a69e5ce08ea80bed9dbbe1e5484.png[/img]

[URL=http://www.imdb.com/title/tt2395339/][IMG]http://www.userlogos.org/files/logos/Sucka/imdb_new.png[/IMG][/URL]

[img]http://i.imgur.com/fGu1rKv.png[/img]

Titolo Originale: MOTHERS AND DAUGHTERS
Regia: Paul Duddridge, Nigel Levy
Durata: h 1.30
Nazionalità: Usa 2016
Genere: drammatico
Al cinema nel Maggio 2016

[img]http://i.imgur.com/W7kBqiE.png[/img]

Christina Ricci, Courteney Cox, Susan Sarandon, Elizabeth Daily, Eva Amurri Martino, Selma Blair, Sharon Stone, Mira Sorvino, Paul Wesley, Luke Mitchell, Paul Adelstein, Natalie Burn, Quinton Aaron, Ashanti, Liana Mendoza

[img]http://i.imgur.com/bFK3ggF.png[/img]

La storia racconta le contraddizioni e le difficoltà del rapporto tra madri e figlie durante il giorno della festa della mamma..........

[img]http://i.imgur.com/48xHWWH.png[/img]

Interwoven stories of what it is to be a mom seen through the lens of photographer Rigby Gray.

[img]http://i.imgur.com/K8bfNTy.png[/img]

[img]https://extraimage.net/images/2017/03/29/19c6b0a342100a6f5304e0d9424367f5.png[/img]
[img]https://extraimage.net/images/2017/03/29/bb66d0b5e5134ba74ea046ce2a132866.png[/img]
[img]https://extraimage.net/images/2017/03/29/05df2563a9d482e3f2d18dfbf3b2d035.png[/img]
[img]https://extraimage.net/images/2017/03/29/92cbe0caba3af4f033260e89c8ee1d07.png[/img]


[img]http://i.imgur.com/aVrMohH.png[/img]


[spoiler]
General
Unique ID : 172632830870734955162866695420481116880 (0x81DFDFB3B471C423585C5AF594641AD0)
Complete name : Mothers and Daughters (2016).H264.ita.eng.sub.ita.eng.iCV-MIRCrew.mkv
Format : Matroska
Format version : Version 2
File size : 1.41 GiB
Duration : 1h 32mn
Overall bit rate : 2 190 Kbps
Movie name : VISIT www.icv-crew.org
Encoded date : UTC 2017-03-27 17:13:31
Writing application : Lavf54.63.100
Writing library : Lavf54.63.100
COPYRIGHT : robbyrs

Video
ID : 1
Format : AVC
Format/Info : Advanced Video Codec
Format profile : Main@L4.1
Format settings, CABAC : Yes
Format settings, ReFrames : 2 frames
Codec ID : V_MPEG4/ISO/AVC
Duration : 1h 32mn
Bit rate : 1 290 Kbps
Width : 720 pixels
Height : 404 pixels
Display aspect ratio : 16:9
Frame rate mode : Variable
Frame rate : 23.976 fps
Color space : YUV
Chroma subsampling : 4:2:0
Bit depth : 8 bits
Scan type : Progressive
Bits/(Pixel*Frame) : 0.185
Stream size : 823 MiB (57%)
Writing library : x264 core 130 r2273
Encoding settings : cabac=1 / ref=2 / deblock=1:0:0 / analyse=0x1:0x131 / me=hex / subme=7 / psy=1 / psy_rd=1.00:0.00 / mixed_ref=0 / me_range=16 / chroma_me=1 / trellis=1 / 8x8dct=0 / cqm=0 / deadzone=21,11 / fast_pskip=1 / chroma_qp_offset=-2 / threads=12 / lookahead_threads=2 / sliced_threads=0 / nr=0 / decimate=1 / interlaced=0 / bluray_compat=0 / constrained_intra=0 / bframes=3 / b_pyramid=0 / b_adapt=1 / b_bias=0 / direct=3 / weightb=1 / open_gop=0 / weightp=2 / keyint=230 / keyint_min=23 / scenecut=40 / intra_refresh=0 / rc_lookahead=40 / rc=2pass / mbtree=1 / bitrate=1290 / ratetol=1.0 / qcomp=0.60 / qpmin=10 / qpmax=69 / qpstep=4 / cplxblur=20.0 / qblur=0.5 / vbv_maxrate=24000 / vbv_bufsize=24000 / nal_hrd=none / ip_ratio=1.40 / aq=1:1.00
Language : Italian
Default : Yes
Forced : No
DURATION : 01:32:02.309000000
NUMBER_OF_FRAMES : 132403
NUMBER_OF_BYTES : 5995803714
_STATISTICS_WRITING_APP : mkvmerge v8.7.0 ('All of the above') 64bit
_STATISTICS_WRITING_DATE_UTC : 2017-03-13 12:06:24
_STATISTICS_TAGS : BPS DURATION NUMBER_OF_FRAMES NUMBER_OF_BYTES

Audio #1
ID : 2
Format : AC-3
Format/Info : Audio Coding 3
Mode extension : CM (complete main)
Codec ID : A_AC3
Duration : 1h 32mn
Bit rate mode : Constant
Bit rate : 448 Kbps
Channel(s) : 6 channels
Channel positions : Front: L C R, Side: L R, LFE
Sampling rate : 48.0 KHz
Bit depth : 16 bits
Compression mode : Lossy
Delay relative to video : 1mn 5s
Stream size : 295 MiB (20%)
Title : AC3 ITA
Language : Italian
Default : Yes
Forced : No
DURATION : 01:31:57.664000000
NUMBER_OF_FRAMES : 172427
NUMBER_OF_BYTES : 308989184
_STATISTICS_WRITING_APP : mkvmerge v8.7.0 ('All of the above') 64bit
_STATISTICS_WRITING_DATE_UTC : 2017-03-13 12:06:24
_STATISTICS_TAGS : BPS DURATION NUMBER_OF_FRAMES NUMBER_OF_BYTES

Audio #2
ID : 3
Format : AC-3
Format/Info : Audio Coding 3
Mode extension : CM (complete main)
Codec ID : A_AC3
Duration : 1h 32mn
Bit rate mode : Constant
Bit rate : 448 Kbps
Channel(s) : 6 channels
Channel positions : Front: L C R, Side: L R, LFE
Sampling rate : 48.0 KHz
Bit depth : 16 bits
Compression mode : Lossy
Delay relative to video : 1mn 5s
Stream size : 295 MiB (20%)
Title : AC3 ENG
Language : English
Default : No
Forced : No
DURATION : 01:31:57.664000000
NUMBER_OF_FRAMES : 172427
NUMBER_OF_BYTES : 441413120
_STATISTICS_WRITING_APP : mkvmerge v8.7.0 ('All of the above') 64bit
_STATISTICS_WRITING_DATE_UTC : 2017-03-13 12:06:24
_STATISTICS_TAGS : BPS DURATION NUMBER_OF_FRAMES NUMBER_OF_BYTES

Text #1
ID : 4
Format : ASS
Codec ID : S_TEXT/ASS
Codec ID/Info : Advanced Sub Station Alpha
Compression mode : Lossless
Title : FORCED
Language : Italian
Default : Yes
Forced : No
DURATION : 01:28:54.920000000
NUMBER_OF_FRAMES : 10
NUMBER_OF_BYTES : 313
_STATISTICS_WRITING_APP : mkvmerge v8.7.0 ('All of the above') 64bit
_STATISTICS_WRITING_DATE_UTC : 2017-03-13 12:06:24
_STATISTICS_TAGS : BPS DURATION NUMBER_OF_FRAMES NUMBER_OF_BYTES

Text #2
ID : 5
Format : ASS
Codec ID : S_TEXT/ASS
Codec ID/Info : Advanced Sub Station Alpha
Compression mode : Lossless
Title : REGULAR
Language : Italian
Default : No
Forced : No
DURATION : 01:31:05.445000000
NUMBER_OF_FRAMES : 1536
NUMBER_OF_BYTES : 51379
_STATISTICS_WRITING_APP : mkvmerge v8.7.0 ('All of the above') 64bit
_STATISTICS_WRITING_DATE_UTC : 2017-03-13 12:06:24
_STATISTICS_TAGS : BPS DURATION NUMBER_OF_FRAMES NUMBER_OF_BYTES

Menu
00:00:00.000 : :00:00:00.000
00:07:05.342 : :00:07:05.342
00:14:28.201 : :00:14:28.201
00:20:13.838 : :00:20:13.838
00:29:27.099 : :00:29:27.099
00:39:02.590 : :00:39:02.590
00:50:56.804 : :00:50:56.804
00:59:52.756 : :00:59:52.756
01:08:53.129 : :01:08:53.129
01:16:19.950 : :01:16:19.950
01:23:27.706 : :01:23:27.706



[/spoiler]

[/color][/b][/center]

]]>
[BangBrosClips - BangBros] Maya Bijou- Nina Dolce (MILF shares her husbands cock with the maid - bbc15900 - 28 03 2017) http://glodls.to/torrent.php?id=2336558 http://glodls.to/torrent.php?id=2336558 Wed, 29 Mar 2017 16:15:44 +0100 Adult XXX
Genre :- [Threesome, Amateur, Black, Blowjob, Cougar, Cum In Mouth, Ebony, Hardcore, Interracial, Latina, Maid, Milf, Young]

Screenshot :-

[url=http://imgtorrnt.in/view.php?id=3Jetsc9][color=green] View Screen 1 [/color] [/url]

[url=http://imgtorrnt.in/view.php?id=KKBXPZz][color=green] View Screen 2 [/color] [/url]

[img]http://i.imgur.com/3Jetsc9.jpg[/img]

]]>
[Digitalplayground]Mila Milans - Blown Away(NEW***29 03 2017) http://glodls.to/torrent.php?id=2336557 http://glodls.to/torrent.php?id=2336557 Wed, 29 Mar 2017 16:15:13 +0100 Adult XXX [center][URL=http://imgclick.net/vrcji6aagxrs/Mila_Milans_thumb.png.html][IMG]http://main.imgclick.net/i/00930/vrcji6aagxrs_t.jpg[/IMG][/URL]
[size=4]

Mila Milans - Blown Away
Category: All Sex
File size: 260Mb
Duration: 0:22:33

[b]SCREENS:[/b]
[url]http://damimage.com/img-58dbdb4275881.html[/url]
[url]http://imgclick.net/tyx4oeemm2gf/Mila_Milans_v2.jpg.html[/url]

[b]SHOOT:[/b]
[url]http://imageteam.org/img-58dbdcdf5419c.html[/url]
[/size]
[/center]
]]>
DigitalPlayground Blown Away XXX XviD SD http://glodls.to/torrent.php?id=2336556 http://glodls.to/torrent.php?id=2336556 Wed, 29 Mar 2017 16:14:42 +0100 Adult XXX
[b]Screenshots:[/b]

[url]http://imgkings.com/img-58dbdd742d104.html[/url]

[url]http://imgkings.com/img-58dbdd73f1738.html[/url]

[url]http://imgkings.com/img-58dbdd23407e1.html[/url]

]]>
MatureNL 17 03 22 Ilya XXX 480p MP4-TK http://glodls.to/torrent.php?id=2336555 http://glodls.to/torrent.php?id=2336555 Wed, 29 Mar 2017 16:12:08 +0100 Adult XXX [b]Screenshots:[/b]

[url]http://imgkings.com/img-58dbdc5fbf30d.html[/url]

File Size : 286 MiB
Duration : 34mn 39s
Video : h264, yuv420p, 854x480p, 1024 Kbps
Audio : aac , 2 ch, stereo , 128 Kbps ]]>
[BlacksOnBlondes - DogfartNetwork] Alena Croft (28 03 2017) http://glodls.to/torrent.php?id=2336554 http://glodls.to/torrent.php?id=2336554 Wed, 29 Mar 2017 16:09:43 +0100 Adult XXX
Genre :- [1 on 1 Big Booty Big Tits Blonde Facial Feet Hairy MILF Pantyhose - Stockings Tattoos, 400p]

Screenshot :-

[url=http://imgtorrnt.in/view.php?id=PocZMKh][color=green] View Screen 1 [/color] [/url]

[url=http://imgtorrnt.in/view.php?id=327dMDZ][color=green] View Screen 2 [/color] [/url]

[img]http://i.imgur.com/PocZMKh.jpg[/img]

]]>
MatureNL 17 03 17 Alisah XXX 480p MP4-TK http://glodls.to/torrent.php?id=2336553 http://glodls.to/torrent.php?id=2336553 Wed, 29 Mar 2017 16:07:39 +0100 Adult XXX [b]Screenshots:[/b]

[url]http://imgkings.com/img-58dbdb92b528b.html[/url]

File Size : 279 MiB
Duration : 33mn 48s
Video : h264, yuv420p, 854x480p, 1024 Kbps
Audio : aac , 2 ch, stereo , 128 Kbps ]]>
WildOnCam 15 05 12 Megan Rain XXX 480p MP4-TK http://glodls.to/torrent.php?id=2336552 http://glodls.to/torrent.php?id=2336552 Wed, 29 Mar 2017 16:06:33 +0100 Adult XXX
[b]Screenshots:[/b]

[url]http://imgkings.com/img-58dbdb88e53b9.html[/url]

[url]http://imgkings.com/img-58dbdb88ceafa.html[/url]

[url]http://imgkings.com/img-58dbdb8279fc6.html[/url]



File Size : 497 MiB
Duration : 59mn 50s
Video : h264, yuv420p, 854x480p, 1024 Kbps
Audio : aac , 2 ch, stereo , 128 Kbps ]]>
POV 17 03 29 Amirah Adara XXX 480p MP4-TK http://glodls.to/torrent.php?id=2336551 http://glodls.to/torrent.php?id=2336551 Wed, 29 Mar 2017 16:03:53 +0100 Adult XXX
[b]Screenshots:[/b]

[url]http://imgkings.com/img-58dbdaea8ad4c.html[/url]

[url]http://imgkings.com/img-58dbdaea55bb7.html[/url]

[url]http://imgkings.com/img-58dbda8de797c.html[/url]

[url]http://imgkings.com/img-58dbd9fcab76e.html[/url]

File Size : 414 MiB
Duration : 50mn 23s
Video : h264, yuv420p, 854x480p, 1024 Kbps
Audio : aac , 2 ch, stereo , 128 Kbps ]]>
MatureNL 17 03 20 Alisha XXX 480p MP4-TK http://glodls.to/torrent.php?id=2336550 http://glodls.to/torrent.php?id=2336550 Wed, 29 Mar 2017 16:03:53 +0100 Adult XXX
[b]Screenshots:[/b]

[url]http://imgkings.com/img-58dbdaea8ad68.html[/url]

[url]http://imgkings.com/img-58dbdaea55fdb.html[/url]

[url]http://imgkings.com/img-58dbdac8765dd.html[/url]



File Size : 238 MiB
Duration : 28mn 48s
Video : h264, yuv420p, 854x480p, 1024 Kbps
Audio : aac , 2 ch, stereo , 128 Kbps ]]>
[DaneJones - SexyHub] Paula Shy aka Christy Charming (Sensual orgasm for Asian brunette - 28 03 2017) http://glodls.to/torrent.php?id=2336549 http://glodls.to/torrent.php?id=2336549 Wed, 29 Mar 2017 16:03:35 +0100 Adult XXX
Genre :- [All Sex]

Screenshot :-

[url=http://imgtorrnt.in/view.php?id=JPEBh5Z][color=green] View Screen 1 [/color] [/url]

[url=http://imgtorrnt.in/view.php?id=o0IGBmb][color=green] View Screen 2 [/color] [/url]

[img]http://i.imgur.com/JPEBh5Z.jpg[/img]

]]>
Blossom Tales: The Sleeping King http://glodls.to/torrent.php?id=2336542 http://glodls.to/torrent.php?id=2336542 Wed, 29 Mar 2017 16:01:15 +0100 Games Domina v0.37 http://glodls.to/torrent.php?id=2336541 http://glodls.to/torrent.php?id=2336541 Wed, 29 Mar 2017 16:01:13 +0100 Games Dont Starve Together Rev 211849 http://glodls.to/torrent.php?id=2336540 http://glodls.to/torrent.php?id=2336540 Wed, 29 Mar 2017 16:01:12 +0100 Games Hacknet v5.021 http://glodls.to/torrent.php?id=2336539 http://glodls.to/torrent.php?id=2336539 Wed, 29 Mar 2017 16:01:11 +0100 Games Nothin But Net http://glodls.to/torrent.php?id=2336538 http://glodls.to/torrent.php?id=2336538 Wed, 29 Mar 2017 16:01:10 +0100 Games Play with Balloon VR http://glodls.to/torrent.php?id=2336537 http://glodls.to/torrent.php?id=2336537 Wed, 29 Mar 2017 16:01:08 +0100 Games Rock God Tycoon v1.1.2.1 http://glodls.to/torrent.php?id=2336536 http://glodls.to/torrent.php?id=2336536 Wed, 29 Mar 2017 16:01:07 +0100 Games SimAirport v28.03.2017 http://glodls.to/torrent.php?id=2336535 http://glodls.to/torrent.php?id=2336535 Wed, 29 Mar 2017 16:01:06 +0100 Games The Wild Eight v0.3.12b http://glodls.to/torrent.php?id=2336534 http://glodls.to/torrent.php?id=2336534 Wed, 29 Mar 2017 16:01:04 +0100 Games Toukiden 2 Update v1 0 2 incl DLC-CODEX http://glodls.to/torrent.php?id=2336533 http://glodls.to/torrent.php?id=2336533 Wed, 29 Mar 2017 16:01:03 +0100 Games The Institute 2017 720p BRRip 700 MB - iExTV http://glodls.to/torrent.php?id=2336474 http://glodls.to/torrent.php?id=2336474 Wed, 29 Mar 2017 16:00:33 +0100 Movies The Institute (2017) 720p BRRip 900MB - MkvCage http://glodls.to/torrent.php?id=2336468 http://glodls.to/torrent.php?id=2336468 Wed, 29 Mar 2017 16:00:31 +0100 Movies The.Institute.2017.BRRip.XviD.AC3-EVO http://glodls.to/torrent.php?id=2336465 http://glodls.to/torrent.php?id=2336465 Wed, 29 Mar 2017 16:00:29 +0100 Movies The.Best.of.British.Takeaways.Series.1.1of3.Fish.and.Chips.720p.HDTV.x264.AAC .mp4 http://glodls.to/torrent.php?id=2336461 http://glodls.to/torrent.php?id=2336461 Wed, 29 Mar 2017 16:00:28 +0100 Movies The.Best.of.British.Takeaways.Series.1.2of3.Chinese.720p.HDTV.x264.AAC .mp4 http://glodls.to/torrent.php?id=2336459 http://glodls.to/torrent.php?id=2336459 Wed, 29 Mar 2017 16:00:27 +0100 Movies The.Best.of.British.Takeaways.Series.1.3of3.Indian.720p.HDTV.x264.AAC .mp4 http://glodls.to/torrent.php?id=2336456 http://glodls.to/torrent.php?id=2336456 Wed, 29 Mar 2017 16:00:26 +0100 Movies Rogue One : A Star Wars Story (2016) 1080p BluRay AC3 6CH 3.3GB - MkvCage http://glodls.to/torrent.php?id=2336454 http://glodls.to/torrent.php?id=2336454 Wed, 29 Mar 2017 16:00:24 +0100 Movies The.Institute.2017.BRRip.XviD.AC3-EVO http://glodls.to/torrent.php?id=2336450 http://glodls.to/torrent.php?id=2336450 Wed, 29 Mar 2017 16:00:23 +0100 Movies