GloDLS.to - Download Movies, TV, Games and Other Torrents Free RSS 2.0enGloDLS.to - Download Movies, TV, Games and Other Torrents FreeGloDLS.to - Download Movies, TV, Games and Other Torrents Free RSS Feedhttp://glodls.toCopyright GloDLS.to - Download Movies, TV, Games and Other Torrents FreeSun, 21 Oct 2018 13:06:24 +0100 Game of Games S01E03 WEB H264-W4F http://glodls.to/torrent.php?id=18143 http://glodls.to/torrent.php?id=18143 Sun, 21 Oct 2018 12:00:07 +0100 TV http://www.tvrage.com/schedule.php?show_yesterday=1. ]]> Pine Gap S01E03 HDTV x264-W4F http://glodls.to/torrent.php?id=18142 http://glodls.to/torrent.php?id=18142 Sun, 21 Oct 2018 12:00:03 +0100 TV http://www.tvrage.com/schedule.php?show_yesterday=1. ]]> Hotel.Transylvania.The.Series.S01E41.Drac.to.the.Future.1080p.WEB-DL.DD5.1.H264-iT00NZ http://glodls.to/torrent.php?id=18141 http://glodls.to/torrent.php?id=18141 Sun, 21 Oct 2018 11:59:57 +0100 TV
[url=https://imagecurl.com/viewer.php?file=96214757419756686943.jpg][img]https://imagecurl.com/images/96214757419756686943.jpg[/img][/url]



Hotel.Transylvania.The.Series.S01E41.Drac.to.the.Future.1080p.WEB-DL.DD5.1.H264-iT00NZ ]]>
Hotel.Transylvania.The.Series.S01E37.WEB-DL.x264-ION10 http://glodls.to/torrent.php?id=18140 http://glodls.to/torrent.php?id=18140 Sun, 21 Oct 2018 11:57:20 +0100 TV


[url=https://imagecurl.com/viewer.php?file=48984833934544214243.png][img]https://imagecurl.com/images/48984833934544214243.png[/img][/url]

[url=https://imagecurl.com/viewer.php?file=79782459689646683124.png][img]https://imagecurl.com/images/79782459689646683124.png[/img][/url]

[url=https://imagecurl.com/viewer.php?file=00699064654156988128.png][img]https://imagecurl.com/images/00699064654156988128.png[/img][/url]



]]>
Do As I Say Then Go Away 480p WEBRip MP4-XXX http://glodls.to/torrent.php?id=18136 http://glodls.to/torrent.php?id=18136 Sun, 21 Oct 2018 11:55:44 +0100 Adult XXX
[b]Screens :[/b]

[url]https://22pixx.xyz/ia-i/5bcc69432acbe.jpeg.html[/url]

[url]https://22pixx.xyz/ia-i/5bcc69431fbfc.jpeg.html[/url]

[url]https://22pixx.xyz/ia-i/5bcc694314bef.jpeg.html[/url]

[url]https://22pixx.xyz/ia-i/5bcc694309b56.jpeg.html[/url]

[url]https://22pixx.xyz/ia-i/5bcc694192767.jpeg.html[/url]

File Size : 692 MiB
Duration : 1 h 23 min
Video : h264, yuv420p, 854x480p, 1024 Kbps
Audio : aac , 2 ch, stereo , 128 Kbps ]]>
Cream.Filled.Teens.XXX.720p.WEBRip.MP4-VSEX[N1C] http://glodls.to/torrent.php?id=18132 http://glodls.to/torrent.php?id=18132 Sun, 21 Oct 2018 11:52:24 +0100 Adult XXX Cream.Filled.Teens.XXX.720p.WEBRip.MP4-VSEX


[Format]: MPEG-4
[Duration]: 2h 0mn
[Resolution]: 1 280 x 720 pixels
[Display aspect ratio]: 16:9
[Frame rate mode]: Constant
[Frame rate]: 23.976 fps


[color=green][b]#N1C -> To avoid fakes, ALWAYS check that the torrent was added by NO1CARES[/b][/color]






[b]Screens...[/b]
[url]http://HotImage.uk/img-5bcc6845458be.html[/url]
[url]http://HotImage.uk/img-5bcc68455929d.html[/url]
[url]http://HotImage.uk/img-5bcc684564b7c.html[/url]
[url]http://HotImage.uk/img-5bcc68456df8a.html[/url] ]]>
Hurricane.2018.BRRip.XviD.AC3-EVO[EtMovies] http://glodls.to/torrent.php?id=18129 http://glodls.to/torrent.php?id=18129 Sun, 21 Oct 2018 11:49:14 +0100 Movies EtMovies - Et High-Definition

-----------------------------------------------------

Hurricane.2018.BRRip.XviD.AC3-EVO

http://www.imdb.com/title//

[Video Bitrate]:.............: 1775kb/s
[Duration]:.............: 1 h 47 min
[Video Codec]:.............: MPEG-4 VISUAL
[Resolution]:.............: 720x304 px
[Aspect Ratio]:.............: 2.35:1
[Audio Codec]:.............: AC-3
[Audio Bitrate]:.............: 384kb/s
[Audio Channels]:.............: 5.1ch
[Audio Language]:.............:

Genre .......................:

[color=green][b]#EtMovies -> To avoid fakes, ALWAYS check that the torrent was added by EtMovies [/b][/color]


[url]https://www.ettv.tv/home/[/url]

[color=green][b]To keep us going Support us by donating Bitcoin: 1KsLJXUQzuYnuFZpNp4zsvEXaarKa85ADD[/b][/color]

[b]Screens...[/b]

[url]https://extraimage.net/image/7ei9[/url]
[url]https://extraimage.net/image/7eiM[/url]
[url]https://extraimage.net/image/7eiU[/url]
[url]https://extraimage.net/image/7eiz[/url]
[url]https://extraimage.net/image/7ei0[/url]
[url]https://extraimage.net/image/7ei4[/url]
]]>
Hurricane.2018.720p.BRRip.XviD.AC3-XVID http://glodls.to/torrent.php?id=18128 http://glodls.to/torrent.php?id=18128 Sun, 21 Oct 2018 11:48:52 +0100 Movies
[url=https://imagecurl.com/viewer.php?file=85008655698889172402.png][img]https://imagecurl.com/images/85008655698889172402.png[/img][/url]

[url=https://imagecurl.com/viewer.php?file=97036777905755464781.png][img]https://imagecurl.com/images/97036777905755464781.png[/img][/url] ]]>
Hurricane.2018.720p.BluRay.x264-EiDER http://glodls.to/torrent.php?id=18126 http://glodls.to/torrent.php?id=18126 Sun, 21 Oct 2018 11:47:31 +0100 Movies
[url=https://imagecurl.com/viewer.php?file=10148574566653747440.jpg][img]https://imagecurl.com/images/10148574566653747440.jpg[/img][/url]

Hurricane.2018.720p.BluRay.x264-EiDER

release date : 21/10/2018

runtime : 1 h 47 min

video : x264

Audio : English DTS

Subtitles : None

imdb : https://www.imdb.com/title/tt7515456

size : 94x50MiB

Synopsis : Hurricane (Squadron 303) is the story of a group of brave Poles who

: fought in the skies over England in WW2, not just to keep Great Britain

: free from the Nazis, but also to keep alive the very idea of their own

: country, which had existed in its modern form for barely twenty years

: before it was crushed between the opposing jaws of Germany and Russia.

: Equipped with the almost-obsolete Hurricane and (with some initial

: reluctance) given RAF blue uniforms, while they fought, Poland lived. ]]>
Hotel.Transylvania.The.Series.S01E41.WEB-DL.x264-ION10 http://glodls.to/torrent.php?id=18124 http://glodls.to/torrent.php?id=18124 Sun, 21 Oct 2018 11:46:58 +0100 TV


[url=https://imagecurl.com/viewer.php?file=20079221588816273087.png][img]https://imagecurl.com/images/20079221588816273087.png[/img][/url]

[url=https://imagecurl.com/viewer.php?file=42693514780752180391.png][img]https://imagecurl.com/images/42693514780752180391.png[/img][/url]

[url=https://imagecurl.com/viewer.php?file=47561472898827978179.png][img]https://imagecurl.com/images/47561472898827978179.png[/img][/url]



]]>
Hurricane.2018.BRRip.XviD.AC3-XVID http://glodls.to/torrent.php?id=18123 http://glodls.to/torrent.php?id=18123 Sun, 21 Oct 2018 11:46:23 +0100 Movies
[url=https://imagecurl.com/viewer.php?file=88068358603330422551.png][img]https://imagecurl.com/images/88068358603330422551.png[/img][/url]

[url=https://imagecurl.com/viewer.php?file=43675173401299633370.png][img]https://imagecurl.com/images/43675173401299633370.png[/img][/url] ]]>
Pine.Gap.S01E03.HDTV.x264-W4F[TGx] http://glodls.to/torrent.php?id=18121 http://glodls.to/torrent.php?id=18121 Sun, 21 Oct 2018 11:46:06 +0100 TV
[b]Pine.Gap.S01E03.HDTV.x264-W4F[TGx][/b]
[url]https://www.imdb.com/title/tt7371868[/url]


Upload provided by TorrentGalaxy
Visit us @ [url]https://torrentgalaxy.org[/url]


[b]SERIES INFO[/b]
[b]Genre[/b]: Thriller
[b]Stars[/b]: Parker Sawyer, Jacqueline McKenzie, Steve Toussaint, Tess Haubrich
[b]Series Plot[/b]: Set in the intensely secretive world of intelligence and the enigmatic US/Australia joint defense facility in central Australia, the spy-thriller Pine Gap delves into the famously strong alliance between the two countries.

-----------------------------------------------------------------------------------

[b]EPISODE INFO[/b]
[b]Title[/b]: Episode 3
[b]Airdate[/b]: 2018-10-21
[b]Episode plot[/b]: Kath, Ethan and Rudi discover each of the malware suspects has ample motives, and the unpredictable US President orders a US warship to undertake a provocative voyage through the South China Sea.

-----------------------------------------------------------------------------------

[b]SCREENSHOTS[/b]
(Click to enlarge)
[url=https://imgmak.com/image/jDB][img]https://imgmak.com/images/2018/10/21/HappyRoboto30407.th.jpg[/img][/url] [url=https://imgmak.com/image/jDI][img]https://imgmak.com/images/2018/10/21/HappyRoboto28772.th.jpg[/img][/url] [url=https://imgmak.com/image/jDq][img]https://imgmak.com/images/2018/10/21/HappyRoboto16124.th.jpg[/img][/url] [url=https://imgmak.com/image/jDt][img]https://imgmak.com/images/2018/10/21/HappyRoboto5130.th.jpg[/img][/url] [url=https://imgmak.com/image/jD2][img]https://imgmak.com/images/2018/10/21/HappyRoboto21582.th.jpg[/img][/url] [url=https://imgmak.com/image/jDF][img]https://imgmak.com/images/2018/10/21/HappyRoboto1071.th.jpg[/img][/url]

-----------------------------------------------------------------------------------

[b]MEDIAINFO[/b]
Container = Matroska (mkv)
Duration = 00:56:31.454
Filesize = 298 MiB
--ViDEO
Codec info = AVC High@L3.1 | V_MPEG4/ISO/AVC
Resolution = 720x404
Display AR = 1.782 | 16:9
Bitrate =
Framerate = CFR 25.000
Color space = YUV
Chroma subsampling = 4:2:0
Encoder = x264 - core 157 r2935 545de2f
--AUDiO
Codec info = AAC LC | A_AAC
Channels = 2
Bitrate =
Samplerate = 48.0 kHz
Language = English ]]>
Mandy 2018 1080p BluRay x264 DTS [MW] http://glodls.to/torrent.php?id=18119 http://glodls.to/torrent.php?id=18119 Sun, 21 Oct 2018 11:44:46 +0100 Movies
General
Format : Matroska
Format version : Version 4 / Version 2
File size : 4.39 GiB
Duration : 2 h 1 min
Overall bit rate : 5 189 kb/s

Video
ID : 1
Format : AVC
Format/Info : Advanced Video Codec
Format profile : High@L4.1
Format settings : CABAC / 4 Ref Frames
Format settings, CABAC : Yes
Format settings, RefFrames : 4 frames
Codec ID : V_MPEG4/ISO/AVC
Duration : 2 h 1 min
Bit rate : 4 500 kb/s
Width : 1 920 pixels
Height : 804 pixels
Display aspect ratio : 2.40:1
Frame rate mode : Constant
Frame rate : 23.976 (24000/1001) FPS
Color space : YUV
Chroma subsampling : 4:2:0
Bit depth : 8 bits
Scan type : Progressive
Bits/(Pixel*Frame) : 0.122
Stream size : 3.75 GiB (85%)
Writing library : x264 core 155 r2901 7d0ff22
Default : Yes
Forced : No

Audio
ID : 2
Format : DTS
Format/Info : Digital Theater Systems
Codec ID : A_DTS
Duration : 2 h 1 min
Bit rate mode : Constant
Bit rate : 756 kb/s
Channel(s) : 6 channels
Channel positions : Front: L C R, Side: L R, LFE
Sampling rate : 48.0 kHz
Frame rate : 93.750 FPS (512 SPF)
Bit depth : 16 bits
Compression mode : Lossy
Stream size : 654 MiB (15%)
Language : English
Default : Yes
Forced : No

Text
ID : 3
Format : UTF-8
Codec ID : S_TEXT/UTF8
Codec ID/Info : UTF-8 Plain Text
Duration : 1 h 46 min
Bit rate : 15 b/s
Count of elements : 498
Stream size : 12.3 KiB (0%)
Language : English
Default : Yes
Forced : No

Menu
00:00:00.000 : en:00:00:00.000
00:11:14.799 : en:00:11:14.799
00:21:25.826 : en:00:21:25.826
00:34:30.235 : en:00:34:30.235
00:51:18.158 : en:00:51:18.158
01:04:38.500 : en:01:04:38.500
01:08:57.342 : en:01:08:57.342
01:16:49.647 : en:01:16:49.647
01:26:33.980 : en:01:26:33.980
01:36:26.656 : en:01:36:26.656
01:47:46.085 : en:01:47:46.085
01:57:05.018 : en:01:57:05.018

[url=https://pichub.site/image/d6aHu]https://pichub.site/image/d6aHu[/url]
[url=https://pichub.site/image/d6ODR]https://pichub.site/image/d6ODR[/url]
[url=https://pichub.site/image/d6Rgs]https://pichub.site/image/d6Rgs[/url]
[url=https://pichub.site/image/d6SnB]https://pichub.site/image/d6SnB[/url]
[url=https://pichub.site/image/d6EYY]https://pichub.site/image/d6EYY[/url]
[url=https://pichub.site/image/d6dt6]https://pichub.site/image/d6dt6[/url]
]]>
Valentina Ross - Randy worker helps Valentina Ross in niqab http://glodls.to/torrent.php?id=18118 http://glodls.to/torrent.php?id=18118 Sun, 21 Oct 2018 11:44:38 +0100 Adult XXX
[b]Date[/b]: 2018
[b]Cast[/b]: Valentina Ross
[b]Genre[/b]: Blowjob, Candle, Cowgirl, Doggy style
[b]Name[/b]: Randy worker helps Valentina Ross in niqab


[b]Video[/b]: 1280x720, 25.000 FPS, 2163 kb/s
[b]Audio[/b]: 48.0 kHz, 2 channels, 255 kb/s
[b]Format[/b]: mp4
[b]Duration[/b]: 00:23:09
]]>
A.Nightmare.on.Elm.Street.3.Dream.Warriors.1987.720p.BluRay.H264.AAC http://glodls.to/torrent.php?id=18117 http://glodls.to/torrent.php?id=18117 Sun, 21 Oct 2018 11:44:38 +0100 Movies
[url=https://imagecurl.com/viewer.php?file=26917783528221000495.png][img]https://imagecurl.com/images/26917783528221000495.png[/img][/url]

[url=https://imagecurl.com/viewer.php?file=67005686582209403948.png][img]https://imagecurl.com/images/67005686582209403948.png[/img][/url] ]]>
Once.You.Go.Black.Dont.Tell.Daddy.XXX.720p.WEBRip.MP4-VSEX[N1C] http://glodls.to/torrent.php?id=18116 http://glodls.to/torrent.php?id=18116 Sun, 21 Oct 2018 11:44:26 +0100 Adult XXX Once.You.Go.Black.Dont.Tell.Daddy.XXX.720p.WEBRip.MP4-VSEX


[Format]: MPEG-4
[Duration]: 2h 1mn
[Resolution]: 1 280 x 720 pixels
[Display aspect ratio]: 16:9
[Frame rate mode]: Constant
[Frame rate]: 24.000 fps


[color=green][b]#N1C -> To avoid fakes, ALWAYS check that the torrent was added by NO1CARES[/b][/color]






[b]Screens...[/b]
[url]http://HotImage.uk/img-5bcc667ba8c65.html[/url]
[url]http://HotImage.uk/img-5bcc667bc7449.html[/url]
[url]http://HotImage.uk/img-5bcc667bcd360.html[/url]
[url]http://HotImage.uk/img-5bcc667bd2bce.html[/url] ]]>
Hallmark Countdown to Christmas 2018 Preview Special X264 Solar http://glodls.to/torrent.php?id=18115 http://glodls.to/torrent.php?id=18115 Sun, 21 Oct 2018 11:43:07 +0100 Movies [img]https://extraimage.net/images/2018/10/21/d55656efa5907c611950672b2c204357.jpg[/img]
[img]https://extraimage.net/images/2018/10/21/1c4cce208a59de70703d934f9f577b7d.jpg[/img]
[img]https://extraimage.net/images/2018/10/21/650ae079da39d97ee5e4c2d311682d2d.jpg[/img]
[img]https://extraimage.net/images/2018/10/21/0298569896dbf1a3ffe835348003993b.jpg[/img]

[size=3][b]Summary:[/b] Join Kellie Pickler for a look at some of the all-new original holiday movies coming to this year's Countdown to Christmas event![/size]

Format : MPEG-4 | AVC | Main L4
File size : 408 MiB
Duration : 51 min
Bit rate: : 1 136 kb/s

Video
Width : 854 pixels
Height : 480 pixels
aspect ratio : 16:9

Audio
Format : AAC | 128 Kbps | 2 channel | English



]]>
Hurricane.2018.BDRip.x264-EiDER[EtMovies] http://glodls.to/torrent.php?id=18114 http://glodls.to/torrent.php?id=18114 Sun, 21 Oct 2018 11:41:35 +0100 Movies EtMovies - Et High-Definition

-----------------------------------------------------

Hurricane.2018.BDRip.x264-EiDER

http://www.imdb.com/title//

[Video Bitrate]:.............: 689kb/s
[Duration]:.............: 1 h 47 min
[Video Codec]:.............: AVC
[Resolution]:.............: 720x302 px
[Aspect Ratio]:.............: 2.40:1
[Audio Codec]:.............: AAC
[Audio Bitrate]:.............: 123kb/s
[Audio Channels]:.............: 2.0ch
[Audio Language]:.............: English

Genre .......................:

[color=green][b]#EtMovies -> To avoid fakes, ALWAYS check that the torrent was added by EtMovies [/b][/color]


[url]https://www.ettv.tv/home/[/url]

[color=green][b]To keep us going Support us by donating Bitcoin: 1KsLJXUQzuYnuFZpNp4zsvEXaarKa85ADD[/b][/color]

[b]Screens...[/b]

[url]https://extraimage.net/image/7eiQ[/url]
[url]https://extraimage.net/image/7eiR[/url]
[url]https://extraimage.net/image/7eim[/url]
[url]https://extraimage.net/image/7eii[/url]
[url]https://extraimage.net/image/7eil[/url]
[url]https://extraimage.net/image/7ei3[/url]
]]>
Pine.Gap.S01E03.HDTV.x264-W4F http://glodls.to/torrent.php?id=18113 http://glodls.to/torrent.php?id=18113 Sun, 21 Oct 2018 11:41:27 +0100 TV
[url=https://imagecurl.com/viewer.php?file=79862603778903670535.jpg][img]https://imagecurl.com/images/79862603778903670535.jpg[/img][/url]



-W4F Releasing TV since 2002-



Proudly Presents



Pine.Gap.S01E03.HDTV.x264-W4F



RELEASE iNFO



Release Date 2018.10.21



EPiSODE iNFO



Episode 3



Kath, Ethan and Rudi discover each of the malware suspects has ample

motives, and the unpredictable US President orders a US warship to

undertake a provocative voyage through the South China Sea.



Enjoy!



W4F GROUP NEWS



W4F is one of the oldest TV scene groups, founded and supported on an

ethos of releasing purely for fun. We pride ourselves in releasing

quality programming in a variety of formats to include reality,

scripted, documentary, animation and film.



We are actively interested in finding individuals who would like to

join the W4F family. We are interested in those who can capture

content from the US.



Potential recruits must have the ability to receive digital TV

TV broadcasts which are to be captured with a device such as the

HDHomeRun or through firewire output using a set-top box (STB).



We are also interested in recruiting those who can capture either

Netflix or Amazon originals and other WEB tv/film content.



Contact email: w4f@tuta.io



Unfortunately we cannot provide you with missing files/releases.



From time to time we are also interested in hearing from site owners

who are looking to affiliate W4F. We are looking for private links

with archives.



Greets to all W4F/CLASSiCW4F members, both past and present. ]]>
Hurricane.2018.BRRip.XviD.AC3-EVO[TGx] http://glodls.to/torrent.php?id=18107 http://glodls.to/torrent.php?id=18107 Sun, 21 Oct 2018 11:37:04 +0100 Movies IMDB - [url]https://www.imdb.com/title/tt7515456[/url]

Upload provided by TorrentGalaxy
Visit us @ [url]https://torrentgalaxy.org[/url]

-----------------------------------------------------------------------------------

[b]GENERAL INFO[/b]
[b]Genre[/b]: War
[b]Director[/b]: David Blair
[b]Stars[/b]: Iwan Rheon, Milo Gibson, Stefanie Martini, Marcin Doroci?ski, Kryštof Hádek
[b]Plot[/b]: The story of the Polish fliers who found themselves fighting for the freedom of their own country in foreign skies. Seen through the eyes of Jan Zumbach, fighter ace and adventurer, it tells how the Poles, driven across Europe by the German war machine, finally made their last stand. Flying Hurricanes for the RAF over Britain, they became a key component in the legend of ‘The Few’. Up against the might of the Luftwaffe they hoped that, by saving Great Britain from Nazi invasion, they were keeping the dream of a free Poland alive.

-----------------------------------------------------------------------------------

[b]COVER[/b]
[url=https://imgmak.com/image/jDo][img]https://imgmak.com/images/2018/10/21/tmpposter25252.jpg[/img][/url]

-----------------------------------------------------------------------------------

[b]SCREENSHOTS[/b]
(Click to enlarge)
[url=https://imgmak.com/image/jDN][img]https://imgmak.com/images/2018/10/21/HappyRoboto24126.th.jpg[/img][/url] [url=https://imgmak.com/image/jDQ][img]https://imgmak.com/images/2018/10/21/HappyRoboto7930.th.jpg[/img][/url] [url=https://imgmak.com/image/jDS][img]https://imgmak.com/images/2018/10/21/HappyRoboto13355.th.jpg[/img][/url] [url=https://imgmak.com/image/jDZ][img]https://imgmak.com/images/2018/10/21/HappyRoboto16637.th.jpg[/img][/url] [url=https://imgmak.com/image/jDc][img]https://imgmak.com/images/2018/10/21/HappyRoboto4966.th.jpg[/img][/url] [url=https://imgmak.com/image/jDn][img]https://imgmak.com/images/2018/10/21/HappyRoboto2829.th.jpg[/img][/url]

-----------------------------------------------------------------------------------

[b]MEDIAINFO[/b]
Container = AVI (avi)
Duration = 01:47:38.917
Filesize = 1 GiB
ViDEO
Codec info = MPEG-4 Visual Advanced Simple@L5 | XVID
Resolution = 720x304
Display AR = 2.368 | 2.35:1
Bitrate = 1 381 kb/s
Framerate = 24.000
Color space = YUV
Chroma subsampling = 4:2:0
Encoder = XviD0067
AUDiO
Codec info = AC-3 | 2000
Channels = 6
Bitrate = CBR 384 kb/s
Samplerate = 48.0 kHz
Language = English ]]>
Do.As.I.Say.Then.Go.Away.XXX.720p.WEBRip.MP4-VSEX[N1C] http://glodls.to/torrent.php?id=18106 http://glodls.to/torrent.php?id=18106 Sun, 21 Oct 2018 11:36:27 +0100 Adult XXX Do.As.I.Say.Then.Go.Away.XXX.720p.WEBRip.MP4-VSEX


[Format]: MPEG-4
[Duration]: 1h 23mn
[Resolution]: 1 280 x 720 pixels
[Display aspect ratio]: 16:9
[Frame rate mode]: Constant
[Frame rate]: 29.970 fps


[color=green][b]#N1C -> To avoid fakes, ALWAYS check that the torrent was added by NO1CARES[/b][/color]






[b]Screens...[/b]
[url]http://HotImage.uk/img-5bcc64846bbbf.html[/url]
[url]http://HotImage.uk/img-5bcc648476bcf.html[/url]
[url]http://HotImage.uk/img-5bcc64847f6bb.html[/url]
[url]http://HotImage.uk/img-5bcc648487012.html[/url] ]]>
Mila Fox - Mila Fox met randy driver http://glodls.to/torrent.php?id=18105 http://glodls.to/torrent.php?id=18105 Sun, 21 Oct 2018 11:30:23 +0100 Adult XXX
[b]Date[/b]: 2018
[b]Cast[/b]: Mila Fox
[b]Genre[/b]: Blowjob, Cowgirl, Doggy style, Missionary
[b]Name[/b]: Mila Fox met randy driver


[b]Video[/b]: 854x480, 25.000 FPS, 1270 kb/s
[b]Audio[/b]: 48.0 kHz, 2 channels, 255 kb/s
[b]Format[/b]: mp4
[b]Duration[/b]: 00:21:23
]]>
The.Bureau.of.Magical.Things.S01E08.WEB.x264-TBS http://glodls.to/torrent.php?id=18102 http://glodls.to/torrent.php?id=18102 Sun, 21 Oct 2018 11:25:35 +0100 TV
[url=https://imagecurl.com/viewer.php?file=42012682612192486192.jpg][img]https://imagecurl.com/images/42012682612192486192.jpg[/img][/url]



The.Bureau.of.Magical.Things.S01E08.WEB.x264-TBS

10/21/2018 ]]>
Mila Fox - Mila Fox met randy driver http://glodls.to/torrent.php?id=18101 http://glodls.to/torrent.php?id=18101 Sun, 21 Oct 2018 11:24:32 +0100 Adult XXX
[b]Date[/b]: 2018
[b]Cast[/b]: Mila Fox
[b]Genre[/b]: Blowjob, Cowgirl, Doggy style, Missionary
[b]Name[/b]: Mila Fox met randy driver


[b]Video[/b]: 1280x720, 25.000 FPS, 4084 kb/s
[b]Audio[/b]: 48.0 kHz, 2 channels, 255 kb/s
[b]Format[/b]: mp4
[b]Duration[/b]: 00:21:23
]]>
The.Bureau.of.Magical.Things.S01E08.1080p.WEB.x264-TBS http://glodls.to/torrent.php?id=18100 http://glodls.to/torrent.php?id=18100 Sun, 21 Oct 2018 11:22:35 +0100 TV
[url=https://imagecurl.com/viewer.php?file=29236859093530543389.jpg][img]https://imagecurl.com/images/29236859093530543389.jpg[/img][/url]



The.Bureau.of.Magical.Things.S01E08.1080p.WEB.x264-TBS

10/21/2018 ]]>
A.Nightmare.on.Elm.Street.3.Dream.Warriors.1987.BRRip.XviD.MP3-XVID http://glodls.to/torrent.php?id=18099 http://glodls.to/torrent.php?id=18099 Sun, 21 Oct 2018 11:18:05 +0100 Movies
[url=https://imagecurl.com/viewer.php?file=77282420350518472324.png][img]https://imagecurl.com/images/77282420350518472324.png[/img][/url]

[url=https://imagecurl.com/viewer.php?file=12639063357446743369.png][img]https://imagecurl.com/images/12639063357446743369.png[/img][/url] ]]>
[PRIVATE] Paris Sex Affaires (2018) http://glodls.to/torrent.php?id=18097 http://glodls.to/torrent.php?id=18097 Sun, 21 Oct 2018 11:10:16 +0100 Adult XXX
https://www.imageuploads.co.uk/image/HMUJG

https://www.imageuploads.co.uk/image/HMcmK

https://www.imageuploads.co.uk/image/HML25 ]]>
Hotel.Transylvania.The.Series.S01E37E38.Fried.Mean.Tomatoes.Top.Wing.720p.WEB-DL.DD5.1.H264-iT00NZ http://glodls.to/torrent.php?id=18096 http://glodls.to/torrent.php?id=18096 Sun, 21 Oct 2018 11:08:47 +0100 TV
[url=https://imagecurl.com/viewer.php?file=81430800338006944058.jpg][img]https://imagecurl.com/images/81430800338006944058.jpg[/img][/url]



Hotel.Transylvania.The.Series.S01E37E38.Fried.Mean.Tomatoes.Top.Wing.720p.WEB-DL.DD5.1.H264-iT00NZ ]]>
Errementari The Blacksmith and the Devil 2017 720p WEBRip x264 ESub [MW] http://glodls.to/torrent.php?id=18095 http://glodls.to/torrent.php?id=18095 Sun, 21 Oct 2018 11:08:29 +0100 Movies
General
Format : Matroska
Format version : Version 4 / Version 2
File size : 865 MiB
Duration : 1 h 39 min
Overall bit rate : 1 219 kb/s

Video
ID : 1
Format : AVC
Format/Info : Advanced Video Codec
Format profile : High@L4.1
Format settings : CABAC / 4 Ref Frames
Format settings, CABAC : Yes
Format settings, RefFrames : 4 frames
Codec ID : V_MPEG4/ISO/AVC
Duration : 1 h 38 min
Bit rate : 1 100 kb/s
Width : 1 264 pixels
Height : 674 pixels
Display aspect ratio : 1.85:1
Frame rate mode : Constant
Frame rate : 24.000 FPS
Color space : YUV
Chroma subsampling : 4:2:0
Bit depth : 8 bits
Scan type : Progressive
Bits/(Pixel*Frame) : 0.054
Stream size : 773 MiB (89%)
Writing library : x264 core 155 r2901 7d0ff22
Default : Yes
Forced : No

Audio
ID : 2
Format : AAC
Format/Info : Advanced Audio Codec
Format profile : LC
Codec ID : A_AAC-2
Duration : 1 h 39 min
Bit rate : 128 kb/s
Channel(s) : 2 channels
Channel positions : Front: L R
Sampling rate : 48.0 kHz
Frame rate : 46.875 FPS (1024 SPF)
Compression mode : Lossy
Stream size : 90.9 MiB (11%)
Language : English
Default : Yes
Forced : No

Text #1
ID : 3
Format : UTF-8
Codec ID : S_TEXT/UTF8
Codec ID/Info : UTF-8 Plain Text
Duration : 1 h 38 min
Bit rate : 0 b/s
Count of elements : 6
Stream size : 166 Bytes (0%)
Title : English [Forced]
Language : English
Default : Yes
Forced : Yes

Text #2
ID : 4
Format : UTF-8
Codec ID : S_TEXT/UTF8
Codec ID/Info : UTF-8 Plain Text
Duration : 1 h 38 min
Bit rate : 31 b/s
Count of elements : 742
Stream size : 22.8 KiB (0%)
Title : English [Full]
Language : English
Default : No
Forced : No

[url=https://pichub.site/image/dlbXj]https://pichub.site/image/dlbXj[/url]
[url=https://pichub.site/image/dlqtk]https://pichub.site/image/dlqtk[/url]
[url=https://pichub.site/image/d64pQ]https://pichub.site/image/d64pQ[/url]
[url=https://pichub.site/image/d6fev]https://pichub.site/image/d6fev[/url]
[url=https://pichub.site/image/d6Yv9]https://pichub.site/image/d6Yv9[/url]
[url=https://pichub.site/image/d6Mkd]https://pichub.site/image/d6Mkd[/url]
]]>
Amateurs - Quickie in bathroom http://glodls.to/torrent.php?id=18094 http://glodls.to/torrent.php?id=18094 Sun, 21 Oct 2018 11:08:12 +0100 Adult XXX
[b]Date[/b]: 2018
[b]Cast[/b]: Amateurs
[b]Genre[/b]: Blowjob, Doggy style, Missionary
[b]Name[/b]: Quickie in bathroom


[b]Video[/b]: 854x480, 25.000 FPS, 1270 kb/s
[b]Audio[/b]: 48.0 kHz, 2 channels, 255 kb/s
[b]Format[/b]: mp4
[b]Duration[/b]: 00:21:07
]]>
Hotel.Transylvania.The.Series.S01E37E38.Fried.Mean.Tomatoes.Top.Wing.1080p.WEB-DL.DD5.1.H264-iT00NZ http://glodls.to/torrent.php?id=18093 http://glodls.to/torrent.php?id=18093 Sun, 21 Oct 2018 11:06:29 +0100 TV
[url=https://imagecurl.com/viewer.php?file=59286318447205522121.jpg][img]https://imagecurl.com/images/59286318447205522121.jpg[/img][/url]



Hotel.Transylvania.The.Series.S01E37E38.Fried.Mean.Tomatoes.Top.Wing.1080p.WEB-DL.DD5.1.H264-iT00NZ ]]>
Amateurs - Quickie in bathroom http://glodls.to/torrent.php?id=18092 http://glodls.to/torrent.php?id=18092 Sun, 21 Oct 2018 11:06:15 +0100 Adult XXX
[b]Date[/b]: 2018
[b]Cast[/b]: Amateurs
[b]Genre[/b]: Blowjob, Doggy style, Missionary
[b]Name[/b]: Quickie in bathroom


[b]Video[/b]: 1280x720, 25.000 FPS, 3749 kb/s
[b]Audio[/b]: 48.0 kHz, 2 channels, 255 kb/s
[b]Format[/b]: mp4
[b]Duration[/b]: 00:21:07
]]>
Real Time with Bill Maher Anniversary Special 2018 1080p WEB-DL DD 5 1 x264 ESub [MW] http://glodls.to/torrent.php?id=18091 http://glodls.to/torrent.php?id=18091 Sun, 21 Oct 2018 11:05:35 +0100 Movies
General
Format : Matroska
Format version : Version 4 / Version 2
File size : 1.17 GiB
Duration : 1 h 0 min
Overall bit rate : 2 789 kb/s

Video
ID : 1
Format : AVC
Format/Info : Advanced Video Codec
Format profile : High@L4.1
Format settings : CABAC / 4 Ref Frames
Format settings, CABAC : Yes
Format settings, RefFrames : 4 frames
Codec ID : V_MPEG4/ISO/AVC
Duration : 1 h 0 min
Bit rate : 2 400 kb/s
Width : 1 920 pixels
Height : 1 080 pixels
Display aspect ratio : 16:9
Frame rate mode : Constant
Frame rate : 29.970 (30000/1001) FPS
Color space : YUV
Chroma subsampling : 4:2:0
Bit depth : 8 bits
Scan type : Progressive
Bits/(Pixel*Frame) : 0.039
Stream size : 1.01 GiB (86%)
Writing library : x264 core 155 r2901 7d0ff22
Default : Yes
Forced : No

Audio
ID : 2
Format : AC-3
Format/Info : Audio Coding 3
Codec ID : A_AC3
Duration : 1 h 0 min
Bit rate mode : Constant
Bit rate : 384 kb/s
Channel(s) : 6 channels
Channel positions : Front: L C R, Side: L R, LFE
Sampling rate : 48.0 kHz
Frame rate : 31.250 FPS (1536 SPF)
Bit depth : 16 bits
Compression mode : Lossy
Stream size : 165 MiB (14%)
Language : English
Service kind : Complete Main
Default : Yes
Forced : No

Text #1
ID : 3
Format : UTF-8
Codec ID : S_TEXT/UTF8
Codec ID/Info : UTF-8 Plain Text
Duration : 59 min 12 s
Bit rate : 117 b/s
Count of elements : 1552
Stream size : 51.1 KiB (0%)
Language : English
Default : No
Forced : No

Text #2
ID : 4
Format : UTF-8
Codec ID : S_TEXT/UTF8
Codec ID/Info : UTF-8 Plain Text
Duration : 59 min 56 s
Bit rate : 124 b/s
Count of elements : 1718
Stream size : 54.7 KiB (0%)
Title : SDH
Language : English
Default : No
Forced : No

[url=https://pichub.site/image/dlZeI]https://pichub.site/image/dlZeI[/url]
[url=https://pichub.site/image/dl9cX]https://pichub.site/image/dl9cX[/url]
[url=https://pichub.site/image/dlHv8]https://pichub.site/image/dlHv8[/url]
[url=https://pichub.site/image/dlQS5]https://pichub.site/image/dlQS5[/url]
[url=https://pichub.site/image/dlTHJ]https://pichub.site/image/dlTHJ[/url]
[url=https://pichub.site/image/dlWgh]https://pichub.site/image/dlWgh[/url]
]]>
International New York Times - 20-21 October 2018 ( pdf) http://glodls.to/torrent.php?id=18090 http://glodls.to/torrent.php?id=18090 Sun, 21 Oct 2018 11:05:07 +0100 Books International New York Times - 20-21 October 2018
[/b]
[b]Requirements:[/b]  .PDF reader

[b]Overview:[/b]  The New York Times International Edition is an English-language newspaper printed at 38 sites throughout the world and sold in more than 160 countries and territories.

[b]Genre:[/b]  Newspapers

[img]https://pxhst.co/avaxhome/41/b4/005db441_medium.jpg[/img]
]]>
CumTrick 18 10 21 Ana Ribera REMASTERED 480p MP4-XXX http://glodls.to/torrent.php?id=18089 http://glodls.to/torrent.php?id=18089 Sun, 21 Oct 2018 11:03:36 +0100 Adult XXX
[b]Screens :[/b]

[url]https://22pixx.xyz/ia-i/5bcc5d0b3e846.jpeg.html[/url]

[url]https://22pixx.xyz/ia-i/5bcc5d0b31dd6.jpeg.html[/url]

[url]https://22pixx.xyz/ia-i/5bcc5d0b21b87.jpeg.html[/url]

[url]https://22pixx.xyz/ia-i/5bcc5d0b16abd.jpeg.html[/url]

[url]https://22pixx.xyz/ia-i/5bcc5d0a5c86f.jpeg.html[/url]

File Size : 262 MiB
Duration : 31 min 30 s
Video : h264, yuv420p, 854x480p, 1024 Kbps
Audio : aac , 2 ch, stereo , 128 Kbps ]]>
[Clips4sale] Melanie Hicks - All Alone with Mommy 1080p http://glodls.to/torrent.php?id=18088 http://glodls.to/torrent.php?id=18088 Sun, 21 Oct 2018 11:02:27 +0100 Adult XXX mp4 | AVC, 1920x1080, (16:9), 29.97 Fps, 8017 Kbs | 00:17:05 | 1003.36 Mb

https://www.imageuploads.co.uk/image/HMjgl

https://www.imageuploads.co.uk/image/HMzet

https://www.imageuploads.co.uk/image/HMrd1 ]]>
The.Bureau.of.Magical.Things.S01E08.WEB.x264-TBS[ettv] http://glodls.to/torrent.php?id=18081 http://glodls.to/torrent.php?id=18081 Sun, 21 Oct 2018 11:01:20 +0100 TV Et TV Shows


[url]https://www.ettv.be/home/[/url]

The.Bureau.of.Magical.Things.S01E08.WEB.x264-TBS


[Format]: Matroska
[Duration]: 23mn 21s
[Resolution]: 960 x 540 pixels
[Display aspect ratio]: 16:9
[Frame rate mode]: Constant
[Frame rate]: 29.970 fps


[color=green][b]#ettv -> To avoid fakes, ALWAYS check that the torrent was added by ettv[/b][/color]




[color=green][b]To keep us going Support us by donating Bitcoin: 1KsLJXUQzuYnuFZpNp4zsvEXaarKa85ADD[/b][/color]

[b]Screens...[/b]

[url]https://extraimage.net/image/7emS[/url]
[url][/url]
[url][/url]
[url][/url]
[url][/url]
[url][/url]
]]>
A.Nightmare.On.Elm.Street.5.The.Dream.Child.1989.1080p.BluRay.x264-MOOVEE http://glodls.to/torrent.php?id=18050 http://glodls.to/torrent.php?id=18050 Sun, 21 Oct 2018 11:00:48 +0100 Movies
[url=https://imagecurl.com/viewer.php?file=54256696330024003291.png][img]https://imagecurl.com/images/54256696330024003291.png[/img][/url]

[url=https://imagecurl.com/viewer.php?file=37908021833763076246.png][img]https://imagecurl.com/images/37908021833763076246.png[/img][/url]

[url=https://imagecurl.com/viewer.php?file=35217747262615447444.png][img]https://imagecurl.com/images/35217747262615447444.png[/img][/url]

[url=https://imagecurl.com/viewer.php?file=39117503224489982743.png][img]https://imagecurl.com/images/39117503224489982743.png[/img][/url]

[url=https://imagecurl.com/viewer.php?file=89203393054693854031.png][img]https://imagecurl.com/images/89203393054693854031.png[/img][/url] ]]>
Trick.R.Treat.2007.1080p.BluRay.H264.AAC http://glodls.to/torrent.php?id=18042 http://glodls.to/torrent.php?id=18042 Sun, 21 Oct 2018 11:00:41 +0100 Movies
[url=https://imagecurl.com/viewer.php?file=54965368517254919145.png][img]https://imagecurl.com/images/54965368517254919145.png[/img][/url]

[url=https://imagecurl.com/viewer.php?file=18955671795200742104.png][img]https://imagecurl.com/images/18955671795200742104.png[/img][/url] ]]>
Helloworld S01E03 WEB H264-W4F http://glodls.to/torrent.php?id=18041 http://glodls.to/torrent.php?id=18041 Sun, 21 Oct 2018 11:00:41 +0100 TV http://www.tvrage.com/schedule.php?show_yesterday=1. ]]> Helloworld S01E03 720p WEB H264-W4F http://glodls.to/torrent.php?id=18040 http://glodls.to/torrent.php?id=18040 Sun, 21 Oct 2018 11:00:39 +0100 TV http://www.tvrage.com/schedule.php?show_yesterday=1. ]]> The Bureau of Magical Things S01E05 720p WEB x264-TBS http://glodls.to/torrent.php?id=18039 http://glodls.to/torrent.php?id=18039 Sun, 21 Oct 2018 11:00:37 +0100 TV http://www.tvrage.com/schedule.php?show_yesterday=1. ]]> The Bureau of Magical Things S01E05 WEB x264-TBS http://glodls.to/torrent.php?id=18038 http://glodls.to/torrent.php?id=18038 Sun, 21 Oct 2018 11:00:34 +0100 TV http://www.tvrage.com/schedule.php?show_yesterday=1. ]]> The Bureau of Magical Things S01E06 WEB x264-TBS http://glodls.to/torrent.php?id=18037 http://glodls.to/torrent.php?id=18037 Sun, 21 Oct 2018 11:00:30 +0100 TV http://www.tvrage.com/schedule.php?show_yesterday=1. ]]> The Block AU S14E45 HDTV x264-FQM http://glodls.to/torrent.php?id=18036 http://glodls.to/torrent.php?id=18036 Sun, 21 Oct 2018 11:00:26 +0100 TV http://www.tvrage.com/schedule.php?show_yesterday=1. ]]> The Bureau of Magical Things S01E06 720p WEB x264-TBS http://glodls.to/torrent.php?id=18035 http://glodls.to/torrent.php?id=18035 Sun, 21 Oct 2018 11:00:22 +0100 TV http://www.tvrage.com/schedule.php?show_yesterday=1. ]]> The Bureau of Magical Things S01E07 WEB x264-TBS http://glodls.to/torrent.php?id=18034 http://glodls.to/torrent.php?id=18034 Sun, 21 Oct 2018 11:00:19 +0100 TV http://www.tvrage.com/schedule.php?show_yesterday=1. ]]> The Bureau of Magical Things S01E07 720p WEB x264-TBS http://glodls.to/torrent.php?id=18032 http://glodls.to/torrent.php?id=18032 Sun, 21 Oct 2018 11:00:15 +0100 TV http://www.tvrage.com/schedule.php?show_yesterday=1. ]]> The Bureau of Magical Things S01E08 720p WEB x264-TBS http://glodls.to/torrent.php?id=18031 http://glodls.to/torrent.php?id=18031 Sun, 21 Oct 2018 11:00:12 +0100 TV http://www.tvrage.com/schedule.php?show_yesterday=1. ]]> The Bureau of Magical Things S01E08 WEB x264-TBS http://glodls.to/torrent.php?id=18030 http://glodls.to/torrent.php?id=18030 Sun, 21 Oct 2018 11:00:08 +0100 TV http://www.tvrage.com/schedule.php?show_yesterday=1. ]]>