GloDLS.to - Download Movies, TV, Games and Other Torrents Free RSS 2.0enGloDLS.to - Download Movies, TV, Games and Other Torrents FreeGloDLS.to - Download Movies, TV, Games and Other Torrents Free RSS Feedhttp://glodls.toCopyright GloDLS.to - Download Movies, TV, Games and Other Torrents FreeSat, 21 Oct 2017 11:16:11 +0100 Weather Watcher Live 7 2 104 + patch http://glodls.to/torrent.php?id=2889327 http://glodls.to/torrent.php?id=2889327 Sat, 21 Oct 2017 10:15:59 +0100 Apps

Description:
Before you is a unique development, as the authors call it, which can be called a portable weather station, which works in real time. After running this program, you can view different data, for example weather for the nearest hour or a week, you can even browse it for a month in advance, you can download Weather Watcher Live in full news. It is worth noting the built-in sounder, it will warn you about changing weather, if any are planned of course.
It should be noted right away that the program does not start very fast, as it collects a lot of different data each time and often updates the database to keep you informed of the most reliable weather information. Left under the main menu, you have to click on the city, then select the button to add the station, enter either the Zip code or city name in English, select from the list necessary, for example Moscow, after you have to wait for the database update, then you can follow the weather. Weather Watcher Live displays all data in Fahrenheit, so do not forget to change the values ??on Celsius.
The program has a good navigation on the map of the World, in its database contains a large number of cities, most likely you can find what you need. The map is used by Google, the most reliable. Weather Watcher Live as a whole has a fairly intuitive interface, a few clicks you can perform all the basic operations, will immediately note that there is no Russian support, I hope this did not much upset, because in fact you just have to watch the weather, and before that, do not forget to choose the right city, that's all, although the settings program has a fairly large number.
So, with this development you will be able to receive data on the weather forecast from authoritative weather stations, specifically nothing is said. You will be able to work with a huge base of cities, all weather changes will occur in real time, you will be able to access photos and meteorological videos, you can use skins and plug-ins, plus Weather Watcher Live can fold into the tray and from there show all the necessary weather data. In general, I have nothing to add to the program, I hope it will be useful to you, although of course opinions on it in the network are not the most unambiguous, in any case, do not forget to express your own.

Developer: Singer's Creations
License: ShareWare
Language: English
Size: 6 MB
OS: Windows

How to Install:
1). Instructions are included in ReadMe.txt if needed.
2). Thats all, Done & enjoy.
]]>
VirtualBox 5 1 30 Build 118389 Multilingual + Extension Pack http://glodls.to/torrent.php?id=2889326 http://glodls.to/torrent.php?id=2889326 Sat, 21 Oct 2017 10:15:33 +0100 Apps
Language: Multilanguage
Developer: Oracle Corporation
Medicine: Not required (Freeware)

System requirements: • Windows Vista SP1 and later (32-bit and 64-bit). • Windows Server 2008 (64-bit) • Windows Server 2008 R2 (64-bit) • Windows 7 (32-bit and 64-bit) • Windows 8 (32-bit and 64-bit) • Windows 8.1 (32-bit and 64-bit) • Windows 10 RTM build 10,240 (32-bit and 64-bit) • Windows Server 2012 (64-bit) • Windows Server 2012 R2 (64-bit)

Description : VirtualBox- A special program for creating virtual computers in the PC's memory. Each virtual machine can contain an arbitrary set of virtual devices and a separate operating system. The scope of virtual computers is very wide - from performing functions for testing software to creating entire networks that are easy to scale, distribute the load and protect. VirtualBox is distributed free of charge, with open source.

Additional Information
There are versions of VirtualBox, designed for installation on almost all operating systems, including Windows, Linux, Macintosh and OpenSolaris. As a "guest" operating system, any operating system can also be used, including Windows (NT 4.0, 2000, XP, Server 2003, Vista, W7), DOS / Windows 3.x, Linux, and OpenBSD.

Key Features

• VirtualBox can be managed both through the GUI interface and through the command line.
• To expand the functions of the program, a special SDK is developed.
• The parameters of virtual machines are described in XML format and do not depend on the physical computer on which the system is running. Therefore virtual computers of the VirtalBox format can easily be transferred from one PC to another.
• If you use Windows or Linux operating systems on guest computers, you can use special utilities that greatly facilitate switching between physical and virtual computers.
• To quickly exchange files between a guest and a physical PC, you can create so-called "Shared folders" that are simultaneously accessible from both of these machines.
• VirtualBox allows you to connect USB devices to virtual computers, allowing virtual machines to work with them directly.
• VirtualBox fully supports Remote Desktop Protocol (RDP). A virtual machine can act as an RDP server, allowing you to manage it remotely.

Extension Pack adds the following functions

The virtual USB 2.0 (EHCI) device; see the section called "USB settings".
VirtualBox Remote Desktop Protocol (VRDP) support; see the section called "Remote display (VRDP support)".
Intel PXE boot ROM with support for the E1000 network card.
Experimental support for PCI passthrough on Linux hosts; see the section called "PCI passthrough".
Installation:
Launch VirtualBox, go to the File menu »Preferences» Plugins and add the downloaded file that has the extension .vbox-extpack
]]>
Video Thumbnails Maker Platinum 10 0 0 4 + Crack http://glodls.to/torrent.php?id=2889325 http://glodls.to/torrent.php?id=2889325 Sat, 21 Oct 2017 10:15:07 +0100 Apps
Video Thumbnails Maker Platinum 10.0.0.4

Video Thumbnails Maker Platinum allows you to make thumbnails (caps, previews, screen-lists) and screenshots of video files. The utility can be used for home-video cataloging and for network video sharing support. Microsoft .NET Framework 4.0 Client Profile or Microsoft .NET Framework 4.0+ is required to run the application.

The tool consists of:
– Video Thumbnails Maker = MAKER
– Pictures Thumbnails Viewer = VIEWER
– The main advantage of the VIEWER is the ability to start related video-file right from a thumbnail sheet.
– Moreover, you can start the video from the moment from which the thumbnail shot has been taken!
– VTX picture files are required to be generated.

MAKER’s Key Features:
– A thumbnail sheet is generated from a so called “set” of files (pictures from a separate folder or an archive); for instance, if you add a folder with 3 zip-archives and 8 separate pictures in it – 4 sheets will be created (3 for archives and 1 for 8 separate pictures)
– Plenty of options and special effects (see screenshots above); momentary rendered visual preview of your settings right in the Options window
– 5 customizable “base”-presets (see examples above); special (non-“MxN”) matrices with big tiles
– You can generate GIF-animations and HTML Galleries automatically using separate tiles of your sheets
– Batch processing; you can pause/continue or stop active job at any moment
– Options preset file format (*.ptm). After you run a preset, the program is automatically opened with the imported tuning
– Command Line Interface (CLI, works only in activated version)
– Zip, 7z and Rar archives are fully supported by the MAKER

VIEWER’s Key Features:
– Zip and 7z archives are fully transparent to the program; you can manage a picture without worrying about its actual location; if a pictures is situated in a Zip or 7z archive the program will update the archive automatically
– Rar archives are partly transparent to the VIEWER (automatic unpacking only); that means you can still navigate through pictures in Rar archives, but you can not delete/rename files in such archives (RAR license restriction)
*.ptx is a special “thumbnail gallery” or “sheet of thumbnails” file format; it is used by Pictures Thumbnails Viewer; a file with .ptx extension could be easily opened by double clicking on it in any file manager
*.vtx files are supported (that files are produced by Video Thumbnails Maker); the VIEWER allows you to start the video from its thumbnail sheet
– Pictures Thumbnails Viewer keeps history of your navigation through thumbnail sheets; so you can “jump back and back” using Escape or Backspace keys
– You can substitute any part of your thumbnail sheet right from the viewer as well as regenerate the entire sheet
– Detailed picture info appears when moving the mouse cursor to the right screen border (somewhere at the middle point)
]]>
Uninstall Tool 3 5 3 Build 5563 + Portable + patch http://glodls.to/torrent.php?id=2889324 http://glodls.to/torrent.php?id=2889324 Sat, 21 Oct 2017 10:14:43 +0100 Apps

Description:
I think many people like this program, it is for this reason that I propose to get to know her better. So, this utility is a worthy replacement for the standard Windows applet to remove installed applications on your computer. The program is completely safe, and also reliably and in a convenient way will allow you to remove any utility from the computer, do it as completely as possible, leave no trace in the registry and hidden system files, you can download the Uninstall Tool below.
Among a large number of advantages of the program, you can note the ability to show users hidden-installed applications in the system, it is also possible to sort programs by different filters, for example by name, recently installed, size and so on, I think it is not necessary to clarify. Uninstall Tool can easily uninstall the program, which in its time was not properly rubbed, that is, there was some error and the label remained hanging in the list, the files remained on the computer. If you want to save a list of programs on your system, you can do this for example in HTML format.
If you believe the authors of Uninstall Tool - then their tool is three times faster to remove programs if compared with the standard Windows tool. Also you will get three categories, for example you can view the system utilities on your computer or hidden. If you can not uninstall the application using standard tools, then Uninstall Tool will help with this problem, there will be no problems with these. I think you noticed from the screenshot that there is a search line in the interface, we enter the interesting name of the program and then there is a search, especially like if the list is too large.
Uninstall Tool will allow you to navigate directly to the folder where it is installed, you can find the full version, visit the developer's website. If you look at the interface, I like it more than any other alternative development, everything is very simple and understandable, it is functional and friendly, there is Russian support, there are essentially no settings, after installation it can be used immediately, although this version of the Uninstall Tool does not require installation, which is also convenient. It seems that everything has already been told through the program, I hope it will serve you well and you can completely remove obsolete utilities from your computer, use it well!

Developer: CrystalIdea Software Inc
License: ShareWare
Language: English + Russian
Size: 8 MB
OS: Windows

How to Install:
1). Instructions are included in ReadMe.txt if needed.
2). Thats all, Done & enjoy. ]]>
TweakBit PCSpeedUp 1 8 2 5 + Crack http://glodls.to/torrent.php?id=2889323 http://glodls.to/torrent.php?id=2889323 Sat, 21 Oct 2017 10:14:05 +0100 Apps

TweakBit PCSpeedUp is a powerful tool to accelerate any computer's performance by eliminating slowdown causes, optimizing resource consumption in real time, speeding up Internet connection and automatically protecting speed for consistently fast operation. The software will analyze Windows settings to check if they fit your usage style, and then tweak these settings to eliminate potential bottlenecks and ensure top speed. It will defragment your hard drives to restore efficiency and clean your Windows registry to get rid of corrupt and obsolete keys. PCSpeedUp will also analyze and optimize your Internet connection settings so you can browse the web and download files faster.

DIAGNOSES your Windows system
Since diagnosis is half the cure. PCSpeedUp runs a comprehensive checkup on your system and detects every issue that may be slowing it down. We have developed powerful scanners that zero in on registry errors, fragmentation, incorrect system or Internet settings and other speed thieves for a precise verdict.

IMPROVES computer speed
Everything on your PC will work faster. PCSpeedUp defragments your hard drive, cleans up the registry, tweaks system and Internet settings, and speeds up system shutdown to make your PC visibly faster. We made this software to bring you real results, so that you can enjoy things happening at a faster pace. Guaranteed.

SAFEGUARDS system performance
Add an extra speed boost for real-time effect. We included automatic tools you can enable to keep your PC running at optimal speed. They keep your memory and CPU consumption optimized for current tasks, help your files open and save faster thanks to live disk management, and reduce computer shutdown time. ]]>
TNod User & Password Finder 1 6 3 1 Final http://glodls.to/torrent.php?id=2889322 http://glodls.to/torrent.php?id=2889322 Sat, 21 Oct 2017 10:13:43 +0100 Apps
TNod User & Password Finder 1.6.3.1 Final



New version of the utility that inserts a valid license to update NOD32 Commercial versions 2.5.x, 2.7.x, 3.x, 4.x, 5.x, 6.x, 7.x, 8.x, 9.0, 10.0 and 10.1; including ESET Smart Security and ESET Internet Security.


FEATURES -
Recommendations:
- Add to exclusion sites (including the asterisks): *tukero.* & *tnoduse*
- Add to exclude the directory where you will download TNod and where you are installing (by default is installed in the folder C: \ Program Files (x86) \ TNod \ ). If even adding exclusion eliminates the antivirus, change the installation directory.
- If the application displays an error, please report it. With this is achieved that the resulting final version is more stable.

Whats New:
Corrected the error of searches of licenses.
Corrected the license review error. ]]>
TeraCopy Pro 3 26 Full (Crack) http://glodls.to/torrent.php?id=2889321 http://glodls.to/torrent.php?id=2889321 Sat, 21 Oct 2017 10:13:23 +0100 Apps


TeraCopy Pro 3.26 + License Key



TeraCopy is a utility designed to copy/move files faster and more secure. Can resume broken file transfers. TeraCopy skips bad files during copy and even shows the skipped files at the end of files transfer. TeraCopy will calculate files CRC checksum on the fly to speed up source and target files comparsion. Seamless integration with Windows Explorer allows you to keep working with files as usual.


FEATURES -
TeraCopy is a compact program designed to copy and move files at the maximum possible speed, providing the user a lot of features:
- Copy files faster. TeraCopy uses dynamically adjusted buffers to reduce seek times. Asynchronous copy speeds up file transfer between two physical hard drives.
- Pause and resume file transfers. Pause copy process at any time to free up system resources and continue with a single click.
- Error recovery. In case of copy error, TeraCopy will try several times and in the worse case just skips the file, not terminating the entire transfer.
- Interactive file list. TeraCopy shows failed file transfers and lets you fix the problem and recopy only problem files.
- Shell integration. TeraCopy can completely replace Explorer copy and move functions, allowing you work with files as usual.
- Full Unicode support.

TeraCopy Pro:
- You can also buy a Pro version of the program that lets you do the following:
- Copy/move to favorite folders.
- Select files with the same extension/same folder.
- Remove selected files from the copy queue.
- Get free updates and priority support.
- More features coming soon!
]]>
TeraCopy Pro 3 26 + Key http://glodls.to/torrent.php?id=2889320 http://glodls.to/torrent.php?id=2889320 Sat, 21 Oct 2017 10:12:59 +0100 Apps



TeraCopy Pro 3.26 + License Key



TeraCopy is a utility designed to copy/move files faster and more secure. Can resume broken file transfers. TeraCopy skips bad files during copy and even shows the skipped files at the end of files transfer. TeraCopy will calculate files CRC checksum on the fly to speed up source and target files comparsion. Seamless integration with Windows Explorer allows you to keep working with files as usual.


FEATURES -
TeraCopy is a compact program designed to copy and move files at the maximum possible speed, providing the user a lot of features:
- Copy files faster. TeraCopy uses dynamically adjusted buffers to reduce seek times. Asynchronous copy speeds up file transfer between two physical hard drives.
- Pause and resume file transfers. Pause copy process at any time to free up system resources and continue with a single click.
- Error recovery. In case of copy error, TeraCopy will try several times and in the worse case just skips the file, not terminating the entire transfer.
- Interactive file list. TeraCopy shows failed file transfers and lets you fix the problem and recopy only problem files.
- Shell integration. TeraCopy can completely replace Explorer copy and move functions, allowing you work with files as usual.
- Full Unicode support.

TeraCopy Pro:
- You can also buy a Pro version of the program that lets you do the following:
- Copy/move to favorite folders.
- Select files with the same extension/same folder.
- Remove selected files from the copy queue.
- Get free updates and priority support.
- More features coming soon! ]]>
Techsmith Snagit 13 1 4 Build 8008 + Pre-Cracked http://glodls.to/torrent.php?id=2889319 http://glodls.to/torrent.php?id=2889319 Sat, 21 Oct 2017 10:12:35 +0100 Apps
Language: Russian + English
Developer: techsmith
Medicine: All cured
Author of assembly: KpoJIuK

System requirements: Microsoft Windows 10, Windows 8, Windows 7 SP1 (32-bit and 64-bit), or Windows Server 2012 R2 .NET 4.6 or later 2.4 GHz single core processor (required for video capture) 1 GB of RAM (4 GB required for video capture) 400 MB of hard-disk space for program capture N

Description: SnagIt- offers unlimited possibilities for capturing images - a whole screen, one or several windows and graphic objects (icons, soft buttons, panels, menus, etc.), areas of arbitrary or complex shape (polygon, ellipse, rounded rectangle) , full-screen Windows DOS-programs and windows applications DirectX (games, video players), the program can receive images from scanners or digital cameras with a TWAIN interface, capture the background image of the Windows desktop and clipboard contents, as well as imported Icons from EXE files and DLLs.

Additional Information
The screen magnifier will help you to select the capture area with pixel accuracy, and previewing with the built-in raster image editor will allow you to quickly add explanatory inscriptions and save the image to a file. In addition, SnagIt can save any type of files from web sites with the ability to specify the level of nesting pages, and is also able to record what is happening on the screen in AVI video. The program SnagIt can perform the capture on a schedule or with a specified periodicity, and also allows you to capture an image without the mouse cursor.

Features

Capturing the window with scroll bars
The developers of SnagIt realized a truly invaluable function - the capture of windows and screen objects with scroll bars. Let's say you need a snapshot of a window whose content does not fit on the screen at all desire. What to do in this situation? Just take pictures of it in parts and glue the fragments in a graphics editor. And what does SnagIt offer? Yes it is very simple - choose as the image source the type of screen object with scrolling, initialize the capture, scroll the contents of the window or wait for the program to do it yourself, and get the finished image.

Capturing text
You can extract text from a dialog box that can not be copied, or create a text list of files displayed in the Windows Explorer window.

Automatically processing and saving snapshots
SnagIt can automatically process the captured screenshot with the built-in filters that allow you to change the size and scale of the image, set the desired color depth, perform color correction, add a frame, shadows, watermarks, title, and cropping effects. The program also allows you to automatically send the processed image to the clipboard, to the printer, to the selected application, to send it by e-mail or using the instant messaging program, and also save to a file of the specified format, and the file name is formed on the basis of customizable templates.

Created profiles
Controlling the parameters for capturing, processing and displaying screen snapshots is done using the SnagIt configuration profiles. You can create several different profiles for quick capture, or you can select the desired profile using the SnagIt OneClick pop-up toolbar or the main application window. In most cases, SnagIt allows you to fully automate the process of preparing screenshots - you just select a profile containing the required parameters for capturing, processing and saving snapshots, and to capture the image or the desired object-everything else the program does for you.

Built-in raster editor SnagIt Editor
Overlay of the formatted text - color, font, transparency, volumetric shadow.
Image processing - rotation, cropping, scaling.
Brushes, stamps, sprayers, pencils, lines, arrows, geometric shapes, pipette for capturing colors, figured selection of image areas.
More than 50 levels of cancellation.
Burn the finished image to a file, copy to the clipboard, send it to print or by e-mail.

Built-in vector editor SnagIt Studio
Add annotations, comments, figured callouts and inscriptions, stamps, arrows, icons, trunks, etc. using the library of finished vector elements. It contains the functions of alignment, placement, resizing, rotation, filling and other operations on objects.

Built-in image catalog SnagIt Catalog Browser
In addition to fast browsing, it can also be used to perform group and batch renaming / conversion of files using name templates and built-in SnagIt filters (resizing, cropping, rotating, changing depth and color correction, adding frames, watermarks, backgrounds, etc.) . In addition, it contains powerful tools for creating web-based image galleries.

Plug-ins SnagIt and built-in COM-server
Plug-ins for Internet Explorer and Firefox, as well as for Microsoft Word, PowerPoint, Excel, Microsoft Outlook and Adobe FrameMaker provide fast and convenient capture and insert images directly into applications. The built-in COM server allows you to manage the operation of the SnagIt program using Visual Basic and VB scripts, as well as Visual C ++ applications.

Changes in the version

Fixed a scrolling capture bug with Chrome
Various other bug fixes

Assembly Features

Type: installation
Languages: Russian, english
Activation: keygen-F4CG

Command line parameters:
Silent installation of the Russian version: / S / RU
Quiet installation of the English version: / S / EN
Selecting the installation location: / D = PATH

Key / D = PATH should be specified most recent
For example: TechSmith.SnagIt.v13.1.3.7993.exe / S / RU / D = C: \ MyProgram

Note !!! When installed, on the first page of the installer, you will be prompted to change the browser home page. Do not forget to remove the check mark. ]]>
TeamViewer Corporate v12 0 82216 Final + Patch http://glodls.to/torrent.php?id=2889318 http://glodls.to/torrent.php?id=2889318 Sat, 21 Oct 2017 10:11:53 +0100 Apps
----------------------
::Description::
----------------------
More than 200,000,000 Users spread over more than 200 countries already use TeamViewer – when will you start? TeamViewer is ready to use, right after downloading! Download, execute, and get started! – Your first session will start in less than a minute.Support, assist, interact, and collaborate with people. Exchange information. Access and use technology. One tool makes it possible to work as if you were all in the same room without travel time and expenses. With TeamViewer, you have everything you need right in front of you. Solve issues remotely or bring customers and colleagues together without complex steps or onerous prep time. TeamViewer is designed to get you working in seconds on any device. TeamViewer enables you to do what you want without any hassle and without any worries. Private data, private conversations, and private meetings stay that way.
----------------------
::Screenshots::
----------------------

[img]https://i1.wp.com/softhound.com/wp-content/uploads/2017/05/teamviewer.png[/img] ]]>
SUPERAntiSpyware Professional 6 0 1250 + License Key http://glodls.to/torrent.php?id=2889317 http://glodls.to/torrent.php?id=2889317 Sat, 21 Oct 2017 10:11:08 +0100 Apps

SUPERAntiSpyware Professional 6.0.1250 + License Key

SUPERAntiSpyware is the most thorough scanner on the market. Our Multi-Dimensional Scanning and Process Interrogation Technology will detect spyware that other products miss! SUPERAntiSpyware will remove ALL the Spyware, NOT just the easy ones! SUPERAntiSpyware features our unique Process Interrogation Technology (PIT) that allows threats to be detected no matter where they are hiding on your system. Many new types of threats utilize "Rootkits" or "Kernel Drivers" to hide themselves to avoid detection by standard anti-spyware applications. SUPERAntiSpyware's Process Interrogation Technology locates even the toughest of threats. SUPERAntiSpyware is a next generation scanning system that goes beyond the typical rules based scanning methods. Our Multi-Dimensional Scanning system detects existing threats as well as threats of the future by analyzing threat characteristics in addition to code patterns.


Installation Instructions

1. Download & Unpack
2. Follow instructions given in "Readme.txt file
3. That's all, Enjoy!

Screenshots

[img]https://s1.postimg.org/9d805sqvxr/p_RCf_VT6_LHvexa3zn_XB03_F2_OTVQBA69_Ow.jpg[/img] ]]>
SUPERAntiSpyware Professional 6 0 1250 + Key http://glodls.to/torrent.php?id=2889316 http://glodls.to/torrent.php?id=2889316 Sat, 21 Oct 2017 10:10:31 +0100 Apps
SUPERAntiSpyware Professional 6.0.1250 + Key



SUPERAntiSpyware is the most thorough scanner on the market. Our Multi-Dimensional Scanning and Process Interrogation Technology will detect spyware that other products miss! SUPERAntiSpyware will remove ALL the Spyware, NOT just the easy ones! SUPERAntiSpyware features our unique Process Interrogation Technology (PIT) that allows threats to be detected no matter where they are hiding on your system. Many new types of threats utilize "Rootkits" or "Kernel Drivers" to hide themselves to avoid detection by standard anti-spyware applications. SUPERAntiSpyware's Process Interrogation Technology locates even the toughest of threats. SUPERAntiSpyware is a next generation scanning system that goes beyond the typical rules based scanning methods. Our Multi-Dimensional Scanning system detects existing threats as well as threats of the future by analyzing threat characteristics in addition to code patterns.


FEATURES -
• Quick, Complete and Custom Scanning of HDD, Registry, Memory and more
• Detect and Remove Spyware, Adware, Malware, Trojans, Dialers, Worms, KeyLoggers and many other threats
• Repair broken Internet Connections, Desktops, Registry Editing, Task Manager and more
• Real-Time Blocking of threats
• Schedule either Quick, Complete or Custom Scans Daily or Weekly
• Quarantine items detected and removed for complete protection
• Detailed scan logs with complete information about detected and removed threats and their locations ]]>
Sony Catalyst Browse Suite 2017 2 1 + Crack http://glodls.to/torrent.php?id=2889315 http://glodls.to/torrent.php?id=2889315 Sat, 21 Oct 2017 10:09:56 +0100 Apps
Sony Catalyst Browse Suite 2017.2.1 + Crack



Catalyst Browse, a cross-platform viewing and logging tool for all Sony Pro formats, offers streamlined media management that simplifies your workflow and secures your content. Catalyst Prepare - The fast, simple, reliable path from camera to post.


FEATURES -
Catalyst Prepare takes care of all of your media prep needs:
- View your media directly from a camera, deck, or card reader
- Make a full-volume backup with checksum verification
- Organize clips into bins
- Batch copy clips
- Batch transcode clips
- Make color adjustments and apply looks
- Set in/out points
- Establish multichannel audio assignments
- Batch upload clips Ci, the Sony video cloud service
- Assemble a rough cut with the Storyboard feature

Catalyst Browse
The complex world of media production requires powerful media management. Catalyst Browse, a cross-platform viewing and logging tool for all Sony Pro formats, offers streamlined media management that simplifies your workflow and secures your content.

Catalyst Browse is a media assistant that lets you browse files from your Sony camera, deck, or card reader with detailed views of individual clips; see and edit media metadata; accurately view video using source colour space, and apply colour correction and colour looks. Once you've selected the clips you need, you can copy them to a local hard drive or connected NAS, upload to Sony Media Cloud Services Ci, transcode to a variety of formats, as well as create, ingest, and export Sony Professional Disc clip lists.

Browse
Quickly browse files on your device using a visual thumbnail view or detailed list.

View
See the details of each clip, check focus, mark in and out points, adjust colours, and edit metadata.

Fast Copy
Copy all clips on the media, a subset, or only the desired portion of a clip to save time and space.

Ultra Wide Colour Gamut
Review with confidence the full range of colour captured by your S-Log and RAW Sony cameras. Apply colour correction, and import/export standard ASC-CDL files with other workflow tools to save time.

Clip Lists
Create, import, and export Sony Professional Disc clip lists for quick play-out needs.

Transcode and Cloud
Transcode clips to a variety of video production formats. Upload clips directly to the Sony Ci Media Cloud Services for collaborative team review. ]]>
The Guardian Brothers 2016 720p WEBRip DD5.1 X264-TURG[EtHD] http://glodls.to/torrent.php?id=2889314 http://glodls.to/torrent.php?id=2889314 Sat, 21 Oct 2017 10:09:42 +0100 Movies EtHD - Et High-Definition Movies

-----------------------------------------------------

[url=https://extraimage.net/image/TYLF][img]https://extraimage.net/images/2017/10/21/9d913dfe0d7d256288c8a57200ef7598.jpg[/img][/url]

The Guardian Brothers 2016 720p WEBRip DD5.1 X264-TURG

http://www.imdb.com/title/tt4788934/

[Video Bitrate]:.............: 4183 kbps
[Duration]:.............: 1h 25mn
[Video Codec]:.............: AVC
[Resolution]:.............: 1280x536 px
[Aspect Ratio]:.............: 2.40:1
[Audio Codec]:.............: AC-3
[Audio Bitrate]:.............: 384 kbps
[Audio Channels]:.............: 5.1ch
[Audio Language]:.............: English

Genre .......................: Animation | Family

[color=green][b]#EtHD -> To avoid fakes, ALWAYS check that the torrent was added by EtHD [/b][/color]


ETTV Home -- [url]https://www.ettv.tv[/url]

[color=green][b]To keep us going Support us by donating Bitcoin: 3MDamEmgKepqagtQe9eEdQ3NCrWEWjhoL5[/b][/color]

[b]Screens...[/b]
[url=https://extraimage.net/image/TYLC][img]https://extraimage.net/images/2017/10/21/323e78f6231a48df15d685180d8acc2f.th.jpg[/img][/url]
[url=https://extraimage.net/image/TYLY][img]https://extraimage.net/images/2017/10/21/6260ad2f27a7164b2feab8f5833494de.th.jpg[/img][/url]
[url=https://extraimage.net/image/TYLp][img]https://extraimage.net/images/2017/10/21/8be76a522765c42998c8c5a785045299.th.jpg[/img][/url]
[url=https://extraimage.net/image/TYLr][img]https://extraimage.net/images/2017/10/21/00d6c5dd4e6cc081a24bd97c8656c648.th.jpg[/img][/url]
[url=https://extraimage.net/image/TYLD][img]https://extraimage.net/images/2017/10/21/988ab78969d86870e4ddacf4235d3831.th.jpg[/img][/url] ]]>
Revo Uninstaller Portable 2 0 4 http://glodls.to/torrent.php?id=2889313 http://glodls.to/torrent.php?id=2889313 Sat, 21 Oct 2017 10:09:30 +0100 Apps


Revo Uninstaller Portable 2.0.4



Revo Uninstaller - innovative freeware uninstall utility. Uninstall, delete, remove programs and solve uninstalling problems. Revo Uninstaller helps you to uninstall and remove unwanted programs installed on your computer even if you have problems uninstalling and cannot uninstall them from “Windows Add or Remove Programs” control panel applet. Revo Uninstaller is a much faster and more powerful alternative to “Windows Add or Remove Programs” applet! With its advanced and fast algorithm, Revo Uninstaller analyzes an application’s data before uninstall and scans after you uninstall an application.


FEATURES -
After the program’s regular uninstaller runs, you can remove additional unnecessary files, folders and registry keys that are usually left over on your computer. Even if you have a broken installation, Revo Uninstaller scans for an application’s data on your hard disk drives and in the Windows registry and shows all found files, folders and registry keys so you can delete them.

With its unique “Hunter mode”, Revo Uninstaller offers you some simple, easy to use, but effective and powerful approaches to manage (uninstall, stop, delete, disable from auto starting) and to get information about your installed and/or running programs.
Revo Uninstaller gives you another 8 handy and powerful tools to clean up your system.

Here is the list of the tools and utilities included in Revo Uninstaller:
• Auto Start Manager – Stop programs that start automatically on Windows startup; speed up loading of Windows!
• Windows Tools Manager – Handy and useful tools bundled with every version of Windows; easily find useful system tools and options!
• Junk Files Cleaner – Find and remove unnecessary files from your computer; free up disk space and delete files you do not need!
• Browsers History Cleaner – Erase web browser history, visited pages history and temporary internet files of Internet Explorer, Firefox, Netscape and Opera web browsers; free up a lot of disk space by deleting temporary internet files like temporary saved videos, temporary flash files, temporary pictures etc!
• Office History Cleaner – Remove the history of most recently used files in MS Office; remove your tracks by deleting the list of last opened MS Office documents!
• Windows History Cleaner – Remove the history of recently opened files, delete temporary files, remove usage tracks and other history items that are saved by Windows; remove your tracks saved by Windows for a lot of operations!
• Unrecoverable Delete Tool – Erase files and folders forever; be sure that nobody could recover your files and folders after deleting!
• Evidence Remover – Make sure already deleted files, folders and other data are unrecoverable; securely erase your data! ]]>
Movavi Photo Editor 4 4 0 + Patch http://glodls.to/torrent.php?id=2889312 http://glodls.to/torrent.php?id=2889312 Sat, 21 Oct 2017 10:08:58 +0100 Apps


Movavi Photo Editor 4.4.0 + Patch



Movavi Photo Editor is the most amazing and user-friendly photo editing program you will ever need. Enjoy one-click image quality enhancing with Magic Enhance or try the advanced color correction tools for total precision. Give your portraits a makeover with advanced retouching tools. Crop, flip, rotate, and straighten images for more aesthetically pleasing composition. Compress photos that take up too much space on your PC. Movavi Photo Editor delivers much more than everyday photo editing apps – try the awesome object and background removal features!


FEATURES -
Make good photos spectacular – like a pro!
- Edit digital photos, add great filters
- Remove objects, replace backgrounds
- Crop, resize, flip and rotate frames
- Add captions and watermarks

Adjust Quality and Apply Cool Filters
Improve images, add stylish overlays and effects

Freely Transform Pictures
Adjust frames for better composition

Replace Backgrounds in an Instant
Magically transport your subjects to a new setting

Give Yourself a Makeover
Didn’t have time to apply makeup? Do it digitally!

Remove Blemishes
- Get rid of blotches, pimples, and freckles
- Erase wrinkles and scars
- Smooth out your skin
- Fix red eye

Remove Unwanted Objects
Simply erase anything that spoils the view!

Add Custom Captions for Fun
Personalize your pictures with cute captions and watermarks!
]]>
MacX HD Video Converter Pro 5 10 0 246 + Crack http://glodls.to/torrent.php?id=2889311 http://glodls.to/torrent.php?id=2889311 Sat, 21 Oct 2017 10:08:34 +0100 Apps

MacX HD Video Converter Pro 5.10.0.246 + Crack

MacX HD Video Converter Pro for Windows - Convert among HD & SD Video and Convert Video to iPhone/iPad/PS3/Xbox/Android etc. MacX HD Video Converter Pro for Windows, combined with HD video converter, DVD burner and Youtube online video downloader, it does support a wealth of HD & SD video formats, including MKV, M2TS, MTS, AVCHD, AVI, MPEG, MP4, WMV, MOV, FLV, RM, RMVB, WebM, Google TV, and many more. In addition, you can select a specific output for your Apple device i.e. iPhone/5/4S, iPod, iPad/iPad 2/iPad 3/iPad Mini as well as Windows Media Player, PSP, PS3, Xbox, Zune, Android, Blackberry etc.

Installation Instructions

1. Download & Unpack
2. Follow instructions given in "Readme.txt file
3. That's all, Enjoy!

Screenshots

[img]https://s1.postimg.org/1491o0oqpb/Ugoqigwkm_BHk_Sk_S9_WB36mg_P1_Ne_Gw1_MWV.jpg[/img] ]]>
MacX DVD Ripper Pro 8 6 0 165 + Crack http://glodls.to/torrent.php?id=2889310 http://glodls.to/torrent.php?id=2889310 Sat, 21 Oct 2017 10:08:07 +0100 Apps


MacX DVD Ripper Pro 8.6.0.165 + Crack

MacX DVD Ripper Pro for Windows is the fastest DVD ripper for windows (10/8/7) to backup DVD to ISO/hard drive, rip DVD to MP4, FLV, MOV, MPEGAVI, WMV, etc for iPhone SE/6s/6s Plus, iPad Air 2, iPad Mini 4/3/Mini with Retina, The new Apple TV, Android, HTC One M9, Samsung Galaxy S6/edge+, Galaxy Note 5/Edge, WP8, Surface, WP8, etc with 100% quality reserved.

Installation Instructions

1. Download & Unpack
2. Follow instructions given in "Readme.txt file
3. That's all, Enjoy!

Screenshots
[img]https://s1.postimg.org/8kjsq626r3/bq_PJSsf_Eni227ysr_SL7t_Uwv_PGUsn28ud.jpg[/img] ]]>
KMSAuto Net 2016 v1 5 2 Multilingual Portable http://glodls.to/torrent.php?id=2889309 http://glodls.to/torrent.php?id=2889309 Sat, 21 Oct 2017 10:07:31 +0100 Apps
----------------------
::Description::
----------------------
KMSAuto Net – the automatic KMS solution to activte the following operating systems Windows Vista, 7, 8, 8.1, Server 2008, 2008 R2, 2012, 2012 R2 VL and Retail also for Office 2010, 2013 VL editions.
----------------------
::Screenshots::
----------------------

[img]https://i2.wp.com/softhound.com/wp-content/uploads/2017/04/kmsautonet1.jpg[/img] ]]>
Never Here 2017 720p WEB-DL DD 5 1 x264 ESub http://glodls.to/torrent.php?id=2889308 http://glodls.to/torrent.php?id=2889308 Sat, 21 Oct 2017 10:07:02 +0100 Movies
General
Format : Matroska
Format version : Version 4 / Version 2
File size : 1.12 GiB
Duration : 1 h 50 min
Overall bit rate : 1 456 kb/s

Video
ID : 1
Format : AVC
Format/Info : Advanced Video Codec
Format profile : High@L3.1
Format settings : CABAC / 4 Ref Frames
Format settings, CABAC : Yes
Format settings, RefFrames : 4 frames
Codec ID : V_MPEG4/ISO/AVC
Duration : 1 h 50 min
Bit rate : 1 200 kb/s
Width : 1 280 pixels
Height : 532 pixels
Display aspect ratio : 2.40:1
Frame rate mode : Constant
Frame rate : 23.976 (23976/1000) FPS
Color space : YUV
Chroma subsampling : 4:2:0
Bit depth : 8 bits
Scan type : Progressive
Bits/(Pixel*Frame) : 0.073
Stream size : 943 MiB (82%)
Writing library : x264 core 148 r2643 5c65704
Language : English
Default : Yes
Forced : No

Audio
ID : 2
Format : AC-3
Format/Info : Audio Coding 3
Format settings, Endianness : Big
Codec ID : A_AC3
Duration : 1 h 50 min
Bit rate mode : Constant
Bit rate : 256 kb/s
Channel(s) : 6 channels
Channel positions : Front: L C R, Side: L R, LFE
Sampling rate : 48.0 kHz
Frame rate : 31.250 FPS (1536 SPF)
Bit depth : 16 bits
Compression mode : Lossy
Stream size : 202 MiB (18%)
Language : English
Service kind : Complete Main
Default : Yes
Forced : No

Text
ID : 3
Format : UTF-8
Codec ID : S_TEXT/UTF8
Codec ID/Info : UTF-8 Plain Text
Duration : 1 h 48 min
Bit rate : 51 b/s
Count of elements : 1062
Stream size : 41.3 KiB (0%)
Language : English
Default : Yes
Forced : No

Menu
00:00:00.000 : en:1
00:06:38.000 : en:2
00:13:30.000 : en:3
00:20:08.000 : en:4
00:27:41.000 : en:5
00:34:47.000 : en:6
00:40:45.000 : en:7
00:47:53.000 : en:8
00:55:18.000 : en:9
01:00:31.000 : en:10
01:07:14.000 : en:11
01:15:35.000 : en:12
01:22:27.000 : en:13
01:29:49.000 : en:14
01:35:54.000 : en:15
01:45:57.000 : en:16


[img]http://ssec.life/i/images/2017/10/21/2017-10-21_14h52_48.jpg[/img]
[img]http://ssec.life/i/images/2017/10/21/2017-10-21_14h52_57.jpg[/img]
[img]http://ssec.life/i/images/2017/10/21/2017-10-21_14h54_03.jpg[/img]
[img]http://ssec.life/i/images/2017/10/21/2017-10-21_14h55_39.jpg[/img]
[img]http://ssec.life/i/images/2017/10/21/2017-10-21_14h56_07.jpg[/img]

]]>
KMSAuto Net 2016 1 5 2 Portable http://glodls.to/torrent.php?id=2889307 http://glodls.to/torrent.php?id=2889307 Sat, 21 Oct 2017 10:07:00 +0100 Apps
KMSAuto Net 2016 1.5.2 Multilingual Portable



KMSAuto Net - the automatic KMS solution to activte the following operating systems Windows Vista, 7, 8, 8.1, Server 2008, 2008 R2, 2012, 2012 R2 VL and Retail also for Office 2010, 2013 VL editions.

Additionally, the program activates:
Windows 8.1 Single Language;
Windows 8.1 Core;
Windows 8.1 Core N;
Windows 8.1 Pro WMC;
Windows Embedded 8.1 Industry Pro;
Windows Server 2012 R2 Standard;
Windows Server 2012 R2 Datacenter.
It is based on KMS Server Service from mikmik38 (MDL).

Work with the program
1. Select a product to install key and activation;
2. Type in the input box key the key for the selected product;
3. Click "Set key".

What's New :-
-KMS Server Service v2.0.4.
-Added new GVLK Keys for Windows. ]]>
IObit Uninstaller Pro v7 1 0 17 Final + Crack http://glodls.to/torrent.php?id=2889306 http://glodls.to/torrent.php?id=2889306 Sat, 21 Oct 2017 10:06:36 +0100 Apps
----------------------
::Description::
----------------------
Integrated with up to date uninstall technology, IObit Uninstaller helps you remove unneeded programs easily even when Windows “Add or Remove Programs” fails. Besides removing unwanted applications, it also scans and removes leftovers easily. The most attractive part is that it makes a restore image before every uninstallation. With the new added Toolbars Uninstallation Module, IObit Uninstaller helps you remove unwanted toolbars thoroughly.
----------------------
::Screenshots::
----------------------

[img]https://i0.wp.com/softhound.com/wp-content/uploads/2017/02/iobituninstaller6.jpg[/img] ]]>
Internet Download Manager (IDM) 6 29 Build 2 + Crack http://glodls.to/torrent.php?id=2889305 http://glodls.to/torrent.php?id=2889305 Sat, 21 Oct 2017 10:06:02 +0100 Apps


Internet Download Manager (IDM) 6.29 Build 2 + Patch



Internet Download Manager has a smart download logic accelerator that features intelligent dynamic file segmentation and safe multipart downloading technology to accelerate your downloads. Unlike other download accelerators and managers that segment files before downloading starts, Internet Download Manager segments downloaded files dynamically during download process.


FEATURES -
• All popular browsers and applications are supported!
Internet Download Manager has been tested with the following browsers: Internet Explorer, MSN Explorer, AOL, Netscape Communicator, Netscape 6, Netscape 7, Mozilla, Mozilla Firefox, Mozilla Firebird, Opera, NetCaptor, UltraBrowser, Slim Browser, Avant Browser, MyIE2, Optimal Desktop, Ace Explorer, Advanced Browser, 27 Tools-in-1 Wichio Browser, WindowSurfer, 550 Access Browser, FineBrowser Freeware, Kopassa Browser, Fast Browser Pro, Enigma Browser, GoSuRF, K-Meleon, Smart Explorer, The Off By One Web Browser, Smartalec Voyager, CrystalPort AppCapture, The Family Browser, XANA Web Browser, Bluto, AutoSurf, 32bit Web Browser, BrowseMan, WrestlingBrowser, Eminem Browser, UltraBrowser, Cygsoft LDAP Browser, and Net M@nager. Internet Download Manager supports all versions of popular browsers, and can be integrated into any 3rd party Internet applications.

• Easy downloading with one click.
When you click on a download link in a browser, IDM will take over the download and accelerate it. IDM supports HTTP, FTP, HTTPS and MMS protocols.

• Download Speed Acceleration.
Internet Download Manager can accelerate downloads by up to 5 times due to its intelligent dynamic file segmentation technology. Unlike other download managers and accelerators Internet Download Manager segments downloaded files dynamically during download process and reuses available connections without additional connect and login stages to achieve best acceleration performance.

• Download Resume.
Internet Download Manager will resume unfinished download from the place where they left off.

• YouTube grabber.
Internet Download Manager can grab FLV videos from popular sites like YouTube, MySpaceTV, and Google Video.

• Simple installation wizard.
Quick and easy installation program will make necessary settings for you, and check your connection at the end to ensure trouble free installation of Internet Download Manager

• Drag and Drop.
You may simply drag and drop links to IDM, and drag and drop downloaded files out of Internet Download Manager.

• Automatic Antivirus checking.
Antivirus checking makes your downloads free from viruses and trojans.

• Advanced Browser Integration.
When enabled, the feature can be used to catch any download from any application. None of download managers have this feature.

• Built-in Scheduler.
Internet Download Manager can connect to the Internet at a set time, download the files you want, disconnect, or shut down your computer when it's done.

• IDM includes web site spider and grabber.
IDM downloads all required files that are specified with filters from web sites, for example all pictures from a web site, or subsets of web sites, or complete web sites for offline browsing. It's possible to schedule multiple grabber projects to run them once at a specified time, stop them at a specified time, or run periodically to synchronize changes.

• IDM supports many types of proxy servers.
For example, IDM works with Microsoft ISA, and FTP proxy servers.

• IDM supports main authentication protocols:
Basic, Negotiate, NTLM, and Keberos. Thus IDM can access many Internet and proxy servers using login name and password.

• Download All feature.
IDM can add all downloads linked to the current page. It's easy to download multiple files with this feature.

• Customizable Interface.
You may choose the order, and what buttons and columns appear on the main IDM window.

• Download Categories.
Internet Download Manager can be used to organize downloads automatically using defined download categories.

• Quick Update Feature.
Quick update may check for new versions of IDM and update IDM once per week.

• Download limits.
Progressive downloading with quotas feature. The feature is useful for connections that use some kind of fair access policy (or FAP) like Direcway, Direct PC, Hughes, etc. ]]>
Bargain.Hunt.S45E05.720p.HDTV.x264-DOCERE http://glodls.to/torrent.php?id=2889304 http://glodls.to/torrent.php?id=2889304 Sat, 21 Oct 2017 10:05:38 +0100 TV
[url=https://www.sparrowpics.com/image/kbFon][img]https://www.sparrowpics.com/images/2017/07/04/kbFon.png[/img][/url]

[b]Complete name : bargain.hunt.s45e05.720p.hdtv-docere.mkv
Format : Matroska
Format version : Version 4 / Version 2
File size : 887 MiB
Duration : 43 min 29 s
Overall bit rate : 2 852 kb/s
Encoded date : UTC 2017-10-21 09:57:08
Writing application : mkvmerge v9.6.0 ('Slave To Your Mind') 64bit
Writing library : libebml v1.3.4 + libmatroska v1.4.5

Video
ID : 1
Format : AVC
Format/Info : Advanced Video Codec
Format profile : High@L4.1
Format settings, CABAC : Yes
Format settings, ReFrames : 5 frames
Codec ID : V_MPEG4/ISO/AVC
Duration : 43 min 29 s
Bit rate : 2 657 kb/s
Width : 1 280 pixels
Height : 720 pixels
Display aspect ratio : 16:9
Frame rate mode : Constant
Frame rate : 50.000 FPS
Color space : YUV
Chroma subsampling : 4:2:0
Bit depth : 8 bits
Scan type : Progressive
Bits/(Pixel*Frame) : 0.058
Stream size : 827 MiB (93%)
Writing library : x264 core 152 r2851 ba24899
Encoding settings : cabac=1 / ref=5 / deblock=1:0:0 / analyse=0x3:0x113 / me=hex / subme=8 / psy=1 / psy_rd=1.00:0.00 / mixed_ref=1 / me_range=16 / chroma_me=1 / trellis=2 / 8x8dct=1 / cqm=0 / deadzone=21,11 / fast_pskip=1 / chroma_qp_offset=-2 / threads=6 / lookahead_threads=1 / sliced_threads=0 / nr=0 / decimate=1 / interlaced=0 / bluray_compat=0 / stitchable=1 / constrained_intra=0 / bframes=3 / b_pyramid=2 / b_adapt=1 / b_bias=0 / direct=3 / weightb=1 / open_gop=0 / weightp=2 / keyint=250 / keyint_min=25 / scenecut=40 / intra_refresh=0 / rc_lookahead=50 / rc=crf / mbtree=1 / crf=21.0 / qcomp=0.60 / qpmin=0 / qpmax=69 / qpstep=4 / ip_ratio=1.40 / aq=1:1.00
Default : Yes
Forced : No
Color range : Limited
Color primaries : BT.709
Transfer characteristics : BT.709
Matrix coefficients : BT.709

Audio
ID : 2
Format : AC-3
Format/Info : Audio Coding 3
Format settings, Endianness : Big
Codec ID : A_AC3
Duration : 43 min 29 s
Bit rate mode : Constant
Bit rate : 192 kb/s
Channel(s) : 2 channels
Channel positions : Front: L R
Sampling rate : 48.0 kHz
Frame rate : 31.250 FPS (1536 spf)
Bit depth : 16 bits
Compression mode : Lossy
Stream size : 59.7 MiB (7%)
Service kind : Complete Main
Default : Yes
Forced : No[/b]

[url=https://www.sparrowpics.com/image/kbJ5y][img]https://www.sparrowpics.com/images/2017/07/04/kbJ5y.png[/img][/url]

[URL=https://tv.sparrowpics.com/image/F9npB][IMG]https://tv.sparrowpics.com/images/2017/10/21/F9npB.th.jpg[/IMG][/URL]

[URL=https://tv.sparrowpics.com/image/F9B0Y][b]Click To View Screenshot[/b][/URL]

[URL=https://tv.sparrowpics.com/image/F9C3T][b]Click To View Screenshot[/b][/URL]

[URL=https://tv.sparrowpics.com/image/F9Ptb][b]Click To View Screenshot[/b][/URL][/center] ]]>
Icecream Screen Recorder Pro 4 98 + Activator http://glodls.to/torrent.php?id=2889303 http://glodls.to/torrent.php?id=2889303 Sat, 21 Oct 2017 10:05:36 +0100 Apps


Icecream Screen Recorder Pro 4.98 + Activator



Icecream Screen Recorder Pro - easy to use program for recording video from your computer screen (recording games, Skype, webinars, and more), as well as how to create screenshots of all windows, and the selected area. The app has a complete set of tools required for professional video capture from the screen. Screen Recorder allows you to capture the selection of any screen size. If you need to allocate a portion of the screenshot or add text comments to him, this program has the drawing tools. They allow you to draw on the screenshot shapes, lines and text overlay.


FEATURES -
• Choose the area to create a video screenshot or right on the screen of your computer with a single click.
• Draw, tracing, show arrows or print text on the future of the screenshot or video directly while shooting.
• Quick access to all the recorded video from the screen or a screenshot.
• Adjust the microphone volume and system sounds.
• Save a screenshot to the clipboard to send on Skype or e-mail.
• You decide: whether to remove the mouse, turn off the screensaver there, whether to hide the icons on the desktop, etc.
• One-click to send a screenshot Icecream Apps server to receive and send short links to friends or partners.
• Use hot keys to control the video recording process with the screen and create screenshots.

Version PRO:
- Unlimited recording time
- Changing the output video format - WEBM, MKV, MP4
- Changing the output video codecs - MPEG4, H264, VP8
- Set the timer recording
- Setting your own votermark Video
- Turning off the countdown before recording
- Perpetual license for 2 computers
- Commercial use
]]>
DuckTales.2017.S01E07.WEB.x264-TBS[ettv] http://glodls.to/torrent.php?id=2889302 http://glodls.to/torrent.php?id=2889302 Sat, 21 Oct 2017 10:05:18 +0100 TV Et TV Shows


DuckTales.2017.S01E07.WEB.x264-TBS


[Format]: Matroska
[Duration]: 22mn 33s
[Resolution]: 992 x 558 pixels
[Display aspect ratio]: 16:9
[Frame rate mode]: Variable
[Original frame rate]: 24.000 fps


[color=green][b]#ettv -> To avoid fakes, ALWAYS check that the torrent was added by ettv[/b][/color]




ETTV Home -- [url]https://www.ettv.tv[/url]

[color=green][b]To keep us going Support us by donating Bitcoin: 3MDamEmgKepqagtQe9eEdQ3NCrWEWjhoL5[/b][/color]

[b]Screens...[/b]
[url=https://extraimage.net/image/TYLJ][img]https://extraimage.net/images/2017/10/21/e6785624db2402bd539a74e4b7cfede1.th.jpg[/img][/url] ]]>
FL Studio 12 5 1 5 Signature Bundle + Crack For Windows http://glodls.to/torrent.php?id=2889301 http://glodls.to/torrent.php?id=2889301 Sat, 21 Oct 2017 10:04:49 +0100 Apps


Software version: 12.5.1.5 (build 5)
Language: English
Platform: x86 / x64
Developer: image-line
Crack: Replacement of files (dll)

System requirements: Processor: 2Ghz Intel Pentium 4 / AMD Athlon 64 (or later) compatible CPU with full SSE2 support. Operating systems: 32 or 64 Bit versions of Windows 10 / 8.0 / 8.1 / 7, Vista, XP (service pack 3) (or) Intel Mac with Boot Camp / Windows. Running XP (service pack 3), Vista or Windows 10 / 8.0 / 8.1 / 7 (in 32 or 64 Bit) (or) Intel Mac with OS X 10.8 or 10.9 for the FL Studio Mac OS X BETA (Crossover Wrapped)
Attention: Yosemite not supported.
RAM: 1 Gb or more RAM recommended
Hard disk: 1 Gb free disk space
Sound Card: Soundcard with DirectSound drivers. ASUS / ASIO2 compatible (FL Studio installs with generic ASIO4ALL drivers)

Description : FL Studio Producer Edition 12 is a new version of one of the best programs in the world for creating your own music, with its help you can create your own tracks of any style. The program has all the necessary functions for working with sound: recording, mixing, mastering and also has a large number of synthesizers and virtual plug-ins.

Additional Information

Translation of Goggle:
Completely redesigned scalable interface: any screen size or resolution that you use, FL Studio will always fit
Multi-Touch: Multi-touch capabilities extend to Mixer.
Browser: New category tabs and the ability to delete content on the right mouse button
Channel: The Channel Settings menu has moved from the menu toolbar to the channel rack.
Channel settings: have been integrated into the Plugin wrapper (no more channel settings than the pop-up menu).
Menu Template: Pattern The menu has been moved from the Channel rack in the toolbar menu and Pattern Selector.
Piano Roll: Piano Roll Auto-zoom can now be disabled in the Settings> General> Automatic Piano Roll
Playlist: Multiple drag and drop for sound files on the Playlist (from the Windows file browser).
Stepsequencer: Step sequence is now interchangeable with piano rolls.
VST plug-ins: installation and plug-in VST opening is improved and simplified.
Fruity Formula Controller: Updated, new user interface.
Fruktovo Envelope Controller: Updated, 8 articulators, Mod X / Y ENV, Smart Bugrah, a new user interface.
Fruit Controller Keyboard: Attack Smoothing, New User Interface
Changes in version 12.5.1.5
history.php ]]>
ESET NOD32 Antivirus & Smart Security 10 1 219 1+ Pre-Cracked http://glodls.to/torrent.php?id=2889300 http://glodls.to/torrent.php?id=2889300 Sat, 21 Oct 2017 10:04:25 +0100 Apps


Software version: 10.1.219.1
Language: Russian + English
Platform: x86 / x64
Developer: ESET
Medicine: All cured
Author of assembly: KpoJIuK

System requirements:

• Microsoft® Windows® XP (SP3)
· 600 MHz
· 128MB RAM of system memory
· 320 MB available space
· Super VGA (800 x 600) )

• Microsoft® Windows® 10, 8.1, 8, 7, Vista, Home Server
· 1 GHz 32-bit (x86) / 64-bit (x64)
· 512MB RAM of system memory
· 320 MB available space
· Super VGA (800 x 600)

ESET NOD32 Smart Security- A new version of the complex antivirus NOD32 with cloud technology ESET Live Grid. Solution "all-in-one" with multi-level protection. Protect your computer or laptop from loss or theft with the functionality of the new Anti-Theft component. The Anti-Theft feature allows you to locate and recover a lost or stolen laptop or computer.
After you mark on the ESET Anti-Theft web portal that the computer is lost or stolen, the device is automatically monitored and allows you to monitor the position of the laptop or computer on the map using Wi-Fi. When a lost or stolen device connects to the network, you have access to all the information gathered on the Anti-Theft portal.

Antivirus NOD32 - A new anti-virus solution from ESET, offering improved heuristic analysis of unknown threats, ESET's "cloud" technology for determining the reputation of files and an updated interface. It includes the ability to automatically scan a computer during its idle time, scan files directly at boot time, and the ability to undo installed updates.

The main components of ESET NOD32 Smart Security

• Computer protection
· Antivirus and antispyware. Protection of the file system in real time.
· Proactive HIPS protection: the intrusion prevention system on the node monitors the events in the operating system and responds to them in accordance with the existing set of rules.
· Game Mode.

• Protection on the Internet
· Protection of Internet access: Web protection is scanned for the presence of malicious programs and Web sites all traffic over HTTP and HTTPS.
· Email client protection: provides control over data exchange via POP3 and IMAP protocols.
· Protection from spam: unwanted messages are scanned, that is, spam.
· Phishing Protection: provides the filtration of websites suspected of distributing content that is intended to be manipulated by a user in order to obtain confidential information from it.

• Network protection
• Personal firewall
• Protection against network attacks (IDS)
• Protection against botnets


Main Features

• Protecting bank payments
• When you use Internet banking or online payment websites, a secure browser can protect your sensitive data. It provides additional protection for banking transactions, credit card numbers and other confidential information.

• Find and return the stolen laptop with the Anti-Terror function
· Automatically monitor lost devices.
· Displays the position of the stolen computer on the map based on Wi-Fi networks within their range.
· Allows you to see thieves using the built-in camera.
· Collecting screen shots of a lost laptop.

• Personal firewall - your connections are under control
· Prevents unauthorized use of your personal data.
· Warns when connecting to unknown networks and suggests switching to enhanced protection mode.
· Makes the computer invisible to other devices connected to the same network.

• Work and play without slowing down.
· Elimination of all types of threats, including viruses, rootkits, Internet worms and spyware.
· Acceleration of verification due to "cloud" scanning.
· Blocks CD, DVD, USB and other storage media and devices.
· Low impact on system performance.

• Secure Internet for children
· Choose one of the predefined categories depending on the age of your children.
· Allows you to select one of the predefined profiles - child, teenager and parent.
· Allows you to set a password to protect the settings from changes and unauthorized deletion.


New in ESET NOD32 Smart Security 10 (2017)

• ESET NOD32 Smart Security version 10 includes the following enhancements:
· Home network protection: protect your computers from incoming network threats.
· Protection of the web camera: monitoring of processes and applications that access the camera connected to the computer.
· Protection against script-based attacks: proactive protection against dynamic attacks based on scenarios and unusual attack vectors.
· High performance and little impact on the system: version 10 provides protection against new types of threats and at the same time makes the most of system resources, allowing you to enjoy the performance of your computer.
· Compatible with Windows 10: ESET fully supports Microsoft Windows 10.


The main components of ESET NOD32 Antivirus

• Computer
· Real-time file system
protection · Document security ·
Device monitoring
· Proactive HIPS protection
· Game mode
· Anti-Stealth (rootkit detection)

· Internet and email
· Internet access protection · Email
client
protection · Phishing protection


Main Features

• Intelligent mode "Smart mode" for HIPS: is located between the automatic and interactive modes. Is able to detect suspicious activity and malicious processes in the system.
• Exploit Blocker: an additional level of protection for vulnerable applications (for example, browsers, e-mail clients, PDF viewers). It supports Java and helps to improve detection and protection against such vulnerabilities.
• Optional memory scanning module. The HIPS module includes an additional memory scanning module that scans running applications when their state changes to detect possible suspicious or malicious actions. Works in conjunction with the Exploit Blocker to strengthen the protection against malicious programs designed to bypass detection of antivirus products through the use of obfuscation and / or encryption.
• ESET SysRescue Live: A new generation of ESET SysRescue utility that allows you to create a boot disk in the form of a USB flash drive or CD / DVD drive with the ability to scan and clean the system from threats even if Windows can not boot.
• Protection from vulnerabilities: additional advanced filtering capabilities to detect various types of attacks and vulnerabilities that can be used against the computer.
• Device monitoring. This module replaced the removable media protection module, which was available in versions 5 and 6. It allows you to scan, block or configure advanced filters and permissions, and also choose how to access the device and use it for the user.
• Improved protection against phishing. Added blocking of fraudulent sites. Users can report suspicious sites and sites that are mistakenly qualified as fraudulent.


New in version 10.1.219.1

Improved support for people with impaired vision.
Internal improvements and fixes (for example, the option "Pause protection" has returned to the antivirus menu in the tray).

]]>
eBook Converter Bundle 3 17 1019 410 + Patch http://glodls.to/torrent.php?id=2889299 http://glodls.to/torrent.php?id=2889299 Sat, 21 Oct 2017 10:03:43 +0100 Apps


eBook Converter Bundle 3.17.1019.410 + Patch

eBook Converter Bundle is tools decrypt and convert eBooks purchased from Kindle, Nook, Google Play, Sony, Kobo and other online eBook stores in batch with 1-click. it is the most easy-to-use eBook conversion software ever, convert ebook to PDF / ePub / Kindle / Word / Html / Text format with 1-click, it is award-winning and a “must-have” tool for all eBook reader. 100% safe with no adware, spyware, or viruses.

Installation Instructions

1. Download & Unpack
2. Follow instructions given in "Readme.txt file
3. That's all, Enjoy!

Screenshots
[img]https://s1.postimg.org/8z0fzkk3xb/BC720_Uz0rv_Vufiic_X6lw_Ccw_IXJ3zn_SOY.jpg[/img] ]]>
Family 17 10 17 Liza Rowe I Want My Stepdads Big Black Cock XXX 480p MP4-TK http://glodls.to/torrent.php?id=2889298 http://glodls.to/torrent.php?id=2889298 Sat, 21 Oct 2017 10:02:59 +0100 Adult XXX
[b]Screenshots:[/b]

[url]http://imagerar.com/imgs-59eb1b54de06b.html[/url]

[url]http://imagerar.com/imgs-59eb1b54c496a.html[/url]

[url]http://imagerar.com/imgs-59eb1b5464a79.html[/url]

[url]http://imagerar.com/imgs-59eb1b14c25a0.html[/url]

File Size : 229 MiB
Duration : 27mn 49s
Video : h264, yuv420p, 854x480p, 1024 Kbps
Audio : aac , 2 ch, stereo , 128 Kbps ]]>
Directory Monitor Pro 2 12 0 4 + Patch http://glodls.to/torrent.php?id=2889297 http://glodls.to/torrent.php?id=2889297 Sat, 21 Oct 2017 10:02:17 +0100 Apps
Directory Monitor Pro 2.12.0.2 + Patch



You can use Directory Monitor for the surveillance of certain directories and it will notify you of file changes, deletions, modifications, and new files in real-time. You can optionally execute an application when a change occurs. Work across desktop and mobile devices to create and enhance your photographs, web and mobile app designs, 3D artwork, videos, and more.


FEATURES -
Monitor directories for file changes, modifications, deletions and new files in real-time.
Monitor local directories or network shares (including hidden shares).
Run as a Windows service.
Optionally execute an application when an event occurs.
Log the user on the network that made the changes.
Include/exclude filtering on files being monitored.
Quickly tell if a directory is available and being monitored.
Balloon notifications whenever an event is fired.
Auto updating, import/export and more. ]]>
Cimaware OfficeFIX Professional 6 121 + Crack http://glodls.to/torrent.php?id=2889295 http://glodls.to/torrent.php?id=2889295 Sat, 21 Oct 2017 10:01:20 +0100 Apps


Cimaware OfficeFIX Professional 6.121 + Crack

OfficeFIX includes three or all four Office file recovery programs. Ordering OfficeFIX your data will be safe and will save you more than 40% in the cost of the products. Fix Microsoft Office files in minutes.

OfficeFIX bundles a set of tools intended for repairing corrupted Office documents and retrieving their content. The suite includes dedicated applications for recovering Word documents, Excel spreadsheets, Outlook mail files and Access databases.
The main interface of OfficeFIX provides one-click access to all the programs from within a single window. Each of the four applications rely on a user-friendly wizard, ready to assist you in carrying out a recovery task.

Installation Instructions

1. Download & Unpack
2. Follow instructions given in "Readme.txt file
3. That's all, Enjoy!

Screenshots
[img]https://s1.postimg.org/8nbbzwr5an/Bua_LA.jpg[/img] ]]>
Bargain.Hunt.S45E05.HDTV.x264-DOCERE http://glodls.to/torrent.php?id=2889267 http://glodls.to/torrent.php?id=2889267 Sat, 21 Oct 2017 10:00:31 +0100 TV
[url=https://www.sparrowpics.com/image/kbFon][img]https://www.sparrowpics.com/images/2017/07/04/kbFon.png[/img][/url]

[b]Complete name : bargain.hunt.s45e05.hdtv-docere.mkv
Format : Matroska
Format version : Version 4 / Version 2
File size : 340 MiB
Duration : 43 min 29 s
Overall bit rate : 1 092 kb/s
Encoded date : UTC 2017-10-21 09:52:28
Writing application : mkvmerge v9.6.0 ('Slave To Your Mind') 64bit
Writing library : libebml v1.3.4 + libmatroska v1.4.5

Video
ID : 1
Format : AVC
Format/Info : Advanced Video Codec
Format profile : High@L3.1
Format settings, CABAC : Yes
Format settings, ReFrames : 5 frames
Codec ID : V_MPEG4/ISO/AVC
Duration : 43 min 29 s
Bit rate : 963 kb/s
Width : 720 pixels
Height : 404 pixels
Display aspect ratio : 16:9
Frame rate mode : Constant
Frame rate : 50.000 FPS
Color space : YUV
Chroma subsampling : 4:2:0
Bit depth : 8 bits
Scan type : Progressive
Bits/(Pixel*Frame) : 0.066
Stream size : 300 MiB (88%)
Writing library : x264 core 152 r2851 ba24899
Encoding settings : cabac=1 / ref=5 / deblock=1:0:0 / analyse=0x3:0x113 / me=hex / subme=8 / psy=1 / psy_rd=1.00:0.00 / mixed_ref=1 / me_range=16 / chroma_me=1 / trellis=2 / 8x8dct=1 / cqm=0 / deadzone=21,11 / fast_pskip=1 / chroma_qp_offset=-2 / threads=6 / lookahead_threads=1 / sliced_threads=0 / nr=0 / decimate=1 / interlaced=0 / bluray_compat=0 / stitchable=1 / constrained_intra=0 / bframes=3 / b_pyramid=2 / b_adapt=1 / b_bias=0 / direct=3 / weightb=1 / open_gop=0 / weightp=2 / keyint=250 / keyint_min=25 / scenecut=40 / intra_refresh=0 / rc_lookahead=50 / rc=crf / mbtree=1 / crf=22.0 / qcomp=0.60 / qpmin=0 / qpmax=69 / qpstep=4 / ip_ratio=1.40 / aq=1:1.00
Default : Yes
Forced : No
Color range : Limited
Color primaries : BT.709
Transfer characteristics : BT.709
Matrix coefficients : BT.709

Audio
ID : 2
Format : AAC
Format/Info : Advanced Audio Codec
Format profile : LC
Codec ID : A_AAC
Duration : 43 min 29 s
Bit rate : 125 kb/s
Channel(s) : 2 channels
Channel positions : Front: L R
Sampling rate : 48.0 kHz
Frame rate : 46.875 FPS (1024 spf)
Compression mode : Lossy
Stream size : 39.0 MiB (11%)
Default : Yes
Forced : No[/b]

[url=https://www.sparrowpics.com/image/kbJ5y][img]https://www.sparrowpics.com/images/2017/07/04/kbJ5y.png[/img][/url]

[URL=https://tv.sparrowpics.com/image/F9LC0][IMG]https://tv.sparrowpics.com/images/2017/10/21/F9LC0.th.jpg[/IMG][/URL]

[URL=https://tv.sparrowpics.com/image/F9siy][b]Click To View Screenshot[/b][/URL]

[URL=https://tv.sparrowpics.com/image/F92F3][b]Click To View Screenshot[/b][/URL]

[URL=https://tv.sparrowpics.com/image/F9VVf][b]Click To View Screenshot[/b][/URL][/center] ]]>
Capture One Pro 10 2 0 74 Pre Cracked http://glodls.to/torrent.php?id=2889260 http://glodls.to/torrent.php?id=2889260 Sat, 21 Oct 2017 10:00:23 +0100 Apps


Capture One Pro 10.2.0.74 Pre Cracked

Capture One Pro 10 - The standout choice in image editing software! Designed with the world's most demanding photographers, Capture One Pro is the Professionals' choice in imaging software.

Installation Instructions

1. Download & Unpack
2. Follow instructions given in "Readme.txt file
3. That's all, Enjoy!

Screenshots
https://s1.postimg.org/1ri5w2s19r/Focus_Mask.jpg ]]>
Jimmy Kimmel 2017 10 20 Woody Harrelson WEB x264-TBS http://glodls.to/torrent.php?id=2889248 http://glodls.to/torrent.php?id=2889248 Sat, 21 Oct 2017 10:00:12 +0100 TV http://www.tvrage.com/schedule.php?show_yesterday=1. ]]> Jimmy Kimmel 2017 10 20 Woody Harrelson 720p WEB x264-TBS http://glodls.to/torrent.php?id=2889247 http://glodls.to/torrent.php?id=2889247 Sat, 21 Oct 2017 10:00:11 +0100 TV http://www.tvrage.com/schedule.php?show_yesterday=1. ]]> A Season with Navy Football S01E06 WEB H264-STRiFE http://glodls.to/torrent.php?id=2889246 http://glodls.to/torrent.php?id=2889246 Sat, 21 Oct 2017 10:00:09 +0100 TV http://www.tvrage.com/schedule.php?show_yesterday=1. ]]> A Season with Navy Football S01E06 720p WEB H264-STRiFE http://glodls.to/torrent.php?id=2889245 http://glodls.to/torrent.php?id=2889245 Sat, 21 Oct 2017 10:00:07 +0100 TV http://www.tvrage.com/schedule.php?show_yesterday=1. ]]> Active Shooter America Under Fire S01E04 WEB H264-STRiFE http://glodls.to/torrent.php?id=2889244 http://glodls.to/torrent.php?id=2889244 Sat, 21 Oct 2017 10:00:06 +0100 TV http://www.tvrage.com/schedule.php?show_yesterday=1. ]]> Active Shooter America Under Fire S01E04 720p WEB H264-STRiFE http://glodls.to/torrent.php?id=2889243 http://glodls.to/torrent.php?id=2889243 Sat, 21 Oct 2017 10:00:04 +0100 TV http://www.tvrage.com/schedule.php?show_yesterday=1. ]]> Adobe Premiere Pro CC 2018 v12 0 0 224 + Patch http://glodls.to/torrent.php?id=2889240 http://glodls.to/torrent.php?id=2889240 Sat, 21 Oct 2017 09:58:15 +0100 Apps
Adobe Premiere Pro CC 2018 v12.0.0.224 + Patch



Bring your next big thing to screens everywhere. Turn raw footage into flawless productions with Premiere Pro CC, the industry-leading video editing software. Whether you're just starting out or a seasoned pro, you can edit, adjust color, refine audio, and more — all in one seamless, integrated workflow.

FEATURES :-

Tell your story. Your way.
Premiere Pro is used by filmmakers, YouTubers, videographers, designers — anyone with a story to tell, including you.

Small-screen productions. Epic proportions.
Whatever you set out to do, do it with the same app Hollywood pros use. Start a Vlog, go viral on YouTube, or become a go-to videographer. Import footage from any camera or phone, trim clips, add titles, and adjust audio. With intuitive tools and tons of step-by-step tutorials, you'll be producing great work in no time.

Go big on the big screen.
Working on your next masterpiece? Premiere Pro is the only non-linear editor that lets you have multiple projects open, while simultaneously collaborating on a single project with your team. Plus you can lock your projects so others can't change them. Workflows for color, graphics, audio, and immersive 360/VR take you from first edit to final credits faster than ever.

Any camera. Any format.
Work on footage in any format from 8K to virtual reality to smart phone. The industry's broadest native media support and powerful proxy workflows make it easy to start editing immediately on any computer — no matter where your footage came from.

Plays well with others.
Switch easily between Premiere Pro and After Effects. With Dynamic Link, you don't have to wait for rendering. Premiere Pro also works seamlessly with other Creative Cloud apps, including Photoshop, Illustrator, and Adobe Media Encoder. And with Team Projects, editors around the globe can collaborate freely, share securely, and more.

Work on multiple projects at the same time
Jump between episodes or scenes, edit and copy portions of one project into another, and more.

Shared Projects with locking feature
Teams in the same facility can access a single project simultaneously. For version control, you can lock projects when you're actively editing and give read-only access to other users.

Responsive design that's more responsive than ever
Now your motion graphics can automatically adapt to changes in time and in ratio or positioning so intros and outros are preserved and nothing goes out of frame.

Immersive 360/VR video and audio editing
Edit immersive VR the way it's viewed — wearing a VR head-mount. Add virtual reality effects and transitions without distortion. Edit 360/VR content using audio based on orientation. ]]>
Antiques.Road.Trip.S15E12.720p.HDTV.x264-DOCERE http://glodls.to/torrent.php?id=2889239 http://glodls.to/torrent.php?id=2889239 Sat, 21 Oct 2017 09:57:46 +0100 TV
[url=https://www.sparrowpics.com/image/kbFon][img]https://www.sparrowpics.com/images/2017/07/04/kbFon.png[/img][/url]

[b]Complete name : antiques.road.trip.s15e12.720p.hdtv-docere.mkv
Format : Matroska
Format version : Version 4 / Version 2
File size : 786 MiB
Duration : 43 min 39 s
Overall bit rate : 2 516 kb/s
Encoded date : UTC 2017-10-21 09:51:13
Writing application : mkvmerge v9.6.0 ('Slave To Your Mind') 64bit
Writing library : libebml v1.3.4 + libmatroska v1.4.5

Video
ID : 1
Format : AVC
Format/Info : Advanced Video Codec
Format profile : High@L4.1
Format settings, CABAC : Yes
Format settings, ReFrames : 5 frames
Format settings, GOP : M=4, N=40
Codec ID : V_MPEG4/ISO/AVC
Duration : 43 min 38 s
Bit rate : 2 321 kb/s
Width : 1 280 pixels
Height : 720 pixels
Display aspect ratio : 16:9
Frame rate mode : Constant
Frame rate : 50.000 FPS
Color space : YUV
Chroma subsampling : 4:2:0
Bit depth : 8 bits
Scan type : Progressive
Bits/(Pixel*Frame) : 0.050
Stream size : 725 MiB (92%)
Writing library : x264 core 152 r2851 ba24899
Encoding settings : cabac=1 / ref=5 / deblock=1:0:0 / analyse=0x3:0x113 / me=hex / subme=8 / psy=1 / psy_rd=1.00:0.00 / mixed_ref=1 / me_range=16 / chroma_me=1 / trellis=2 / 8x8dct=1 / cqm=0 / deadzone=21,11 / fast_pskip=1 / chroma_qp_offset=-2 / threads=12 / lookahead_threads=2 / sliced_threads=0 / nr=0 / decimate=1 / interlaced=0 / bluray_compat=0 / stitchable=1 / constrained_intra=0 / bframes=3 / b_pyramid=2 / b_adapt=1 / b_bias=0 / direct=3 / weightb=1 / open_gop=0 / weightp=2 / keyint=250 / keyint_min=25 / scenecut=40 / intra_refresh=0 / rc_lookahead=50 / rc=crf / mbtree=1 / crf=21.0 / qcomp=0.60 / qpmin=0 / qpmax=69 / qpstep=4 / ip_ratio=1.40 / aq=1:1.00
Default : Yes
Forced : No
Color range : Limited
Color primaries : BT.709
Transfer characteristics : BT.709
Matrix coefficients : BT.709

Audio
ID : 2
Format : AC-3
Format/Info : Audio Coding 3
Format settings, Endianness : Big
Codec ID : A_AC3
Duration : 43 min 39 s
Bit rate mode : Constant
Bit rate : 192 kb/s
Channel(s) : 2 channels
Channel positions : Front: L R
Sampling rate : 48.0 kHz
Frame rate : 31.250 FPS (1536 spf)
Bit depth : 16 bits
Compression mode : Lossy
Stream size : 59.9 MiB (8%)
Service kind : Complete Main
Default : Yes
Forced : No[/b]

[url=https://www.sparrowpics.com/image/kbJ5y][img]https://www.sparrowpics.com/images/2017/07/04/kbJ5y.png[/img][/url]

[URL=https://tv.sparrowpics.com/image/F9tEA][IMG]https://tv.sparrowpics.com/images/2017/10/21/F9tEA.th.jpg[/IMG][/URL]

[URL=https://tv.sparrowpics.com/image/F9SK2][b]Click To View Screenshot[/b][/URL]

[URL=https://tv.sparrowpics.com/image/F9ypg][b]Click To View Screenshot[/b][/URL]

[URL=https://tv.sparrowpics.com/image/F96v5][b]Click To View Screenshot[/b][/URL][/center] ]]>
Ben 10 Alien Force 2008 Complete Series SE1 SE2 Burntodisc http://glodls.to/torrent.php?id=2889238 http://glodls.to/torrent.php?id=2889238 Sat, 21 Oct 2017 09:57:33 +0100 TV
Set five years after the end of the original series, Ben Tennyson,
now a teenager, once again dons the Omnitrix to protect the earth
and other parts of the universe from vilinous alien activity. The
Omnitix itself, a wristwatch-shaped device, allows Ben to transform
into numerous alien forms, thereby inheriting the unique abilities
of that alien race.

DISCS IN SERIES: 4

EPISODES: 46
SIZE: DVD9
VIDEO CODEC: MPEG2
RESOLUTION: 720x480
ASPECT RATIO: NTSC 16:9
FRAMERATE: 29.97fps
AUDIO: English 192kb/s
SUBTITLES: None
MENU: Yes
CHAPTERS: Yes
DISC COVER: Yes


[url]http://www.imdb.com/title/tt1192169/[/url]

[url]https://en.wikipedia.org/wiki/Ben_10:_Alien_Force[/url]

[img]https://s5.postimg.org/vh50hdlav/screenshot1.jpg[/img]

Uploaded by Burntodisc
]]>
Adobe After Effects CC 2018 v15 0 0 180 + Patch http://glodls.to/torrent.php?id=2889237 http://glodls.to/torrent.php?id=2889237 Sat, 21 Oct 2017 09:56:31 +0100 Apps
Adobe After Effects CC 2018 v15.0.0.180 + Patch



Make a big scene bigger. Create cinematic movie titles, intros, and transitions. Start a fire or make it rain. Animate a logo or a character. With After Effects CC, the industry-standard animation and creative compositing app, you can take any idea and make it move.


FEATURES -
There's nothing you can't create with After Effects.
Animators, designers, and compositors use After Effects to create motion graphics and visual effects for film, TV, video, and the web.

Roll credits. Spin words. Twirl titles.
Create animated titles, credits, and lower thirds. Start from scratch or with one of the animation presets available right inside the app. From spin to swipe to slide, there are countless ways to make your text move with After Effects.

Explosive effects. Mind-blowing results.
Combine videos and images to send a UFO across the sky, blur out a logo, or create an explosion — the possibilities are endless. There are hundreds of effects to get just the look you want, from adding fog to changing colors to making it snow.

Get animated.
Set anything in motion using keyframes, including logos, shapes, and cartoons. Add sound for really amazing results.

Plays well with others.
After Effects works together seamlessly with other Adobe apps. Edit comps and immediately see how they look in Premiere Pro with Dynamic Link. Easily import work from Photoshop, Illustrator, and Audition. And use Team Projects to collaborate with editors no matter where they're located.

Data-driven animation
Animate motion graphics, including charts, graphs, promos, and schedules using imported data.

Immersive VR editing
Tools for 360/VR are now deeply integrated into After Effects. Edit stitched videos without distortion, apply seamless effects and motion graphics to 360 videos, and more.

Keyboard shortcut mapping
Find and customize keyboard shortcuts quickly using a visual map.

Performance and navigation improvements
Get started faster with an intuitive start screen. Render layer transforms and motion blur on the GPU. And select and preview your favorite fonts with a new menu. ]]>
The.Wog.Boy.2000.DVDRip.x264-TAR.mp4 http://glodls.to/torrent.php?id=2889236 http://glodls.to/torrent.php?id=2889236 Sat, 21 Oct 2017 09:52:36 +0100 Movies [color=red][b]
The.Wog.Boy.2000.DVDRip.x264-TAR.mp4

[/b][/color]


IMDb: http://www.imdb.com/title/tt0216417





[url=https://boltimg.com/image/t52z][img]https://boltimg.com/images/t52z.png[/img][/url]



[color=green][b]
No information available.
[/b][/color]


[url=https://boltimg.com/image/tzTE][img]https://boltimg.com/images/tzTE.png[/img][/url]



[color=purple][b](Click to enlarge)[/b][/color]

[url=https://boltimg.com/image/RtZTN][img]https://boltimg.com/images/RtZTN.th.jpg[/img][/url] [url=https://boltimg.com/image/RtxA7][img]https://boltimg.com/images/RtxA7.th.jpg[/img][/url] [url=https://boltimg.com/image/Rt61f][img]https://boltimg.com/images/Rt61f.th.jpg[/img][/url] [url=https://boltimg.com/image/RtEDO][img]https://boltimg.com/images/RtEDO.th.jpg[/img][/url] [url=https://boltimg.com/image/RtIES][img]https://boltimg.com/images/RtIES.th.jpg[/img][/url] [url=https://boltimg.com/image/RtYQE][img]https://boltimg.com/images/RtYQE.th.jpg[/img][/url]

[/center]
]]>
Antiques.Roadshow.UK.S40E04.HDTV.x264-DOCERE http://glodls.to/torrent.php?id=2889235 http://glodls.to/torrent.php?id=2889235 Sat, 21 Oct 2017 09:52:33 +0100 TV
[url=https://www.sparrowpics.com/image/kbFon][img]https://www.sparrowpics.com/images/2017/07/04/kbFon.png[/img][/url]

[b]Complete name : antiques.roadshow.uk.s40e04.hdtv-docere.mkv
Format : Matroska
Format version : Version 4 / Version 2
File size : 396 MiB
Duration : 58 min 11 s
Overall bit rate : 952 kb/s
Encoded date : UTC 2017-10-21 09:47:47
Writing application : mkvmerge v9.6.0 ('Slave To Your Mind') 64bit
Writing library : libebml v1.3.4 + libmatroska v1.4.5

Video
ID : 1
Format : AVC
Format/Info : Advanced Video Codec
Format profile : High@L3.1
Format settings, CABAC : Yes
Format settings, ReFrames : 5 frames
Codec ID : V_MPEG4/ISO/AVC
Duration : 58 min 10 s
Bit rate : 823 kb/s
Width : 720 pixels
Height : 404 pixels
Display aspect ratio : 16:9
Frame rate mode : Constant
Frame rate : 50.000 FPS
Color space : YUV
Chroma subsampling : 4:2:0
Bit depth : 8 bits
Scan type : Progressive
Bits/(Pixel*Frame) : 0.057
Stream size : 343 MiB (86%)
Writing library : x264 core 152 r2851 ba24899
Encoding settings : cabac=1 / ref=5 / deblock=1:0:0 / analyse=0x3:0x113 / me=hex / subme=8 / psy=1 / psy_rd=1.00:0.00 / mixed_ref=1 / me_range=16 / chroma_me=1 / trellis=2 / 8x8dct=1 / cqm=0 / deadzone=21,11 / fast_pskip=1 / chroma_qp_offset=-2 / threads=13 / lookahead_threads=2 / sliced_threads=0 / nr=0 / decimate=1 / interlaced=0 / bluray_compat=0 / stitchable=1 / constrained_intra=0 / bframes=3 / b_pyramid=2 / b_adapt=1 / b_bias=0 / direct=3 / weightb=1 / open_gop=0 / weightp=2 / keyint=250 / keyint_min=25 / scenecut=40 / intra_refresh=0 / rc_lookahead=50 / rc=crf / mbtree=1 / crf=22.0 / qcomp=0.60 / qpmin=0 / qpmax=69 / qpstep=4 / ip_ratio=1.40 / aq=1:1.00
Default : Yes
Forced : No
Color range : Limited
Color primaries : BT.709
Transfer characteristics : BT.709
Matrix coefficients : BT.709

Audio
ID : 2
Format : AAC
Format/Info : Advanced Audio Codec
Format profile : LC
Codec ID : A_AAC
Duration : 58 min 11 s
Bit rate : 125 kb/s
Channel(s) : 2 channels
Channel positions : Front: L R
Sampling rate : 48.0 kHz
Frame rate : 46.875 FPS (1024 spf)
Compression mode : Lossy
Stream size : 52.2 MiB (13%)
Default : Yes
Forced : No[/b]

[url=https://www.sparrowpics.com/image/kbJ5y][img]https://www.sparrowpics.com/images/2017/07/04/kbJ5y.png[/img][/url]

[URL=https://tv.sparrowpics.com/image/F9DMG][IMG]https://tv.sparrowpics.com/images/2017/10/21/F9DMG.th.jpg[/IMG][/URL]

[URL=https://tv.sparrowpics.com/image/F9Nrc][b]Click To View Screenshot[/b][/URL]

[URL=https://tv.sparrowpics.com/image/F9YCQ][b]Click To View Screenshot[/b][/URL]

[URL=https://tv.sparrowpics.com/image/F97Zi][b]Click To View Screenshot[/b][/URL][/center] ]]>
BCM 17 10 21 Leigh Raven And Nikki Hearts Sharing A Big Black Cock XXX 480p MP4-TK http://glodls.to/torrent.php?id=2889234 http://glodls.to/torrent.php?id=2889234 Sat, 21 Oct 2017 09:49:51 +0100 Adult XXX
[b]Screenshots:[/b]

[url]http://imagerar.com/imgs-59eb1840e42b9.html[/url]

[url]http://imagerar.com/imgs-59eb1840cc2b2.html[/url]

[url]http://imagerar.com/imgs-59eb1840c4839.html[/url]

[url]http://imagerar.com/imgs-59eb180d8b55b.html[/url]

File Size : 253 MiB
Duration : 30mn 39s
Video : h264, yuv420p, 854x480p, 1024 Kbps
Audio : aac , 2 ch, stereo , 128 Kbps ]]>
Come.Dine.With.Me.S08E64.720p.HDTV.x264-NORiTE http://glodls.to/torrent.php?id=2889232 http://glodls.to/torrent.php?id=2889232 Sat, 21 Oct 2017 09:45:31 +0100 TV
[url=https://www.sparrowpics.com/image/kbFon][img]https://www.sparrowpics.com/images/2017/07/04/kbFon.png[/img][/url]

[b]Complete name : come.dine.with.me.s08e64.720p.hdtv-norite.mkv
Format : Matroska
Format version : Version 4 / Version 2
File size : 395 MiB
Duration : 23 min 41 s
Overall bit rate : 2 331 kb/s
Encoded date : UTC 2017-10-21 09:42:16
Writing application : mkvmerge v9.6.0 ('Slave To Your Mind') 64bit
Writing library : libebml v1.3.4 + libmatroska v1.4.5

Video
ID : 1
Format : AVC
Format/Info : Advanced Video Codec
Format profile : High@L4.1
Format settings, CABAC : Yes
Format settings, ReFrames : 5 frames
Codec ID : V_MPEG4/ISO/AVC
Duration : 23 min 41 s
Bit rate : 1 880 kb/s
Width : 1 280 pixels
Height : 720 pixels
Display aspect ratio : 16:9
Frame rate mode : Constant
Frame rate : 50.000 FPS
Color space : YUV
Chroma subsampling : 4:2:0
Bit depth : 8 bits
Scan type : Progressive
Bits/(Pixel*Frame) : 0.041
Stream size : 319 MiB (81%)
Writing library : x264 core 152 r2851 ba24899
Encoding settings : cabac=1 / ref=5 / deblock=1:0:0 / analyse=0x3:0x113 / me=hex / subme=8 / psy=1 / psy_rd=1.00:0.00 / mixed_ref=1 / me_range=16 / chroma_me=1 / trellis=2 / 8x8dct=1 / cqm=0 / deadzone=21,11 / fast_pskip=1 / chroma_qp_offset=-2 / threads=12 / lookahead_threads=2 / sliced_threads=0 / nr=0 / decimate=1 / interlaced=0 / bluray_compat=0 / stitchable=1 / constrained_intra=0 / bframes=3 / b_pyramid=2 / b_adapt=1 / b_bias=0 / direct=3 / weightb=1 / open_gop=0 / weightp=2 / keyint=250 / keyint_min=25 / scenecut=40 / intra_refresh=0 / rc_lookahead=50 / rc=crf / mbtree=1 / crf=21.0 / qcomp=0.60 / qpmin=0 / qpmax=69 / qpstep=4 / ip_ratio=1.40 / aq=1:1.00
Default : Yes
Forced : No
Color range : Limited
Color primaries : BT.709
Transfer characteristics : BT.709
Matrix coefficients : BT.709

Audio
ID : 2
Format : AC-3
Format/Info : Audio Coding 3
Format settings, Endianness : Big
Codec ID : A_AC3
Duration : 23 min 41 s
Bit rate mode : Constant
Bit rate : 448 kb/s
Channel(s) : 6 channels
Channel positions : Front: L C R, Side: L R, LFE
Sampling rate : 48.0 kHz
Frame rate : 31.250 FPS (1536 spf)
Bit depth : 16 bits
Compression mode : Lossy
Stream size : 75.9 MiB (19%)
Service kind : Complete Main
Default : Yes
Forced : No[/b]

[url=https://www.sparrowpics.com/image/kbJ5y][img]https://www.sparrowpics.com/images/2017/07/04/kbJ5y.png[/img][/url]

[URL=https://tv.sparrowpics.com/image/F9HFK][IMG]https://tv.sparrowpics.com/images/2017/10/21/F9HFK.th.jpg[/IMG][/URL]

[URL=https://tv.sparrowpics.com/image/F9I2X][b]Click To View Screenshot[/b][/URL]

[URL=https://tv.sparrowpics.com/image/F9KEU][b]Click To View Screenshot[/b][/URL]

[URL=https://tv.sparrowpics.com/image/F9gK8][b]Click To View Screenshot[/b][/URL][/center] ]]>
MyFriendsHotGirl 17 10 21 Lana Rhoades XXX 480p MP4-TK http://glodls.to/torrent.php?id=2889231 http://glodls.to/torrent.php?id=2889231 Sat, 21 Oct 2017 09:43:48 +0100 Adult XXX
[b]Screenshots:[/b]

[url]http://imagerar.com/imgs-59eb16d5d0a8f.html[/url]

[url]http://imagerar.com/imgs-59eb16d5ca429.html[/url]

[url]http://imagerar.com/imgs-59eb16d5c2e58.html[/url]

[url]http://imagerar.com/imgs-59eb168f68a9a.html[/url]

File Size : 278 MiB
Duration : 33mn 17s
Video : h264, yuv420p, 854x480p, 1024 Kbps
Audio : aac , 2 ch, stereo , 128 Kbps ]]>
Antiques.Road.Trip.S15E12.HDTV.x264-DOCERE http://glodls.to/torrent.php?id=2889230 http://glodls.to/torrent.php?id=2889230 Sat, 21 Oct 2017 09:42:26 +0100 TV
[url=https://www.sparrowpics.com/image/kbFon][img]https://www.sparrowpics.com/images/2017/07/04/kbFon.png[/img][/url]

[b]Complete name : antiques.road.trip.s15e12.hdtv-docere.mkv
Format : Matroska
Format version : Version 4 / Version 2
File size : 290 MiB
Duration : 43 min 39 s
Overall bit rate : 928 kb/s
Encoded date : UTC 2017-10-21 09:38:56
Writing application : mkvmerge v9.6.0 ('Slave To Your Mind') 64bit
Writing library : libebml v1.3.4 + libmatroska v1.4.5

Video
ID : 1
Format : AVC
Format/Info : Advanced Video Codec
Format profile : High@L3.1
Format settings, CABAC : Yes
Format settings, ReFrames : 5 frames
Format settings, GOP : M=4, N=40
Codec ID : V_MPEG4/ISO/AVC
Duration : 43 min 38 s
Bit rate : 799 kb/s
Width : 720 pixels
Height : 404 pixels
Display aspect ratio : 16:9
Frame rate mode : Constant
Frame rate : 50.000 FPS
Color space : YUV
Chroma subsampling : 4:2:0
Bit depth : 8 bits
Scan type : Progressive
Bits/(Pixel*Frame) : 0.055
Stream size : 249 MiB (86%)
Writing library : x264 core 152 r2851 ba24899
Encoding settings : cabac=1 / ref=5 / deblock=1:0:0 / analyse=0x3:0x113 / me=hex / subme=8 / psy=1 / psy_rd=1.00:0.00 / mixed_ref=1 / me_range=16 / chroma_me=1 / trellis=2 / 8x8dct=1 / cqm=0 / deadzone=21,11 / fast_pskip=1 / chroma_qp_offset=-2 / threads=12 / lookahead_threads=2 / sliced_threads=0 / nr=0 / decimate=1 / interlaced=0 / bluray_compat=0 / stitchable=1 / constrained_intra=0 / bframes=3 / b_pyramid=2 / b_adapt=1 / b_bias=0 / direct=3 / weightb=1 / open_gop=0 / weightp=2 / keyint=250 / keyint_min=25 / scenecut=40 / intra_refresh=0 / rc_lookahead=50 / rc=crf / mbtree=1 / crf=22.0 / qcomp=0.60 / qpmin=0 / qpmax=69 / qpstep=4 / ip_ratio=1.40 / aq=1:1.00
Default : Yes
Forced : No
Color range : Limited
Color primaries : BT.709
Transfer characteristics : BT.709
Matrix coefficients : BT.709

Audio
ID : 2
Format : AAC
Format/Info : Advanced Audio Codec
Format profile : LC
Codec ID : A_AAC
Duration : 43 min 39 s
Bit rate : 125 kb/s
Channel(s) : 2 channels
Channel positions : Front: L R
Sampling rate : 48.0 kHz
Frame rate : 46.875 FPS (1024 spf)
Compression mode : Lossy
Stream size : 39.1 MiB (14%)
Default : Yes
Forced : No[/b]

[url=https://www.sparrowpics.com/image/kbJ5y][img]https://www.sparrowpics.com/images/2017/07/04/kbJ5y.png[/img][/url]

[URL=https://tv.sparrowpics.com/image/F8eUY][IMG]https://tv.sparrowpics.com/images/2017/10/21/F8eUY.th.jpg[/IMG][/URL]

[URL=https://tv.sparrowpics.com/image/F8uOT][b]Click To View Screenshot[/b][/URL]

[URL=https://tv.sparrowpics.com/image/F8GMb][b]Click To View Screenshot[/b][/URL]

[URL=https://tv.sparrowpics.com/image/F83r4][b]Click To View Screenshot[/b][/URL][/center] ]]>