GloDLS.to - Download Movies, TV, Games and Other Torrents Free RSS 2.0enGloDLS.to - Download Movies, TV, Games and Other Torrents FreeGloDLS.to - Download Movies, TV, Games and Other Torrents Free RSS Feedhttp://glodls.toCopyright GloDLS.to - Download Movies, TV, Games and Other Torrents FreeFri, 20 Jan 2017 09:48:42 +0000 Jack.Reacher.Never.Go.Back.2016.BluRay.720p.x264.DD5.1-HDChina[PRiME] http://glodls.to/torrent.php?id=2162845 http://glodls.to/torrent.php?id=2162845 Fri, 20 Jan 2017 09:46:41 +0000 Movies Jack.Reacher.Never.Go.Back.2016.BluRay.720p.x264.DD5.1-HDChina[PRiME]

ImDb: [URL]http://www.imdb.com/title/tt3393786[/URL]

[url=https://www.sparrowpics.com/image/LwB][img]https://www.sparrowpics.com/images/2015/12/10/Info.png[/img][/url]

[color=green]Complete name : Jack.Reacher.Never.Go.Back.2016.BluRay.720p.x264.DD5.1-HDChina[PRiME].mkv
Format : Matroska
Format version : Version 2
File size : 5.33 GiB
Duration : 1 h 58 min
Overall bit rate : 6 462 kb/s
Movie name : Jack.Reacher.Never.Go.Back.2016.BluRay.720p.x264.DD5.1-HDChina
Encoded date : UTC 2017-01-20 01:24:53
Writing application : mkvmerge v5.8.0 ('No Sleep / Pillow') built on Sep 2 2012 15:37:04
Writing library : libebml v1.2.3 + libmatroska v1.3.0

Video
ID : 1
Format : AVC
Format/Info : Advanced Video Codec
Format profile : High@L4.1
Format settings, CABAC : Yes
Format settings, ReFrames : 12 frames
Codec ID : V_MPEG4/ISO/AVC
Duration : 1 h 58 min
Bit rate : 5 800 kb/s
Width : 1 280 pixels
Height : 536 pixels
Display aspect ratio : 2.40:1
Frame rate mode : Constant
Frame rate : 23.976 (24000/1001) FPS
Color space : YUV
Chroma subsampling : 4:2:0
Bit depth : 8 bits
Scan type : Progressive
Bits/(Pixel*Frame) : 0.353
Stream size : 4.70 GiB (88%)
Writing library : x264 core 148 r2744kMod b97ae06
Encoding settings : cabac=1 / ref=12 / deblock=1:-3:-3 / analyse=0x3:0x133 / me=umh / subme=11 / psy=1 / fade_compensate=0.00 / psy_rd=1.05:0.00 / mixed_ref=1 / me_range=48 / chroma_me=1 / trellis=2 / 8x8dct=1 / cqm=0 / deadzone=21,11 / fast_pskip=0 / chroma_qp_offset=-2 / threads=12 / lookahead_threads=2 / sliced_threads=0 / nr=0 / decimate=0 / interlaced=0 / bluray_compat=0 / constrained_intra=0 / bframes=8 / b_pyramid=2 / b_adapt=2 / b_bias=0 / direct=3 / weightb=1 / open_gop=0 / weightp=2 / keyint=240 / keyint_min=2 / scenecut=40 / intra_refresh=0 / rc_lookahead=0 / rc=2pass / mbtree=0 / bitrate=5800 / ratetol=1.0 / qcomp=0.70 / qpmin=0 / qpmax=69 / qpstep=4 / cplxblur=20.0 / qblur=0.5 / vbv_maxrate=50000 / vbv_bufsize=30000 / nal_hrd=none / filler=0 / ip_ratio=1.25 / pb_ratio=1.20 / aq=3:0.80
Default : Yes
Forced : No

Audio
ID : 2
Format : AC-3
Format/Info : Audio Coding 3
Mode extension : CM (complete main)
Format settings, Endianness : Big
Codec ID : A_AC3
Duration : 1 h 58 min
Bit rate mode : Constant
Bit rate : 640 kb/s
Channel(s) : 6 channels
Channel positions : Front: L C R, Side: L R, LFE
Sampling rate : 48.0 kHz
Frame rate : 31.250 FPS (1536 spf)
Compression mode : Lossy
Stream size : 541 MiB (10%)
Language : English
Default : Yes
Forced : No

Text #1
ID : 3
Format : PGS
Muxing mode : zlib
Codec ID : S_HDMV/PGS
Codec ID/Info : Picture based subtitle format used on BDs/HD-DVDs
Language : English
Default : Yes
Forced : No

Text #2
ID : 4
Format : PGS
Muxing mode : zlib
Codec ID : S_HDMV/PGS
Codec ID/Info : Picture based subtitle format used on BDs/HD-DVDs
Language : English
Default : No
Forced : No[/color]

[url=https://www.sparrowpics.com/image/UYe][img]https://www.sparrowpics.com/images/2015/12/10/Screens.png[/img][/url]

[color=red]Click Image To View Full Size[/color]

[URL=https://www.sparrowpics.com/image/l5z7B][IMG]https://www.sparrowpics.com/images/2017/01/20/l5z7B.th.jpg[/IMG][/URL]
[URL=https://www.sparrowpics.com/image/l5aMe][b]Click To View Screenshot[/b][/URL]
[URL=https://www.sparrowpics.com/image/l5rps][b]Click To View Screenshot[/b][/URL]
[URL=https://www.sparrowpics.com/image/l5OGf][b]Click To View Screenshot[/b][/URL]

[/center] ]]>
Amateurs - Czech Massage 307 http://glodls.to/torrent.php?id=2162844 http://glodls.to/torrent.php?id=2162844 Fri, 20 Jan 2017 09:36:13 +0000 Adult XXX
[b]Date[/b]: 2016
[b]Cast[/b]: Amateurs
[b]Genre[/b]: Amateurs, Czech, Massage, All Sex, BJ
[b]Name[/b]: Czech Massage 307


[b]Video[/b]: AVC, 960x540, 25.000 FPS, 1000 kb/s
[b]Audio[/b]: AAC LC, 48.0 kHz, 2 channels, 128 kb/s
[b]Format[/b]: mp4
[b]Duration[/b]: 00:19:04
]]>
[GloryholeSwallow] Erin - First Visit (20 01 2017) rq mp4 http://glodls.to/torrent.php?id=2162843 http://glodls.to/torrent.php?id=2162843 Fri, 20 Jan 2017 09:35:34 +0000 Adult XXX Audio: aac, 44100 Hz, 2 channels, s16, 160 kb/s (und)
Video: h264, yuv420p, 640x360, 1227 kb/s, 29,97 fps(r) (und)

http://xxxscreens.com/img-5881d9c9125a4.html

]]>
[WoodmanCastingX]Elle Rose - Casting [ mp4] http://glodls.to/torrent.php?id=2162842 http://glodls.to/torrent.php?id=2162842 Fri, 20 Jan 2017 09:34:11 +0000 Adult XXX
[center][URL=http://imgtornado.com/img-5882279988560.html][IMG]http://imgtornado.com/upload/small/2017/01/20/5882279988524.jpeg[/IMG][/URL]
[size=4]


[WoodmanCastingX]Elle Rose - Casting [.mp4]



Video Duration: 00:37:04
Video Size: 402 MB

[b]Screen 1[/b]
[url]http://imgtornado.com/img-588227add1317.html[/url]
[b]Screen 2[/b]
[url]http://imggold.org/w09oidk8cikp/fdd56b6ddb06.jpeg.html[/url]
[b]Best Shoot[/b]
[url]http://imgstudio.org/img-5881d63125117.html[/url]
[/size]
[/center]
]]>
[MyDirtyHobby]Lia Louise - Gangbang Mallorca[ mp4] http://glodls.to/torrent.php?id=2162841 http://glodls.to/torrent.php?id=2162841 Fri, 20 Jan 2017 09:33:46 +0000 Adult XXX
[center][URL=http://imgtornado.com/img-5882282514169.html][IMG]http://imgtornado.com/upload/small/2017/01/20/5882282514134.jpeg[/IMG][/URL]
[size=4]

[MyDirtyHobby]Lia Louise - Gangbang Mallorca[.mp4]



Video Duration: 00:17:30
Video Size: 267 MB



[b]Screen 1[/b]
[url]http://imgtornado.com/img-5882283944ca0.html[/url]
[b]Screen 2[/b]
[url]http://imggold.org/2cln7bgsdkvc/f88734991768.jpeg.html[/url]
[b]Best Shoot[/b]
[url]http://imgstudio.org/img-5881d6418d615.html[/url]
[/size]
[/center] ]]>
[BrownBunnies]BangBros - Maya Bijou - Mayas Interview Turns Into a Great Fuck /NEW 20 01 2017 [ mp4] http://glodls.to/torrent.php?id=2162840 http://glodls.to/torrent.php?id=2162840 Fri, 20 Jan 2017 09:33:25 +0000 Adult XXX
[center][URL=http://imgtornado.com/img-5882290f3ce7d.html][IMG]http://imgtornado.com/upload/small/2017/01/20/5882290f3ce40.jpeg[/IMG][/URL]
[size=4]


[BrownBunnies]BangBros - Maya Bijou - Mayas Interview Turns Into a Great Fuck /NEW 20.01.2017 [.mp4]

Video Duration: 00:28:53
Video Size: 322Mb

[b]Screen 1[/b]
[url]http://imgtornado.com/img-588229238e2e0.html[/url]
[b]Screen 2[/b]
[url]http://imggold.org/ov3gye4526x6/6223098ab513.jpg.html[/url]
[b]Best Shoot[/b]
[url]http://imgstudio.org/img-5881d64eee41f.html[/url]
[/size]
[/center] ]]>
Dead.Story.2017.HDRip.XviD.AC3-EVO http://glodls.to/torrent.php?id=2162839 http://glodls.to/torrent.php?id=2162839 Fri, 20 Jan 2017 09:33:18 +0000 Movies [color=red][b]
Dead.Story.2017.HDRip.XviD.AC3-EVO

[/b][/color]


IMDb: http://www.imdb.com/title/tt4282872/


[img]http://ia.media-imdb.com/images/M/MV5BMTY0MTEyODI3Ml5BMl5BanBnXkFtZTgwODkyNzI5MzE@._V1_SX300.jpg[/img]


[url=https://boltimg.com/image/t52z][img]https://boltimg.com/images/t52z.png[/img][/url]



[color=green][b]
General

(Duration): 1h 21mn
(FileSize): 1.31 GiB



Audio

(Format): AC-3 - Audio Coding 3
(Codec): AC3



Video

(Format): MPEG-4 Visual -
(Media): video/MP4V-ES
(Format): XviD
(Resolution): 720x304 px
(AspectRatio): 2.35:1
(FrameRate): 23.976 fps




[/b][/color]


[url=https://boltimg.com/image/tzTE][img]https://boltimg.com/images/tzTE.png[/img][/url]



[color=purple][b](Click to enlarge)[/b][/color]

[url=https://boltimg.com/image/uRm3I][img]https://boltimg.com/images/uRm3I.th.jpg[/img][/url] [url=https://boltimg.com/image/uR7A5][img]https://boltimg.com/images/uR7A5.th.jpg[/img][/url] [url=https://boltimg.com/image/uRR1W][img]https://boltimg.com/images/uRR1W.th.jpg[/img][/url] [url=https://boltimg.com/image/uRnOx][img]https://boltimg.com/images/uRnOx.th.jpg[/img][/url] [url=https://boltimg.com/image/uRFEX][img]https://boltimg.com/images/uRFEX.th.jpg[/img][/url] [url=https://boltimg.com/image/uRVQw][img]https://boltimg.com/images/uRVQw.th.jpg[/img][/url]

[/center]
]]>
[BrownBunnies] Maya Bijou (Maya s Interview Turns Into a Great Fuck - 20.01.2017) .mp4 http://glodls.to/torrent.php?id=2162838 http://glodls.to/torrent.php?id=2162838 Fri, 20 Jan 2017 09:29:40 +0000 Adult XXX
[b]Screenshots:[/b]

[url]http://imgkings.com/img-5881d88544602.html[/url]

[url]http://imgkings.com/img-5881d8853db78.html[/url]

[url]http://imgkings.com/img-5881d88537191.html[/url]

[url]http://imgkings.com/img-5881d880467ac.html[/url] ]]>
Dead.Story.2017.HDRip.XviD.AC3-EVO[PRiME] http://glodls.to/torrent.php?id=2162837 http://glodls.to/torrent.php?id=2162837 Fri, 20 Jan 2017 09:29:20 +0000 Movies Dead.Story.2017.HDRip.XviD.AC3-EVO[PRiME]

ImDb: [URL]http://www.imdb.com/title/tt4282872[/URL]

[url=https://www.sparrowpics.com/image/LwB][img]https://www.sparrowpics.com/images/2015/12/10/Info.png[/img][/url]

[color=green]Complete name : Dead.Story.2017.HDRip.XviD.AC3-EVO[PRiME].avi
Format : AVI
Format/Info : Audio Video Interleave
Format profile : OpenDML
Format settings : rec
File size : 1.31 GiB
Duration : 1 h 21 min
Overall bit rate : 2 305 kb/s
Writing application : AVI-Mux GUI 1.17.8.3, Feb 16 201019:42:50

Video
ID : 0
Format : MPEG-4 Visual
Format profile : Advanced Simple@L5
Format settings, BVOP : 2
Format settings, QPel : No
Format settings, GMC : No warppoints
Format settings, Matrix : Default (H.263)
Muxing mode : Packed bitstream
Codec ID : XVID
Codec ID/Hint : XviD
Duration : 1 h 21 min
Bit rate : 1 852 kb/s
Width : 720 pixels
Height : 304 pixels
Display aspect ratio : 2.35:1
Frame rate : 23.976 (24000/1001) FPS
Color space : YUV
Chroma subsampling : 4:2:0
Bit depth : 8 bits
Scan type : Progressive
Compression mode : Lossy
Bits/(Pixel*Frame) : 0.353
Stream size : 1.05 GiB (80%)
Writing library : XviD 66

Audio
ID : 1
Format : AC-3
Format/Info : Audio Coding 3
Mode extension : CM (complete main)
Format settings, Endianness : Big
Codec ID : 2000
Duration : 1 h 21 min
Bit rate mode : Constant
Bit rate : 448 kb/s
Channel(s) : 2 channels
Channel positions : Front: L R
Sampling rate : 48.0 kHz
Frame rate : 31.250 FPS (1536 spf)
Compression mode : Lossy
Stream size : 260 MiB (19%)
Alignment : Aligned on interleaves
Interleave, duration : 64 ms (1.53 video frames)
Interleave, preload duration : 192 ms
Title : ac3[/color]

[url=https://www.sparrowpics.com/image/UYe][img]https://www.sparrowpics.com/images/2015/12/10/Screens.png[/img][/url]

[color=red]Click Image To View Full Size[/color]

[URL=https://www.sparrowpics.com/image/l56Sd][IMG]https://www.sparrowpics.com/images/2017/01/20/l56Sd.th.jpg[/IMG][/URL]
[URL=https://www.sparrowpics.com/image/l5Af1][b]Click To View Screenshot[/b][/URL]
[URL=https://www.sparrowpics.com/image/l5pPH][b]Click To View Screenshot[/b][/URL]
[URL=https://www.sparrowpics.com/image/l5yOT][b]Click To View Screenshot[/b][/URL]

[/center] ]]>
[GangbangCreampie] Savana Styles - Gangbang Creampie 94 (20 01 2017) rq mp4 http://glodls.to/torrent.php?id=2162836 http://glodls.to/torrent.php?id=2162836 Fri, 20 Jan 2017 09:28:38 +0000 Adult XXX Audio: aac, 44100 Hz, 2 channels, s16, 127 kb/s (eng)
Video: h264, yuv420p, 960x540, 1986 kb/s, 29,00 fps(r) (eng)

http://img24.org/gots.html


]]>
Karlee Grey - Karlee Grey Gets Her Pussy Fucked By Henry All The Time http://glodls.to/torrent.php?id=2162835 http://glodls.to/torrent.php?id=2162835 Fri, 20 Jan 2017 09:27:53 +0000 Adult XXX
[b]Genre[/b]: all sex, teen
[b]Name[/b]: Karlee Grey Gets Her Pussy Fucked By Henry All The Time


[b]Video[/b]: AVC, 1362x718, 59.940 FPS, 3900 kb/s
[b]Audio[/b]: AAC LC, 48.0 kHz, 2 channels, 128 kb/s
[b]Format[/b]: mp4
[b]Duration[/b]: 00:41:02
]]>
Amateurs - Czech Massage 306 http://glodls.to/torrent.php?id=2162834 http://glodls.to/torrent.php?id=2162834 Fri, 20 Jan 2017 09:24:10 +0000 Adult XXX
[b]Date[/b]: 2016
[b]Cast[/b]: Amateurs
[b]Genre[/b]: Amateurs, Czech, Massage, All Sex, BJ
[b]Name[/b]: Czech Massage 306


[b]Video[/b]: AVC, 960x540, 25.000 FPS, 1000 kb/s
[b]Audio[/b]: AAC LC, 48.0 kHz, 2 channels, 128 kb/s
[b]Format[/b]: mp4
[b]Duration[/b]: 00:20:23
]]>
[PrettyDirty] Tiffany Watson - Video Chat Revenge Part Two (20.01.2017) .mp4 http://glodls.to/torrent.php?id=2162833 http://glodls.to/torrent.php?id=2162833 Fri, 20 Jan 2017 09:20:44 +0000 Adult XXX
[b]Screenshots:[/b]

[url]http://imgkings.com/img-5881d66de8c58.html[/url]

[url]http://imgkings.com/img-5881d66dd50a7.html[/url]

[url]http://imgkings.com/img-5881d66dcd0f0.html[/url]

[url]http://imgkings.com/img-5881d66ad01b2.html[/url] ]]>
[Bang! Gonzo] Karlee Grey Gets Her Pussy Fucked By Henry All The Time (20.01.2017) .mp4 http://glodls.to/torrent.php?id=2162832 http://glodls.to/torrent.php?id=2162832 Fri, 20 Jan 2017 09:19:36 +0000 Adult XXX
[b]Screenshots:[/b]

[url]http://imgkings.com/img-5881d629226dc.html[/url]

[url]http://imgkings.com/img-5881d6291df38.html[/url]

[url]http://imgkings.com/img-5881d6291955c.html[/url]

[url]http://imgkings.com/img-5881d6270bbda.html[/url] ]]>
[RoccoSiffredi] Flower Blue, Rebecca Volpetti - Psycho Teen Stepdad MILF Anal Dream (20.01.2017) .mp4 http://glodls.to/torrent.php?id=2162831 http://glodls.to/torrent.php?id=2162831 Fri, 20 Jan 2017 09:18:46 +0000 Adult XXX
[b]Screenshots:[/b]

[url]http://imgkings.com/img-5881d5f7e25a7.html[/url]

[url]http://imgkings.com/img-5881d5f7dd44e.html[/url]

[url]http://imgkings.com/img-5881d5f7d8243.html[/url]

[url]http://imgkings.com/img-5881d5f5241cc.html[/url] ]]>
InTheCrack E1244 Jenna Sativa XXX XviD SD http://glodls.to/torrent.php?id=2162830 http://glodls.to/torrent.php?id=2162830 Fri, 20 Jan 2017 09:18:39 +0000 Adult XXX
[b]Screenshots:[/b]

[url]http://imgkings.com/img-5881d5f0e6edf.html[/url]

[url]http://imgkings.com/img-5881d5f0e2a7f.html[/url]

[url]http://imgkings.com/img-5881d5f0dddd1.html[/url]

[url]http://imgkings.com/img-5881d5d715533.html[/url] ]]>
My.Father.Die.2016.HDRip.XviD.AC3-EVO[PRiME] http://glodls.to/torrent.php?id=2162829 http://glodls.to/torrent.php?id=2162829 Fri, 20 Jan 2017 09:15:26 +0000 Movies My.Father.Die.2016.HDRip.XviD.AC3-EVO[PRiME]

ImDb: [URL]http://www.imdb.com/title/tt4242100[/URL]

[url=https://www.sparrowpics.com/image/LwB][img]https://www.sparrowpics.com/images/2015/12/10/Info.png[/img][/url]

[color=green]Complete name : My.Father.Die.2016.HDRip.XviD.AC3-EVO[PRiME].avi
Format : AVI
Format/Info : Audio Video Interleave
Format profile : OpenDML
Format settings : rec
File size : 1.34 GiB
Duration : 1 h 30 min
Overall bit rate : 2 129 kb/s
Writing application : AVI-Mux GUI 1.17.8.3, Feb 16 201019:42:50

Video
ID : 0
Format : MPEG-4 Visual
Format profile : Advanced Simple@L5
Format settings, BVOP : 2
Format settings, QPel : No
Format settings, GMC : No warppoints
Format settings, Matrix : Default (H.263)
Muxing mode : Packed bitstream
Codec ID : XVID
Codec ID/Hint : XviD
Duration : 1 h 30 min
Bit rate : 1 740 kb/s
Width : 720 pixels
Height : 272 pixels
Display aspect ratio : 2.647
Frame rate : 23.976 (23976/1000) FPS
Color space : YUV
Chroma subsampling : 4:2:0
Bit depth : 8 bits
Scan type : Progressive
Compression mode : Lossy
Bits/(Pixel*Frame) : 0.370
Stream size : 1.10 GiB (82%)
Writing library : XviD 66

Audio
ID : 1
Format : AC-3
Format/Info : Audio Coding 3
Mode extension : CM (complete main)
Format settings, Endianness : Big
Codec ID : 2000
Duration : 1 h 30 min
Bit rate mode : Constant
Bit rate : 384 kb/s
Channel(s) : 6 channels
Channel positions : Front: L C R, Side: L R, LFE
Sampling rate : 48.0 kHz
Frame rate : 31.250 FPS (1536 spf)
Compression mode : Lossy
Stream size : 248 MiB (18%)
Alignment : Aligned on interleaves
Interleave, duration : 64 ms (1.53 video frames)
Interleave, preload duration : 192 ms[/color]

[url=https://www.sparrowpics.com/image/UYe][img]https://www.sparrowpics.com/images/2015/12/10/Screens.png[/img][/url]

[color=red]Click Image To View Full Size[/color]

[URL=https://www.sparrowpics.com/image/l5udK][IMG]https://www.sparrowpics.com/images/2017/01/20/l5udK.th.jpg[/IMG][/URL]
[URL=https://www.sparrowpics.com/image/l5ZGX][b]Click To View Screenshot[/b][/URL]
[URL=https://www.sparrowpics.com/image/l50hM][b]Click To View Screenshot[/b][/URL]
[URL=https://www.sparrowpics.com/image/l5iZV][b]Click To View Screenshot[/b][/URL]

[/center] ]]>
My.Father.Die.2016.HDRip.XviD.AC3-EVO http://glodls.to/torrent.php?id=2162828 http://glodls.to/torrent.php?id=2162828 Fri, 20 Jan 2017 09:14:48 +0000 Movies [color=red][b]
My.Father.Die.2016.HDRip.XviD.AC3-EVO

[/b][/color]


IMDb: http://www.imdb.com/title/tt4242100/


[img]http://ia.media-imdb.com/images/M/MV5BMTk0MjMyMTIwN15BMl5BanBnXkFtZTgwMTA3NjIwODE@._V1_SX300.jpg[/img]


[url=https://boltimg.com/image/t52z][img]https://boltimg.com/images/t52z.png[/img][/url]



[color=green][b]
General

(Duration): 1h 30mn
(FileSize): 1.34 GiB



Audio

(Format): AC-3 - Audio Coding 3
(Codec): AC3



Video

(Format): MPEG-4 Visual -
(Media): video/MP4V-ES
(Format): XviD
(Resolution): 720x272 px
(AspectRatio): 2.647
(FrameRate): 23.976 fps




[/b][/color]


[url=https://boltimg.com/image/tzTE][img]https://boltimg.com/images/tzTE.png[/img][/url]



[color=purple][b](Click to enlarge)[/b][/color]

[url=https://boltimg.com/image/uR4Eu][img]https://boltimg.com/images/uR4Eu.th.jpg[/img][/url] [url=https://boltimg.com/image/uRMM3][img]https://boltimg.com/images/uRMM3.th.jpg[/img][/url] [url=https://boltimg.com/image/uRQ8n][img]https://boltimg.com/images/uRQ8n.th.jpg[/img][/url] [url=https://boltimg.com/image/uRyLA][img]https://boltimg.com/images/uRyLA.th.jpg[/img][/url] [url=https://boltimg.com/image/uRSCk][img]https://boltimg.com/images/uRSCk.th.jpg[/img][/url] [url=https://boltimg.com/image/uRdVm][img]https://boltimg.com/images/uRdVm.th.jpg[/img][/url]

[/center]
]]>
[IHaveaWife]NaughtyAmerica - Tiffany Watson , Tony Rubino /NEW 20 01 2017 [ mp4] http://glodls.to/torrent.php?id=2162827 http://glodls.to/torrent.php?id=2162827 Fri, 20 Jan 2017 09:09:40 +0000 Adult XXX [center][URL=http://imgtornado.com/img-588221c78e1ac.html][IMG]http://imgtornado.com/upload/small/2017/01/20/588221c78e177.jpeg[/IMG][/URL]
[size=4]

[IHaveaWife]NaughtyAmerica - Tiffany Watson , Tony Rubino /NEW 20.01.2017 [.mp4]


Video Duration:00:23:02
Video: 263 MiB

[b]Screen 1[/b]
[url]http://imgtornado.com/img-588221db3f67f.html[/url]
[b]Screen 2[/b]
[url]http://imggold.org/5eh7cbcsqg8x/df241d5f96e0.jpg.html[/url]
[b]Best Shoot[/b]
[url]http://imgstudio.org/img-5881d0662e112.html[/url]
[/size]
[/center]
]]>
[IHaveaWife]NaughtyAmerica - Nina North , Johnny Castle /NEW 20 01 2017 [ mp4] http://glodls.to/torrent.php?id=2162826 http://glodls.to/torrent.php?id=2162826 Fri, 20 Jan 2017 09:09:10 +0000 Adult XXX
[center][URL=http://imgtornado.com/img-5882226880593.html][IMG]http://imgtornado.com/upload/small/2017/01/20/5882226880576.jpeg[/IMG][/URL]
[size=4]

[IHaveaWife]NaughtyAmerica - Nina North , Johnny Castle /NEW 20.01.2017 [.mp4]


Duration: 00:31:53
Size: 278Mb



[b]Screen 1[/b]
[url]http://imgtornado.com/img-5882227edfdff.html[/url]
[b]Screen 2[/b]
[url]http://imggold.org/2yffdp1k7tvo/144b34205373.jpg.html[/url]
[b]Best Shoot[/b]
[url]http://imgstudio.org/img-5881d07a63f82.html[/url]
[/size]
[/center] ]]>
BoxTruckSex 17 01 20 Nomi Malone XXX XviD SD http://glodls.to/torrent.php?id=2162825 http://glodls.to/torrent.php?id=2162825 Fri, 20 Jan 2017 09:08:43 +0000 Adult XXX
[b]Screenshots:[/b]

[url]http://imgkings.com/img-5881d39c76449.html[/url]

[url]http://imgkings.com/img-5881d39c71ce5.html[/url]

[url]http://imgkings.com/img-5881d39c6d358.html[/url]

[url]http://imgkings.com/img-5881d38e178f7.html[/url] ]]>
[SexArt]Michelle H, Nancy A - Hitchhikers /NEW 20 01 2017 [ mp4] http://glodls.to/torrent.php?id=2162824 http://glodls.to/torrent.php?id=2162824 Fri, 20 Jan 2017 09:08:41 +0000 Adult XXX
[center][URL=http://imgtornado.com/img-5882232f1f9a8.html][IMG]http://imgtornado.com/upload/small/2017/01/20/5882232f1f97b.jpeg[/IMG][/URL]
[size=4]

[SexArt]Michelle H, Nancy A - Hitchhikers /NEW 20.01.2017 [.mp4]


Video Duration: 00:20:14
Video Size: 227MB




[b]Screen 1[/b]
[url]http://imgtornado.com/img-588223451c4fe.html[/url]
[b]Screen 2[/b]
[url]http://imggold.org/y63qwwxv8cx0/839ee0161f53.jpeg.html[/url]
[b]Best Shoot[/b]
[url]http://imgstudio.org/img-5881d089715ac.html[/url]
[/size]
[/center]
]]>
Detour.2016.HDRip.XviD.AC3-EVO http://glodls.to/torrent.php?id=2162823 http://glodls.to/torrent.php?id=2162823 Fri, 20 Jan 2017 09:07:41 +0000 Movies [color=red][b]
Detour.2016.HDRip.XviD.AC3-EVO

[/b][/color]


IMDb: http://www.imdb.com/title/tt4372390/


[img]https://images-na.ssl-images-amazon.com/images/M/MV5BMTk2ODI2NjQ0Nl5BMl5BanBnXkFtZTgwODM5OTM2MDI@._V1_SX300.jpg[/img]


[url=https://boltimg.com/image/t52z][img]https://boltimg.com/images/t52z.png[/img][/url]



[color=green][b]
General

(Duration): 1h 37mn
(FileSize): 1.37 GiB



Audio

(Format): AC-3 - Audio Coding 3
(Codec): AC3



Video

(Format): MPEG-4 Visual -
(Media): video/MP4V-ES
(Format): XviD
(Resolution): 720x304 px
(AspectRatio): 2.35:1
(FrameRate): 23.976 fps




[/b][/color]


[url=https://boltimg.com/image/tzTE][img]https://boltimg.com/images/tzTE.png[/img][/url]



[color=purple][b](Click to enlarge)[/b][/color]

[url=https://boltimg.com/image/uRoCM][img]https://boltimg.com/images/uRoCM.th.jpg[/img][/url] [url=https://boltimg.com/image/uRuVZ][img]https://boltimg.com/images/uRuVZ.th.jpg[/img][/url] [url=https://boltimg.com/image/uRBTl][img]https://boltimg.com/images/uRBTl.th.jpg[/img][/url] [url=https://boltimg.com/image/uRKAP][img]https://boltimg.com/images/uRKAP.th.jpg[/img][/url] [url=https://boltimg.com/image/uRPme][img]https://boltimg.com/images/uRPme.th.jpg[/img][/url] [url=https://boltimg.com/image/uRgDc][img]https://boltimg.com/images/uRgDc.th.jpg[/img][/url]

[/center]
]]>
[NuruMassage] Brett Rossi - Start My Engine (20.01.2017) .mp4 http://glodls.to/torrent.php?id=2162822 http://glodls.to/torrent.php?id=2162822 Fri, 20 Jan 2017 09:07:01 +0000 Adult XXX
[b]Screenshots:[/b]

[url]http://imgkings.com/img-5881d331c3882.html[/url]

[url]http://imgkings.com/img-5881d331b9357.html[/url]

[url]http://imgkings.com/img-5881d331b1541.html[/url]

[url]http://imgkings.com/img-5881d32bd18f9.html[/url] ]]>
[LatinaSexTapes] Selena Santana (Amateur Singer Banged In Studio - 23.01.2017) .mp4 http://glodls.to/torrent.php?id=2162821 http://glodls.to/torrent.php?id=2162821 Fri, 20 Jan 2017 09:05:09 +0000 Adult XXX
[b]Screenshots:[/b]

[url]http://imgkings.com/img-5881d2c682f94.html[/url]

[url]http://imgkings.com/img-5881d2c67c44b.html[/url]

[url]http://imgkings.com/img-5881d2c6758c3.html[/url]

[url]http://imgkings.com/img-5881d2c3d9afe.html[/url] ]]>
Detour.2016.HDRip.XviD.AC3-EVO[PRiME] http://glodls.to/torrent.php?id=2162820 http://glodls.to/torrent.php?id=2162820 Fri, 20 Jan 2017 09:04:16 +0000 Movies Detour.2016.HDRip.XviD.AC3-EVO[PRiME]

ImDb: [URL]http://www.imdb.com/title/tt4372390[/URL]

[url=https://www.sparrowpics.com/image/LwB][img]https://www.sparrowpics.com/images/2015/12/10/Info.png[/img][/url]

[color=green]Complete name : Detour.2016.HDRip.XviD.AC3-EVO[PRiME].avi
Format : AVI
Format/Info : Audio Video Interleave
Format profile : OpenDML
Format settings : rec
File size : 1.37 GiB
Duration : 1 h 37 min
Overall bit rate : 2 020 kb/s
Writing application : AVI-Mux GUI 1.17.8.3, Feb 16 201019:42:50

Video
ID : 0
Format : MPEG-4 Visual
Format profile : Advanced Simple@L5
Format settings, BVOP : 2
Format settings, QPel : No
Format settings, GMC : No warppoints
Format settings, Matrix : Default (H.263)
Muxing mode : Packed bitstream
Codec ID : XVID
Codec ID/Hint : XviD
Duration : 1 h 37 min
Bit rate : 1 631 kb/s
Width : 720 pixels
Height : 304 pixels
Display aspect ratio : 2.35:1
Frame rate : 23.976 (23976/1000) FPS
Color space : YUV
Chroma subsampling : 4:2:0
Bit depth : 8 bits
Scan type : Progressive
Compression mode : Lossy
Bits/(Pixel*Frame) : 0.311
Stream size : 1.11 GiB (81%)
Writing library : XviD 66

Audio
ID : 1
Format : AC-3
Format/Info : Audio Coding 3
Mode extension : CM (complete main)
Format settings, Endianness : Big
Codec ID : 2000
Duration : 1 h 37 min
Bit rate mode : Constant
Bit rate : 384 kb/s
Channel(s) : 6 channels
Channel positions : Front: L C R, Side: L R, LFE
Sampling rate : 48.0 kHz
Frame rate : 31.250 FPS (1536 spf)
Compression mode : Lossy
Stream size : 267 MiB (19%)
Alignment : Aligned on interleaves
Interleave, duration : 64 ms (1.53 video frames)
Interleave, preload duration : 192 ms[/color]

[url=https://www.sparrowpics.com/image/UYe][img]https://www.sparrowpics.com/images/2015/12/10/Screens.png[/img][/url]

[color=red]Click Image To View Full Size[/color]

[URL=https://www.sparrowpics.com/image/l5PPY][IMG]https://www.sparrowpics.com/images/2017/01/20/l5PPY.th.jpg[/IMG][/URL]
[URL=https://www.sparrowpics.com/image/l5Rr9][b]Click To View Screenshot[/b][/URL]
[URL=https://www.sparrowpics.com/image/l5Y7b][b]Click To View Screenshot[/b][/URL]
[URL=https://www.sparrowpics.com/image/l5sM3][b]Click To View Screenshot[/b][/URL]

[/center] ]]>
[OfficeObsession] Cherry Kiss - Handy Presentation (29.01.2017) .mp4 http://glodls.to/torrent.php?id=2162819 http://glodls.to/torrent.php?id=2162819 Fri, 20 Jan 2017 09:03:31 +0000 Adult XXX
[b]Screenshots:[/b]

[url]http://imgkings.com/img-5881d26481c48.html[/url]

[url]http://imgkings.com/img-5881d26479b7c.html[/url]

[url]http://imgkings.com/img-5881d26471ce0.html[/url]

[url]http://imgkings.com/img-5881d258c7e6f.html[/url] ]]>
[BrownBunnies] Maya Bijou (Maya s Interview Turns Into a Great Fuck - 20 01 2017) rq mp4 http://glodls.to/torrent.php?id=2162818 http://glodls.to/torrent.php?id=2162818 Fri, 20 Jan 2017 09:03:01 +0000 Adult XXX Audio: aac, 32000 Hz, 2 channels, s16, 46 kb/s (eng)
Video: h264, yuv420p, 852x480, 1509 kb/s, 29,97 fps(r) (eng)

http://imggold.org/8fzmc4spb1r0/m.jpeg.html


]]>
Embeds S01E01 720p WEB x264-EMBEDS http://glodls.to/torrent.php?id=2162747 http://glodls.to/torrent.php?id=2162747 Fri, 20 Jan 2017 09:00:08 +0000 TV http://www.tvrage.com/schedule.php?show_yesterday=1. ]]> Embeds S01E03 720p WEB x264-EMBEDS http://glodls.to/torrent.php?id=2162745 http://glodls.to/torrent.php?id=2162745 Fri, 20 Jan 2017 09:00:07 +0000 TV http://www.tvrage.com/schedule.php?show_yesterday=1. ]]> Embeds S01E02 720p WEB x264-EMBEDS http://glodls.to/torrent.php?id=2162742 http://glodls.to/torrent.php?id=2162742 Fri, 20 Jan 2017 09:00:06 +0000 TV http://www.tvrage.com/schedule.php?show_yesterday=1. ]]> Embeds S01E04 720p WEB x264-EMBEDS http://glodls.to/torrent.php?id=2162740 http://glodls.to/torrent.php?id=2162740 Fri, 20 Jan 2017 09:00:05 +0000 TV http://www.tvrage.com/schedule.php?show_yesterday=1. ]]> Embeds S01E05 720p WEB x264-EMBEDS http://glodls.to/torrent.php?id=2162737 http://glodls.to/torrent.php?id=2162737 Fri, 20 Jan 2017 09:00:04 +0000 TV http://www.tvrage.com/schedule.php?show_yesterday=1. ]]> Embeds S01E06 720p WEB x264-EMBEDS http://glodls.to/torrent.php?id=2162734 http://glodls.to/torrent.php?id=2162734 Fri, 20 Jan 2017 09:00:03 +0000 TV http://www.tvrage.com/schedule.php?show_yesterday=1. ]]> Project Runway Junior S02E05 720p WEB h264-HEAT http://glodls.to/torrent.php?id=2162732 http://glodls.to/torrent.php?id=2162732 Fri, 20 Jan 2017 09:00:02 +0000 TV http://www.tvrage.com/schedule.php?show_yesterday=1. ]]> [StepSiblingsCaught] Melissa Moore (Sleeping Beauty - 20.01.2017) .mp4 http://glodls.to/torrent.php?id=2162730 http://glodls.to/torrent.php?id=2162730 Fri, 20 Jan 2017 08:58:14 +0000 Adult XXX
[b]Screenshots:[/b]

[url]http://imgkings.com/img-5881d12800e6a.html[/url]

[url]http://imgkings.com/img-5881d127eda57.html[/url]

[url]http://imgkings.com/img-5881d127e6227.html[/url]

[url]http://imgkings.com/img-5881d12069b0c.html[/url] ]]>
VelvetEcstasy 17 01 20 Ashlee Graham Stroke-N-Squirt XXX XviD SD http://glodls.to/torrent.php?id=2162729 http://glodls.to/torrent.php?id=2162729 Fri, 20 Jan 2017 08:54:35 +0000 Adult XXX
[b]Screenshots:[/b]

[url]http://imgkings.com/img-5881d04c7fd50.html[/url]

[url]http://imgkings.com/img-5881d04c7b320.html[/url]

[url]http://imgkings.com/img-5881d04c75ddd.html[/url]

[url]http://imgkings.com/img-5881d04ad4dd6.html[/url] ]]>
VivThomas 17 01 20 Nikita Bellucci And Sweet Cat Impede XXX XviD SD http://glodls.to/torrent.php?id=2162728 http://glodls.to/torrent.php?id=2162728 Fri, 20 Jan 2017 08:51:41 +0000 Adult XXX
[b]Screenshots:[/b]

[url]http://imgkings.com/img-5881cf9ef3993.html[/url]

[url]http://imgkings.com/img-5881cf9eef148.html[/url]

[url]http://imgkings.com/img-5881cf9ee9b25.html[/url]

[url]http://imgkings.com/img-5881cf9c5855a.html[/url] ]]>
[TonightsGirlfriend] Angela White, Mr Pete (20 01 2017) rq mp4 http://glodls.to/torrent.php?id=2162727 http://glodls.to/torrent.php?id=2162727 Fri, 20 Jan 2017 08:50:56 +0000 Adult XXX Audio: aac, 48000 Hz, 2 channels, s16, 189 kb/s (eng)
Video: h264, yuv420p, 854x480, 1694 kb/s, 23,98 fps(r) (eng)

http://imgclick.net/9u4c6xv6tfln/aw.jpeg.html


]]>
SexArt 17 01 20 Michelle H And Nancy A Hitchhikers XXX XviD SD http://glodls.to/torrent.php?id=2162726 http://glodls.to/torrent.php?id=2162726 Fri, 20 Jan 2017 08:48:35 +0000 Adult XXX
[b]Screenshots:[/b]

[url]http://imgkings.com/img-5881cee4eec39.html[/url]

[url]http://imgkings.com/img-5881cee4ea5e8.html[/url]

[url]http://imgkings.com/img-5881cee4e4f9b.html[/url]

[url]http://imgkings.com/img-5881cee266782.html[/url] ]]>
Spizoo 17 01 20 Kendra Cole Blowjob POV XXX XviD SD http://glodls.to/torrent.php?id=2162724 http://glodls.to/torrent.php?id=2162724 Fri, 20 Jan 2017 08:47:07 +0000 Adult XXX
[b]Screenshots:[/b]

[url]http://imgkings.com/img-5881ce8c5a552.html[/url]

[url]http://imgkings.com/img-5881ce8c55ea3.html[/url]

[url]http://imgkings.com/img-5881ce8c51517.html[/url]

[url]http://imgkings.com/img-5881ce8a6709a.html[/url] ]]>
MetArtX 17 01 20 Adel C Moment Of Lust XXX XviD SD http://glodls.to/torrent.php?id=2162723 http://glodls.to/torrent.php?id=2162723 Fri, 20 Jan 2017 08:44:15 +0000 Adult XXX
[b]Screenshots:[/b]

[url]http://imgkings.com/img-5881cde0d14b5.html[/url]

[url]http://imgkings.com/img-5881cde0ccb0c.html[/url]

[url]http://imgkings.com/img-5881cde0bd762.html[/url]

[url]http://imgkings.com/img-5881cddf1a273.html[/url] ]]>
IHaveAWife 17 01 20 Nina North XXX XviD SD http://glodls.to/torrent.php?id=2162722 http://glodls.to/torrent.php?id=2162722 Fri, 20 Jan 2017 08:43:58 +0000 Adult XXX
[b]Screenshots:[/b]

[url]http://imgkings.com/img-5881cdcf13023.html[/url]

[url]http://imgkings.com/img-5881cdcf0e59f.html[/url]

[url]http://imgkings.com/img-5881cdcf0975b.html[/url]

[url]http://imgkings.com/img-5881cdccb40f8.html[/url] ]]>
TheLifeErotic 17 01 20 Novi Lets Dance XXX XviD SD http://glodls.to/torrent.php?id=2162721 http://glodls.to/torrent.php?id=2162721 Fri, 20 Jan 2017 08:43:36 +0000 Adult XXX
[b]Screenshots:[/b]

[url]http://imgkings.com/img-5881cdb9ad428.html[/url]

[url]http://imgkings.com/img-5881cdb9a8ab1.html[/url]

[url]http://imgkings.com/img-5881cdb9a3d6e.html[/url]

[url]http://imgkings.com/img-5881cdb7e9888.html[/url] ]]>
IHaveAWife 17 01 20 Tiffany Watson XXX XviD SD http://glodls.to/torrent.php?id=2162720 http://glodls.to/torrent.php?id=2162720 Fri, 20 Jan 2017 08:43:27 +0000 Adult XXX
[b]Screenshots:[/b]

[url]http://imgkings.com/img-5881cdb036c06.html[/url]

[url]http://imgkings.com/img-5881cdb0322bb.html[/url]

[url]http://imgkings.com/img-5881cdb02d1fa.html[/url]

[url]http://imgkings.com/img-5881cdadab6cb.html[/url] ]]>
BitchesAbroad 17 01 20 Selvaggia XXX XviD SD http://glodls.to/torrent.php?id=2162719 http://glodls.to/torrent.php?id=2162719 Fri, 20 Jan 2017 08:40:38 +0000 Adult XXX
[b]Screenshots:[/b]

[url]http://imgkings.com/img-5881cd07a4921.html[/url]

[url]http://imgkings.com/img-5881cd07a0352.html[/url]

[url]http://imgkings.com/img-5881cd079bc7b.html[/url]

[url]http://imgkings.com/img-5881cd05e4282.html[/url] ]]>
DigitalDesire 17 01 20 Danika Flores XXX XviD SD http://glodls.to/torrent.php?id=2162718 http://glodls.to/torrent.php?id=2162718 Fri, 20 Jan 2017 08:39:48 +0000 Adult XXX
[b]Screenshots:[/b]

[url]http://imgkings.com/img-5881ccd5bcb1a.html[/url]

[url]http://imgkings.com/img-5881ccd5b83c9.html[/url]

[url]http://imgkings.com/img-5881ccd5b3cab.html[/url]

[url]http://imgkings.com/img-5881ccd3a4883.html[/url] ]]>
CastingAllaItaliana 17 01 20 April Paisley ITALIAN XXX XviD SD http://glodls.to/torrent.php?id=2162717 http://glodls.to/torrent.php?id=2162717 Fri, 20 Jan 2017 08:39:29 +0000 Adult XXX
[b]Screenshots:[/b]

[url]http://imgkings.com/img-5881ccc249dbf.html[/url]

[url]http://imgkings.com/img-5881ccc245552.html[/url]

[url]http://imgkings.com/img-5881ccc23fe77.html[/url]

[url]http://imgkings.com/img-5881ccc05b62a.html[/url] ]]>
Elle Rose - Casting http://glodls.to/torrent.php?id=2162716 http://glodls.to/torrent.php?id=2162716 Fri, 20 Jan 2017 08:39:18 +0000 Adult XXX
[b]Date[/b]: 2016
[b]Cast[/b]: Elle Rose
[b]Genre[/b]: Amateurs, Casting, Teen, Blowjob, Oral
[b]Name[/b]: Casting


[b]Video[/b]: AVC, 960x540, 29.970 FPS, 1400 kb/s
[b]Audio[/b]: AAC LC, 48.0 kHz, 2 channels, 112 kb/s
[b]Format[/b]: mp4
[b]Duration[/b]: 00:37:04
]]>
PropertySex 17 01 20 Kara Faux Bad Review XXX XviD SD http://glodls.to/torrent.php?id=2162715 http://glodls.to/torrent.php?id=2162715 Fri, 20 Jan 2017 08:34:27 +0000 Adult XXX
[b]Screenshots:[/b]

[url]http://imgkings.com/img-5881cb9440e47.html[/url]

[url]http://imgkings.com/img-5881cb943c765.html[/url]

[url]http://imgkings.com/img-5881cb9438193.html[/url]

[url]http://imgkings.com/img-5881cb9065db1.html[/url] ]]>