GloDLS.to - Download Movies, TV, Games and Other Torrents Free RSS 2.0enGloDLS.to - Download Movies, TV, Games and Other Torrents FreeGloDLS.to - Download Movies, TV, Games and Other Torrents Free RSS Feedhttp://glodls.toCopyright GloDLS.to - Download Movies, TV, Games and Other Torrents FreeSun, 20 Aug 2017 12:44:33 +0100 When Siblings Attract 3 DiSC2 XXX DVDRip http://glodls.to/torrent.php?id=2722972 http://glodls.to/torrent.php?id=2722972 Sun, 20 Aug 2017 11:43:47 +0100 Adult XXX http://imgskull.com/image/sucb8

http://imgskull.xyz/image/Nc7jr

[/center]

big dick,teen,hardcore ]]>
100 Amazing Mixed Wallpapers {Pack -166} http://glodls.to/torrent.php?id=2722971 http://glodls.to/torrent.php?id=2722971 Sun, 20 Aug 2017 11:42:03 +0100 Pictures
[b][url=http://4kw.in/Wallpapers/Anna-Kendrick-2017.html]PREVIEW 1[/url][/b]

[b][url=http://4kw.in/Wallpapers/Chris-pine-8k-7680x4320.html]PREVIEW 2[/url][/b]

[b][url=http://4kw.in/Wallpapers/Iron-Man-Spiderman-Homecoming-4K.html]PREVIEW 3[/url][/b]

[b][url=http://4kw.in/Wallpapers/Sophie-Turner-2017-4K.html]PREVIEW 4[/url][/b]

[b][url=http://4kw.in/Wallpapers/2016-MV-Agusta-Brutale-800.html]PREVIEW 5[/url][/b]
[/size] ]]>
18 And Ready To Fuck XXX 720p WEBRip http://glodls.to/torrent.php?id=2722970 http://glodls.to/torrent.php?id=2722970 Sun, 20 Aug 2017 11:40:43 +0100 Adult XXX http://imgskull.com/image/suYZI

http://imgskull.xyz/image/NmEf6

[/center]

teen,blonde,hardcore ]]>
Selena Weber In Black Bikini At Miami Beach http://glodls.to/torrent.php?id=2722968 http://glodls.to/torrent.php?id=2722968 Sun, 20 Aug 2017 11:38:45 +0100 Pictures
[b][url=http://4kw.in/3245.html]PREVIEW 1[/url][/b]

[b][url=http://4kw.in/3246.html]PREVIEW 2[/url][/b][/size] ]]>
DPFanatics - Loren Minardi - Double Entries http://glodls.to/torrent.php?id=2722967 http://glodls.to/torrent.php?id=2722967 Sun, 20 Aug 2017 11:38:05 +0100 Adult XXX http://imgskull.xyz/image/NmNbV

http://imgskull.com/image/sheVh



[/center]

Threesome , Anal , DP ]]>
Secret Desires (2017)[DVDRIP][ MP4] http://glodls.to/torrent.php?id=2722966 http://glodls.to/torrent.php?id=2722966 Sun, 20 Aug 2017 11:36:52 +0100 Adult XXX
Screen:

[url=http://picfox.org/share-0F23_59995A23.html][img]http://picfox.org/thumb-0F23_59995A23.jpg[/img][/url]

[url=http://picfox.org/share-23AF_59995A23.html][img]http://picfox.org/thumb-23AF_59995A23.jpg[/img][/url]

[url=http://picfox.org/share-A514_59995A23.html][img]http://picfox.org/thumb-A514_59995A23.jpg[/img][/url]

[url=http://picfox.org/share-007D_59995A23.html][img]http://picfox.org/thumb-007D_59995A23.jpg[/img][/url]

COVER:

[url=http://picfox.org/share-0D8F_59995A23.html][img]http://picfox.org/thumb-0D8F_59995A23.jpg[/img][/url]

File Size: 1,19 GB | Resolution: 720x406 | Duration: 02:13:44 | Format: mp4
]]>
FantasyMassage - Emma Hix - Double Dollop http://glodls.to/torrent.php?id=2722965 http://glodls.to/torrent.php?id=2722965 Sun, 20 Aug 2017 11:36:28 +0100 Adult XXX http://imgskull.xyz/image/NmqFg

http://imgskull.com/image/suXco

[/center]

massage,big dick,blonde ]]>
Barely Naked Hot And Spicy Girls Pictures - Nudity Included - Set -168 http://glodls.to/torrent.php?id=2722964 http://glodls.to/torrent.php?id=2722964 Sun, 20 Aug 2017 11:36:27 +0100 Adult XXX
[b][url=http://4kw.in/3231.html]PREVIEW 1[/url][/b]

[b][url=http://4kw.in/3232.html]PREVIEW 2[/url][/b]

[b][url=http://4kw.in/3233.html]PREVIEW 3[/url][/b]

[b][url=http://4kw.in/3234.html]PREVIEW 4[/url][/b][/size] ]]>
[ExploitedCollegeGirls]Mia - 19 Years Old http://glodls.to/torrent.php?id=2722963 http://glodls.to/torrent.php?id=2722963 Sun, 20 Aug 2017 11:35:51 +0100 Adult XXX [size=4]

Mia - 19 Years Old
Size: 772788757 bytes (736.99 MiB), duration: 00:56:22, avg.bitrate: 1828 kb/s
Audio: aac, 44100 Hz, stereo (und)
Video: h264, yuv420p, 1280x720, 30.00 fps(r) (und)

[b]SCREENS:[/b]

[url]http://damimage.com/img-599971fbe9a35.html[/url]
[url]https://img.yt/img-59997219c5a69.html[/url]

[b]SHOOT:[/b]
[url]http://imageteam.org/img-59997365d13ef.html[/url]
[/size]
[/center] ]]>
CherryPop - Bailey Brooke - Movie Coming Soon http://glodls.to/torrent.php?id=2722962 http://glodls.to/torrent.php?id=2722962 Sun, 20 Aug 2017 11:34:12 +0100 Adult XXX http://imgskull.com/image/su8Bc

http://imgskull.xyz/image/Nme7X

[/center]

teen,blonde,hardcore ]]>
PixandVideo - Veronica Clark - Anal Report http://glodls.to/torrent.php?id=2722961 http://glodls.to/torrent.php?id=2722961 Sun, 20 Aug 2017 11:31:27 +0100 Adult XXX http://imgskull.com/image/shI3c

http://imgskull.xyz/image/Nm6OX



[/center]

Big Dick , Anal , Hardcore ]]>
NFBusty - August Ames - Unzipped http://glodls.to/torrent.php?id=2722960 http://glodls.to/torrent.php?id=2722960 Sun, 20 Aug 2017 11:29:41 +0100 Adult XXX http://imgskull.xyz/image/NmbwV

http://imgskull.com/image/suO4h

[/center]

big tit,busty,hardcore ]]>
The Money Formula - Dodgy Finance, Pseudo Science, and How Mathematicians Took Over the Markets http://glodls.to/torrent.php?id=2722959 http://glodls.to/torrent.php?id=2722959 Sun, 20 Aug 2017 11:29:07 +0100 Books
[b]English | 250 pages | PDF | 1.96 MB[/b]

[b][url=http://4kw.in/3249.html]PREVIEW 1[/url][/b]

[b][url=http://4kw.in/3250.html]PREVIEW 2[/url][/b]

[b][url=http://4kw.in/3251.html]PREVIEW 3[/url][/b]

[b][url=http://4kw.in/3252.html]PREVIEW 4[/url][/b][/size] ]]>
POVD - Alexa Grace - Indulging Alexa at the Pool http://glodls.to/torrent.php?id=2722958 http://glodls.to/torrent.php?id=2722958 Sun, 20 Aug 2017 11:28:13 +0100 Adult XXX
http://imgskull.xyz/image/NmYeC ]]>
The Ethical Slut, Third Edition - A Practical Guide to Polyamory, Open Relationships, and Other Freedoms in Sex and Love http://glodls.to/torrent.php?id=2722957 http://glodls.to/torrent.php?id=2722957 Sun, 20 Aug 2017 11:27:04 +0100 Books
[b]English | 305 pages | PDF | 2.76 MB[/b]

[b][url=http://4kw.in/3219.html]PREVIEW 1[/url][/b]

[b][url=http://4kw.in/3220.html]PREVIEW 2[/url][/b]

[b][url=http://4kw.in/3221.html]PREVIEW 3[/url][/b]

[b][url=http://4kw.in/3222.html]PREVIEW 4[/url][/b]
[/size] ]]>
Sex Positions - Sex Positions Guidebook to Spice Up Your Bedroom Romance http://glodls.to/torrent.php?id=2722956 http://glodls.to/torrent.php?id=2722956 Sun, 20 Aug 2017 11:25:05 +0100 Books
[b]English | 64 pages | PDF | 839 KB[/b]

[b][url=http://4kw.in/3215.html]PREVIEW 1[/url][/b]

[b][url=http://4kw.in/3216.html]PREVIEW 2[/url][/b]

[b][url=http://4kw.in/3217.html]PREVIEW 3[/url][/b]

[b][url=http://4kw.in/3218.html]PREVIEW 4[/url][/b][/size] ]]>
SweetSinner - Cherie DeVille - Interracial Family Needs 2 http://glodls.to/torrent.php?id=2722955 http://glodls.to/torrent.php?id=2722955 Sun, 20 Aug 2017 11:23:11 +0100 Adult XXX http://imgskull.xyz/image/Nm4H1

http://imgskull.com/image/suqsn

[/center]

IR,family,milf ]]>
Old.Dracula.1974.720p.BluRay.x264-SPOOKS http://glodls.to/torrent.php?id=2722954 http://glodls.to/torrent.php?id=2722954 Sun, 20 Aug 2017 11:21:03 +0100 Movies
[b]ImDb: [URL]http://www.imdb.com/title/tt0071938[/URL][/b]

[url=https://www.sparrowpics.com/image/kbFon][img]https://www.sparrowpics.com/images/2017/07/04/kbFon.png[/img][/url]

[b]Complete name : old.dracula.1974.720p.bluray.x264-spooks.mkv
Format : Matroska
Format version : Version 4 / Version 2
File size : 4.37 GiB
Duration : 1 h 28 min
Overall bit rate : 7 077 kb/s
Encoded date : UTC 2017-08-20 06:10:35
Writing application : mkvmerge v13.0.0 ('The Juggler') 64bit
Writing library : libebml v1.3.4 + libmatroska v1.4.5

Video
ID : 1
Format : AVC
Format/Info : Advanced Video Codec
Format profile : High@L4.1
Format settings, CABAC : Yes
Format settings, ReFrames : 5 frames
Codec ID : V_MPEG4/ISO/AVC
Duration : 1 h 28 min
Bit rate : 5 565 kb/s
Width : 1 280 pixels
Height : 688 pixels
Display aspect ratio : 1.85:1
Frame rate mode : Constant
Frame rate : 24.000 FPS
Color space : YUV
Chroma subsampling : 4:2:0
Bit depth : 8 bits
Scan type : Progressive
Bits/(Pixel*Frame) : 0.263
Stream size : 3.35 GiB (77%)
Writing library : x264 core 152 r2851kMod ba24899
Encoding settings : cabac=1 / ref=5 / deblock=1:-3:-3 / analyse=0x3:0x133 / me=umh / subme=8 / psy=1 / fade_compensate=0.00 / psy_rd=1.00:0.00 / mixed_ref=1 / me_range=16 / chroma_me=1 / trellis=1 / 8x8dct=1 / cqm=0 / deadzone=21,11 / fast_pskip=0 / chroma_qp_offset=-2 / threads=6 / lookahead_threads=1 / sliced_threads=0 / nr=0 / decimate=1 / interlaced=0 / bluray_compat=0 / constrained_intra=0 / bframes=3 / b_pyramid=2 / b_adapt=1 / b_bias=0 / direct=3 / weightb=1 / open_gop=0 / weightp=2 / keyint=250 / keyint_min=24 / scenecut=40 / intra_refresh=0 / rc_lookahead=50 / rc=2pass / mbtree=1 / bitrate=5565 / ratetol=1.0 / qcomp=0.60 / qpmin=0 / qpmax=69 / qpstep=4 / cplxblur=20.0 / qblur=0.5 / vbv_maxrate=62500 / vbv_bufsize=78125 / nal_hrd=none / filler=0 / ip_ratio=1.40 / aq=1:1.00
Default : Yes
Forced : No

Audio
ID : 2
Format : DTS
Format/Info : Digital Theater Systems
Mode : 16
Format settings, Endianness : Big
Codec ID : A_DTS
Duration : 1 h 28 min
Bit rate mode : Constant
Bit rate : 1 509 kb/s
Channel(s) : 2 channels
Channel positions : Front: L R
Sampling rate : 48.0 kHz
Frame rate : 93.750 FPS (512 spf)
Bit depth : 24 bits
Compression mode : Lossy
Stream size : 954 MiB (21%)
Language : English
Default : Yes
Forced : No

Menu
00:00:00.000 : en:00:00:00.000
00:08:59.167 : en:00:08:59.167
00:14:41.917 : en:00:14:41.917
00:21:51.250 : en:00:21:51.250
00:29:14.500 : en:00:29:14.500
00:36:15.667 : en:00:36:15.667
00:42:21.708 : en:00:42:21.708
00:49:41.167 : en:00:49:41.167
00:58:29.958 : en:00:58:29.958
01:05:20.792 : en:01:05:20.792
01:13:02.750 : en:01:13:02.750
01:20:39.958 : en:01:20:39.958[/b]

[url=https://www.sparrowpics.com/image/kbJ5y][img]https://www.sparrowpics.com/images/2017/07/04/kbJ5y.png[/img][/url]

[URL=https://www.sparrowpics.com/image/QIl5r][IMG]https://www.sparrowpics.com/images/2017/08/20/QIl5r.th.jpg[/IMG][/URL]

[URL=https://www.sparrowpics.com/image/QItvW][b]Click To View Screenshot[/b][/URL]

[URL=https://www.sparrowpics.com/image/QIHgn][b]Click To View Screenshot[/b][/URL]

[URL=https://www.sparrowpics.com/image/QIGXy][b]Click To View Screenshot[/b][/URL][/center] ]]>
BrownBunnies - Katt Garcia - Siblings Rivalry http://glodls.to/torrent.php?id=2722953 http://glodls.to/torrent.php?id=2722953 Sun, 20 Aug 2017 11:20:46 +0100 Adult XXX http://imgskull.com/image/su2lH

http://imgskull.xyz/image/NmQIS

[/center]

big tit,ebony,amateur ]]>
Theres Never Enough Nurses (2017)[DVDRIP][ MP4] http://glodls.to/torrent.php?id=2722952 http://glodls.to/torrent.php?id=2722952 Sun, 20 Aug 2017 11:18:45 +0100 Adult XXX
Screen:

[url=http://blobopics.biz/share-8AAD_599948F7.html][img]http://blobopics.biz/thumb-8AAD_599948F7.jpg[/img][/url]

[url=http://blobopics.biz/share-8F49_599948F7.html][img]http://blobopics.biz/thumb-8F49_599948F7.jpg[/img][/url]

[url=http://blobopics.biz/share-676B_599948F7.html][img]http://blobopics.biz/thumb-676B_599948F7.jpg[/img][/url]

[url=http://blobopics.biz/share-B239_599948F7.html][img]http://blobopics.biz/thumb-B239_599948F7.jpg[/img][/url]

[url=http://blobopics.biz/share-5AF4_599948F7.html][img]http://blobopics.biz/thumb-5AF4_599948F7.jpg[/img][/url]

COVER:

[url=http://blobopics.biz/share-C60C_599948F7.html][img]http://blobopics.biz/thumb-C60C_599948F7.jpg[/img][/url]

File Size: 5,44 GB | Resolution: 720x406 | Duration: 06:04:31 | Format: mp4 ]]>
[CuckoldSessions] Riley Reid - Second Appearance (20 08 2017) mp4 http://glodls.to/torrent.php?id=2722951 http://glodls.to/torrent.php?id=2722951 Sun, 20 Aug 2017 11:18:44 +0100 Adult XXX
[b]Screenshots:[/b]

[url]http://imgking.co/imgs-5999701681416.html[/url]

[url]http://imgking.co/imgs-599970167edfc.html[/url]

[url]http://imgking.co/imgs-5999701679f6b.html[/url]

[url]http://imgking.co/imgs-59997014ba045.html[/url]

]]>
X-Art - Welcome To The Jungle - Jill Kassidy [720p] mp4 http://glodls.to/torrent.php?id=2722950 http://glodls.to/torrent.php?id=2722950 Sun, 20 Aug 2017 11:18:43 +0100 Adult XXX
607.40 MB

Screens

[url]http://img.img-central.com/image/9PDUh[/url]
[url]http://img.img-central.com/image/9PEWg[/url]
[url]http://img.img-central.com/image/9PpGw[/url]
[url]http://img.img-central.com/image/9PQyu[/url]

[img]https://s27.postimg.org/g88k9j2b7/X-_Art_1.jpg[/img]
]]>
PornStarsLikeItBig - The Biggest Whore In Hollywood - August Ames [720p] mp4 http://glodls.to/torrent.php?id=2722949 http://glodls.to/torrent.php?id=2722949 Sun, 20 Aug 2017 11:15:54 +0100 Adult XXX
1.76 GB

Screens

[url]http://img.img-central.com/image/9P3ll[/url]
[url]http://img.img-central.com/image/9PHLZ[/url]
[url]http://img.img-central.com/image/9PLFL[/url]
[url]http://img.img-central.com/image/9PrX9[/url]

[img]https://s27.postimg.org/7bxs5lboz/Porn_Stars_Like_It_Big_1.jpg[/img] ]]>
[MormonGirlz] Lily Rader - Mercy Seat (19 08 2017) mp4 http://glodls.to/torrent.php?id=2722948 http://glodls.to/torrent.php?id=2722948 Sun, 20 Aug 2017 11:15:21 +0100 Adult XXX
[b]Screenshots:[/b]

[url]http://imgking.co/imgs-59996f4c11a95.html[/url]

[url]http://imgking.co/imgs-59996f4c0e8b6.html[/url]

[url]http://imgking.co/imgs-59996f4bf4098.html[/url]

[url]http://imgking.co/imgs-59996f49b85da.html[/url]

]]>
[ScrewBox] Khloe Kapri - Fake Doctor (20 08 2017) mp4 http://glodls.to/torrent.php?id=2722947 http://glodls.to/torrent.php?id=2722947 Sun, 20 Aug 2017 11:14:43 +0100 Adult XXX
[b]Screenshots:[/b]

[url]http://imgking.co/imgs-59996f252350d.html[/url]

[url]http://imgking.co/imgs-59996f2520570.html[/url]

[url]http://imgking.co/imgs-59996f251d6fb.html[/url]

[url]http://imgking.co/imgs-59996f22c48d2.html[/url]

]]>
[DigitalPlayground] Nicolette Shea - The New Girl Episode 3 (19 08 2017) mp4 http://glodls.to/torrent.php?id=2722946 http://glodls.to/torrent.php?id=2722946 Sun, 20 Aug 2017 11:14:04 +0100 Adult XXX
[b]Screenshots:[/b]

[url]http://imgking.co/imgs-59996efecb9cc.html[/url]

[url]http://imgking.co/imgs-59996efec8a2d.html[/url]

[url]http://imgking.co/imgs-59996efebd458.html[/url]

[url]http://imgking.co/imgs-59996efb406f6.html[/url]

]]>
[MyFreeCams/ManyVids/FullHD]Isla White aka Isla White93 - Big Green Eyes Blowjob and Cumon Tits http://glodls.to/torrent.php?id=2722945 http://glodls.to/torrent.php?id=2722945 Sun, 20 Aug 2017 11:12:09 +0100 Adult XXX [size=4]

Isla White aka Isla White93 - Big Green Eyes Blowjob and Cumon Tits
Category: Mistress, Female Domination, Femdom Handjob, Titjob
File size: 698.15 Mb
Duration: 00:11:56

[b]SCREENS:[/b]

[url]http://imageteam.org/img-59996c00ca876.html[/url]
[url]https://xeimg.yt/img-59996c1a474d4.html[/url]

[b]SHOOT:[/b]
[url]http://damimage.com/img-59996e730c9fc.html[/url]
[/size]
[/center] ]]>
BrazzersExxtra - The Daily Special - Natalia Starr [720p] mp4 http://glodls.to/torrent.php?id=2722944 http://glodls.to/torrent.php?id=2722944 Sun, 20 Aug 2017 11:12:03 +0100 Adult XXX
1.87 GB

Screens

[url]http://img.img-central.com/image/9PK6m[/url]
[url]http://img.img-central.com/image/9PUye[/url]
[url]http://img.img-central.com/image/9Pcpq[/url]
[url]http://img.img-central.com/image/9PgRE[/url]

[img]https://s27.postimg.org/6l51zt9bn/Brazzers_Exxtra_1.jpg[/img]
]]>
CuckoldSessions 17 08 20 Riley Reid XXX 480p MP4-TK http://glodls.to/torrent.php?id=2722943 http://glodls.to/torrent.php?id=2722943 Sun, 20 Aug 2017 11:11:44 +0100 Adult XXX
[b]Screenshots:[/b]

[url]http://imgking.co/imgs-59996e73179b9.html[/url]

[url]http://imgking.co/imgs-59996e7314d7e.html[/url]

[url]http://imgking.co/imgs-59996e730f62c.html[/url]

[url]http://imgking.co/imgs-59996e722efdc.html[/url]

File Size : 332 MiB
Duration : 40mn 10s
Video : h264, yuv420p, 854x480p, 1024 Kbps
Audio : aac , 2 ch, stereo , 128 Kbps ]]>
DogHouseDigital Her First MILF 24 XXX 480p MP4-TK http://glodls.to/torrent.php?id=2722942 http://glodls.to/torrent.php?id=2722942 Sun, 20 Aug 2017 11:08:02 +0100 Adult XXX
[b]Screenshots:[/b]

[url]http://imgking.co/imgs-59996d946a728.html[/url]

[url]http://imgking.co/imgs-59996d9467b07.html[/url]

[url]http://imgking.co/imgs-59996d9455982.html[/url]

[url]http://imgking.co/imgs-59996d930e3e8.html[/url]

File Size : 907 MiB
Duration : 1h 50mn
Video : h264, yuv420p, 854x480p, 1024 Kbps
Audio : aac , 2 ch, stereo , 128 Kbps ]]>
[AnimeRG] Shingeki no Kyojin Season 2 [1-12] [Complete] (Attack on Titan 26-37) [Eng Dubbed] [720p] [JRR] http://glodls.to/torrent.php?id=2722940 http://glodls.to/torrent.php?id=2722940 Sun, 20 Aug 2017 11:06:39 +0100 Anime
<br />
Format/Info : Advanced Video Codec<br />
Resolution : 1280x720<br />
Frame Rate : 23.976 fps<br />
<br />
[u][b][size=4]..::Audio Specs::..[/size][/b][/u]<br />
<br />
Format/Info : Advanced Audio Codec<br />
Channels : 2 channels<br />
Sample Rate : 48KHz<br />
Language : English<br />
<br />
[/center] ]]>
BangBros18 17 08 20 Dillion Harper And Zoey Monroe XXX 480p MP4-TK http://glodls.to/torrent.php?id=2722939 http://glodls.to/torrent.php?id=2722939 Sun, 20 Aug 2017 11:05:39 +0100 Adult XXX
[b]Screenshots:[/b]

[url]http://imgking.co/imgs-59996d0531881.html[/url]

[url]http://imgking.co/imgs-59996d052e544.html[/url]

[url]http://imgking.co/imgs-59996d0528b46.html[/url]

[url]http://imgking.co/imgs-59996d03cda95.html[/url]

File Size : 460 MiB
Duration : 55mn 48s
Video : h264, yuv420p, 854x480p, 1024 Kbps
Audio : aac , 2 ch, stereo , 128 Kbps ]]>
[AnimeRG] Boku no Hero Academia S2 - 18 (My Hero Academia - 31) [Eng Dubbed] [720p] [JRR] http://glodls.to/torrent.php?id=2722937 http://glodls.to/torrent.php?id=2722937 Sun, 20 Aug 2017 11:04:18 +0100 Anime
<br />
Format/Info : Advanced Video Codec<br />
Resolution : 1280x720<br />
Frame Rate : 23.976 fps<br />
<br />
[u][b][size=4]..::Audio Specs::..[/size][/b][/u]<br />
<br />
Format/Info : Advanced Audio Codec<br />
Channels : 2 channels<br />
Sample Rate : 48KHz<br />
Language : English<br />
<br />
[/center] ]]>
[RealWifeStories/Brazzers]Devon - Til Dick do us Part Episode 2 http://glodls.to/torrent.php?id=2722936 http://glodls.to/torrent.php?id=2722936 Sun, 20 Aug 2017 11:02:43 +0100 Adult XXX [center][URL=http://imgclick.net/8ebpssto1q8l/Devon_-_Til_thumb.jpg.html][IMG]http://main.imgclick.net/i/01009/8ebpssto1q8l_t.jpg[/IMG][/URL]
[size=4]

Devon - Til Dick do us Part Episode 2
Category: 4 Part Series, Big Tits, Big Tits Worship, Blonde, Couples Fantasies, Creampie, MILF, Til Dick do us Part, Wife
File size: 411 MB
Duration: 00:25:56

[b]SCREENS:[/b]

[url]http://imgclick.net/gq4gqu65j42t/Devon_-_Til_t2.jpg.html[/url]
[url]https://xeimg.yt/img-59996ae5829db.html[/url]

[b]SHOOT:[/b]
[url]http://imagedecode.com/img-59996b0046cf3.html[/url]
[/size]
[/center] ]]>
Old.Dracula.1974.BDRip.x264-SPOOKS http://glodls.to/torrent.php?id=2722885 http://glodls.to/torrent.php?id=2722885 Sun, 20 Aug 2017 10:57:37 +0100 Movies
[b]ImDb: [URL]http://www.imdb.com/title/tt0071938[/URL][/b]

[url=https://www.sparrowpics.com/image/kbFon][img]https://www.sparrowpics.com/images/2017/07/04/kbFon.png[/img][/url]

[b]Complete name : old.dracula.1974.bdrip.x264-spooks.mkv
Format : Matroska
Format version : Version 4 / Version 2
File size : 798 MiB
Duration : 1 h 28 min
Overall bit rate : 1 261 kb/s
Encoded date : UTC 2017-08-20 06:47:43
Writing application : mkvmerge v13.0.0 ('The Juggler') 64bit
Writing library : libebml v1.3.4 + libmatroska v1.4.5

Video
ID : 1
Format : AVC
Format/Info : Advanced Video Codec
Format profile : High@L3.1
Format settings, CABAC : Yes
Format settings, ReFrames : 5 frames
Codec ID : V_MPEG4/ISO/AVC
Duration : 1 h 28 min
Width : 720 pixels
Height : 388 pixels
Display aspect ratio : 1.85:1
Frame rate mode : Constant
Frame rate : 24.000 FPS
Color space : YUV
Chroma subsampling : 4:2:0
Bit depth : 8 bits
Scan type : Progressive
Writing library : x264 core 152 r2851kMod ba24899
Encoding settings : cabac=1 / ref=5 / deblock=1:-3:-3 / analyse=0x3:0x113 / me=hex / subme=8 / psy=1 / fade_compensate=0.00 / psy_rd=1.00:0.15 / mixed_ref=1 / me_range=16 / chroma_me=1 / trellis=2 / 8x8dct=1 / cqm=0 / deadzone=21,11 / fast_pskip=1 / chroma_qp_offset=-3 / threads=6 / lookahead_threads=1 / sliced_threads=0 / nr=0 / decimate=1 / interlaced=0 / bluray_compat=0 / constrained_intra=0 / bframes=3 / b_pyramid=2 / b_adapt=1 / b_bias=0 / direct=3 / weightb=1 / open_gop=0 / weightp=2 / keyint=250 / keyint_min=24 / scenecut=40 / intra_refresh=0 / rc_lookahead=50 / rc=crf / mbtree=1 / crf=19.0000 / qcomp=0.60 / qpmin=0 / qpmax=69 / qpstep=4 / vbv_maxrate=17500 / vbv_bufsize=17500 / crf_max=0.0 / nal_hrd=none / filler=0 / ip_ratio=1.40 / aq=1:0.60
Default : Yes
Forced : No
Color range : Limited
Matrix coefficients : BT.709

Audio
ID : 2
Format : AAC
Format/Info : Advanced Audio Codec
Format profile : LC
Codec ID : A_AAC
Duration : 1 h 28 min
Channel(s) : 1 channel
Channel positions : Front: C
Sampling rate : 48.0 kHz
Frame rate : 46.875 FPS (1024 spf)
Compression mode : Lossy
Delay relative to video : 9 ms
Language : English
Default : Yes
Forced : No

Menu
00:00:00.000 : en:00:00:00.000
00:08:59.167 : en:00:08:59.167
00:14:41.917 : en:00:14:41.917
00:21:51.250 : en:00:21:51.250
00:29:14.500 : en:00:29:14.500
00:36:15.667 : en:00:36:15.667
00:42:21.708 : en:00:42:21.708
00:49:41.167 : en:00:49:41.167
00:58:29.958 : en:00:58:29.958
01:05:20.792 : en:01:05:20.792
01:13:02.750 : en:01:13:02.750
01:20:39.958 : en:01:20:39.958[/b]

[url=https://www.sparrowpics.com/image/kbJ5y][img]https://www.sparrowpics.com/images/2017/07/04/kbJ5y.png[/img][/url]

[URL=https://www.sparrowpics.com/image/QI4Fs][IMG]https://www.sparrowpics.com/images/2017/08/20/QI4Fs.th.jpg[/IMG][/URL]

[URL=https://www.sparrowpics.com/image/QI5if][b]Click To View Screenshot[/b][/URL]

[URL=https://www.sparrowpics.com/image/QIEt5][b]Click To View Screenshot[/b][/URL]

[URL=https://www.sparrowpics.com/image/QIN2P][b]Click To View Screenshot[/b][/URL][/center] ]]>
Old.Dracula.1974.1080p.BluRay.x264-SPOOKS http://glodls.to/torrent.php?id=2722884 http://glodls.to/torrent.php?id=2722884 Sun, 20 Aug 2017 10:56:28 +0100 Movies
[b]ImDb: [URL]http://www.imdb.com/title/tt0071938[/URL][/b]

[url=https://www.sparrowpics.com/image/kbFon][img]https://www.sparrowpics.com/images/2017/07/04/kbFon.png[/img][/url]

[b]Complete name : old.dracula.1974.1080p.bluray.x264-spooks.mkv
Format : Matroska
Format version : Version 4 / Version 2
File size : 6.56 GiB
Duration : 1 h 28 min
Overall bit rate : 10.6 Mb/s
Encoded date : UTC 2017-08-20 04:02:56
Writing application : mkvmerge v13.0.0 ('The Juggler') 64bit
Writing library : libebml v1.3.4 + libmatroska v1.4.5

Video
ID : 1
Format : AVC
Format/Info : Advanced Video Codec
Format profile : High@L4.1
Format settings, CABAC : Yes
Format settings, ReFrames : 4 frames
Codec ID : V_MPEG4/ISO/AVC
Duration : 1 h 28 min
Bit rate : 9 107 kb/s
Width : 1 920 pixels
Height : 1 040 pixels
Display aspect ratio : 1.85:1
Frame rate mode : Constant
Frame rate : 24.000 FPS
Color space : YUV
Chroma subsampling : 4:2:0
Bit depth : 8 bits
Scan type : Progressive
Bits/(Pixel*Frame) : 0.190
Stream size : 5.50 GiB (84%)
Writing library : x264 core 152 r2851kMod ba24899
Encoding settings : cabac=1 / ref=4 / deblock=1:-3:-3 / analyse=0x3:0x133 / me=umh / subme=8 / psy=1 / fade_compensate=0.00 / psy_rd=1.00:0.00 / mixed_ref=1 / me_range=16 / chroma_me=1 / trellis=1 / 8x8dct=1 / cqm=0 / deadzone=21,11 / fast_pskip=0 / chroma_qp_offset=-2 / threads=6 / lookahead_threads=1 / sliced_threads=0 / nr=0 / decimate=1 / interlaced=0 / bluray_compat=0 / constrained_intra=0 / bframes=3 / b_pyramid=2 / b_adapt=1 / b_bias=0 / direct=3 / weightb=1 / open_gop=0 / weightp=2 / keyint=250 / keyint_min=24 / scenecut=40 / intra_refresh=0 / rc_lookahead=50 / rc=2pass / mbtree=1 / bitrate=9107 / ratetol=1.0 / qcomp=0.60 / qpmin=0 / qpmax=69 / qpstep=4 / cplxblur=20.0 / qblur=0.5 / vbv_maxrate=62500 / vbv_bufsize=78125 / nal_hrd=none / filler=0 / ip_ratio=1.40 / aq=1:1.00
Default : Yes
Forced : No

Audio
ID : 2
Format : DTS
Format/Info : Digital Theater Systems
Mode : 16
Format settings, Endianness : Big
Codec ID : A_DTS
Duration : 1 h 28 min
Bit rate mode : Constant
Bit rate : 1 509 kb/s
Channel(s) : 2 channels
Channel positions : Front: L R
Sampling rate : 48.0 kHz
Frame rate : 93.750 FPS (512 spf)
Bit depth : 24 bits
Compression mode : Lossy
Stream size : 954 MiB (14%)
Language : English
Default : Yes
Forced : No

Menu
00:00:00.000 : en:00:00:00.000
00:08:59.167 : en:00:08:59.167
00:14:41.917 : en:00:14:41.917
00:21:51.250 : en:00:21:51.250
00:29:14.500 : en:00:29:14.500
00:36:15.667 : en:00:36:15.667
00:42:21.708 : en:00:42:21.708
00:49:41.167 : en:00:49:41.167
00:58:29.958 : en:00:58:29.958
01:05:20.792 : en:01:05:20.792
01:13:02.750 : en:01:13:02.750
01:20:39.958 : en:01:20:39.958[/b]

[url=https://www.sparrowpics.com/image/kbJ5y][img]https://www.sparrowpics.com/images/2017/07/04/kbJ5y.png[/img][/url]

[URL=https://www.sparrowpics.com/image/QIAxV][IMG]https://www.sparrowpics.com/images/2017/08/20/QIAxV.th.jpg[/IMG][/URL]

[URL=https://www.sparrowpics.com/image/QIpod][b]Click To View Screenshot[/b][/URL]

[URL=https://www.sparrowpics.com/image/QIzmH][b]Click To View Screenshot[/b][/URL]

[URL=https://www.sparrowpics.com/image/QIagT][b]Click To View Screenshot[/b][/URL][/center] ]]>
Old.Dracula.1974.BDRip.x264-SPOOKS http://glodls.to/torrent.php?id=2722883 http://glodls.to/torrent.php?id=2722883 Sun, 20 Aug 2017 10:55:37 +0100 Movies [color=red][b]
Old.Dracula.1974.BDRip.x264-SPOOKS

[/b][/color]


IMDb: http://www.imdb.com/title/tt0071938/





[url=https://boltimg.com/image/t52z][img]https://boltimg.com/images/t52z.png[/img][/url]



[color=green][b]
General

(Duration): 1h 28mn
(FileSize): 798 MiB



Audio

(Format): AAC - Advanced Audio Codec
(Codec): AAC LC



Video

(Format): AVC - Advanced Video Codec
(Media): video/H264
(Format): x264
(Resolution): 720x388 px
(AspectRatio): 1.85:1
(FrameRate): 24.000 fps




[/b][/color]


[url=https://boltimg.com/image/tzTE][img]https://boltimg.com/images/tzTE.png[/img][/url]



[color=purple][b](Click to enlarge)[/b][/color]

[url=https://boltimg.com/image/mj6ol][img]https://boltimg.com/images/mj6ol.th.jpg[/img][/url] [url=https://boltimg.com/image/mjEnP][img]https://boltimg.com/images/mjEnP.th.jpg[/img][/url] [url=https://boltimg.com/image/mjHke][img]https://boltimg.com/images/mjHke.th.jpg[/img][/url] [url=https://boltimg.com/image/mjYYc][img]https://boltimg.com/images/mjYYc.th.jpg[/img][/url] [url=https://boltimg.com/image/mjfSu][img]https://boltimg.com/images/mjfSu.th.jpg[/img][/url] [url=https://boltimg.com/image/mj2z3][img]https://boltimg.com/images/mj2z3.th.jpg[/img][/url]

[/center]
]]>
Legends.of.Chamberlain.Heights.S02E10.WEB.x264-TBS[ettv] http://glodls.to/torrent.php?id=2722882 http://glodls.to/torrent.php?id=2722882 Sun, 20 Aug 2017 10:55:34 +0100 TV Et TV Shows


Legends.of.Chamberlain.Heights.S02E10.WEB.x264-TBS


[Complete name]: /home/ettvbot/downloads/prep/Legends.of.Chamberlain.Heights.S02E10.WEB.x264-TBS[ettv]/legends.of.chamberlain.heights.s02e10.web.x264-tbs[ettv].mkv
[Format]: Matroska
[Duration]: 21mn 11s
[Resolution]: 960 x 540 pixels
[Display aspect ratio]: 16:9
[Frame rate mode]: Constant
[Frame rate]: 23.976 fps


[color=green][b]#ettv -> To avoid fakes, ALWAYS check that the torrent was added by ettv[/b][/color]




[color=green][b]To keep us going Support us by donating Bitcoin: 3MDamEmgKepqagtQe9eEdQ3NCrWEWjhoL5[/b][/color]

[b]Screens...[/b]

[url]https://extraimage.net/image/TNke[/url]
[url][/url]
[url][/url]
[url][/url]
[url][/url]
[url][/url]
]]>
Busty Blonde MILF Olivia Austin In Interracial Hard Porn mp4 http://glodls.to/torrent.php?id=2722881 http://glodls.to/torrent.php?id=2722881 Sun, 20 Aug 2017 10:54:18 +0100 Adult XXX
Screen:

[url=http://blobopics.biz/share-5AB9_599836C9.html][img]http://blobopics.biz/thumb-5AB9_599836C9.jpg[/img][/url]

or:

[url=http://blobopics.biz/share-2B17_599836C9.html][img]http://blobopics.biz/thumb-2B17_599836C9.jpg[/img][/url]

Screenshot:

[url=http://blobopics.biz/share-9F99_599836C9.html][img]http://blobopics.biz/thumb-9F99_599836C9.jpg[/img][/url]

File Size: 347 MB | Resolution: 1280x720 | Duration: 31:29 | Format: mp4 ]]>
Poonam Jhawar shows off her sexy Hot Cleavage poses during a photo Set - 28 http://glodls.to/torrent.php?id=2722880 http://glodls.to/torrent.php?id=2722880 Sun, 20 Aug 2017 10:44:36 +0100 Pictures
40 JPG | mix | 4 Mb [/b]

[url=http://www.wallhdpic.com/2017/03/poonam-jhawer-in-saree-wallpapers.html][b]PREVIEW 1[/b][/url]

[url=http://www.wallhdpic.com/2017/03/poonam-jhawer-hot-wallpapers.html][b]PREVIEW 2[/b][/url]

[url=http://www.wallhdpic.com/2017/03/poonam-jhawer-hq-wallpapers.html][b]PREVIEW 3[/b][/url]

[url=http://www.wallhdpic.com/2017/03/poonam-jhawer-in-yellow-dress-wallpapers.html][b]PREVIEW 4[/b][/url]

[url=http://www.wallhdpic.com/2017/03/poonam-jhawar-wallpaper.html][b]PREVIEW 5[/b][/url]

]]>
ATKGirlfriends 17 08 20 Jamie Marleigh XXX 480p MP4-TK http://glodls.to/torrent.php?id=2722879 http://glodls.to/torrent.php?id=2722879 Sun, 20 Aug 2017 10:33:30 +0100 Adult XXX
[b]Screenshots:[/b]

[url]http://imgking.co/imgs-5999657cb7ea1.html[/url]

[url]http://imgking.co/imgs-5999657cb311a.html[/url]

[url]http://imgking.co/imgs-5999657cab660.html[/url]

[url]http://imgking.co/imgs-5999657ae20ba.html[/url]

File Size : 376 MiB
Duration : 45mn 49s
Video : h264, yuv420p, 854x480p, 1024 Kbps
Audio : aac , 2 ch, stereo , 128 Kbps ]]>
Attack of the Killer Donuts 2016 BRRip XviD AC3-EVO http://glodls.to/torrent.php?id=2722878 http://glodls.to/torrent.php?id=2722878 Sun, 20 Aug 2017 10:29:45 +0100 Movies COVER:
http://tinizo.com/upload/small/2017/08/20/599964995dcd4.jpg

ACTORS:
Fredrick Burns, Kayla Compton, Lauren Compton, Chris De Christopher, Alison England, Phillip Fallon,

RELEASED:
8 July 2016

IMDB: http://www.imdb.com/title/tt4480398/



Size: 1498240138 bytes (1.40 GiB), duration: 01:21:28, avg.bitrate: 2452 kb/s
Audio: ac3, 48000 Hz, 5:1, 448 kb/s
Video: mpeg4, yuv420p, 720x400, 25.00 fps(r)




SCREENS:
[url=http://tinizo.com/img-599964998e9b0.html][img]http://tinizo.com/upload/small/2017/08/20/599964998e976.jpg[/img][/url]

[url]http://tinizo.com/img-5999649993004.html[/url]

[url]http://tinizo.com/img-599964999544d.html[/url]


DOWNLOAD AND ENJOY.

KEEP IT FOR LONG SEEDING TO HELP OTHERS


Thanks to : EVO
Movie Share ]]>
Attack.of.the.Killer.Donuts.2016.BRRip.XviD.AC3-EVO http://glodls.to/torrent.php?id=2722877 http://glodls.to/torrent.php?id=2722877 Sun, 20 Aug 2017 10:26:41 +0100 Movies
[b]ImDb: [URL]http://www.imdb.com/title/tt4480398[/URL][/b]

[url=https://www.sparrowpics.com/image/kbFon][img]https://www.sparrowpics.com/images/2017/07/04/kbFon.png[/img][/url]

[b]Complete name : Attack.of.the.Killer.Donuts.2016.BRRip.XviD.AC3-EVO.avi
Format : AVI
Format/Info : Audio Video Interleave
Format profile : OpenDML
Format settings : rec
File size : 1.40 GiB
Duration : 1 h 21 min
Overall bit rate : 2 452 kb/s
Writing application : AVI-Mux GUI 1.17.8.3, Feb 16 201019:42:50

Video
ID : 0
Format : MPEG-4 Visual
Format profile : Advanced Simple@L5
Format settings, BVOP : 2
Format settings, QPel : No
Format settings, GMC : No warppoints
Format settings, Matrix : Default (H.263)
Muxing mode : Packed bitstream
Codec ID : XVID
Codec ID/Hint : XviD
Duration : 1 h 21 min
Bit rate : 1 998 kb/s
Width : 720 pixels
Height : 400 pixels
Display aspect ratio : 16:9
Frame rate : 25.000 FPS
Color space : YUV
Chroma subsampling : 4:2:0
Bit depth : 8 bits
Scan type : Progressive
Compression mode : Lossy
Bits/(Pixel*Frame) : 0.278
Stream size : 1.14 GiB (82%)
Writing library : XviD 66

Audio
ID : 1
Format : AC-3
Format/Info : Audio Coding 3
Format settings, Endianness : Big
Codec ID : 2000
Duration : 1 h 21 min
Bit rate mode : Constant
Bit rate : 448 kb/s
Channel(s) : 6 channels
Channel positions : Front: L C R, Side: L R, LFE
Sampling rate : 48.0 kHz
Frame rate : 31.250 FPS (1536 spf)
Bit depth : 16 bits
Compression mode : Lossy
Stream size : 261 MiB (18%)
Alignment : Aligned on interleaves
Interleave, duration : 64 ms (1.60 video frames)
Interleave, preload duration : 192 ms
Service kind : Complete Main[/b]

[url=https://www.sparrowpics.com/image/kbJ5y][img]https://www.sparrowpics.com/images/2017/07/04/kbJ5y.png[/img][/url]

[URL=https://www.sparrowpics.com/image/QIsW9][IMG]https://www.sparrowpics.com/images/2017/08/20/QIsW9.th.jpg[/IMG][/URL]

[URL=https://www.sparrowpics.com/image/QIuzb][b]Click To View Screenshot[/b][/URL]

[URL=https://www.sparrowpics.com/image/QIZV3][b]Click To View Screenshot[/b][/URL]

[URL=https://www.sparrowpics.com/image/QIT1K][b]Click To View Screenshot[/b][/URL][/center] ]]>
Attack.of.the.Killer.Donuts.2016.BRRip.XviD.AC3-EVO http://glodls.to/torrent.php?id=2722876 http://glodls.to/torrent.php?id=2722876 Sun, 20 Aug 2017 10:26:40 +0100 Movies [color=red][b]
Attack.of.the.Killer.Donuts.2016.BRRip.XviD.AC3-EVO

[/b][/color]


IMDb: http://www.imdb.com/title/tt4480398/





[url=https://boltimg.com/image/t52z][img]https://boltimg.com/images/t52z.png[/img][/url]



[color=green][b]
General

(Duration): 1h 21mn
(FileSize): 1.40 GiB



Audio

(Format): AC-3 - Audio Coding 3
(Codec): AC3



Video

(Format): MPEG-4 Visual -
(Media): video/MP4V-ES
(Format): XviD
(Resolution): 720x400 px
(AspectRatio): 16:9
(FrameRate): 25.000 fps




[/b][/color]


[url=https://boltimg.com/image/tzTE][img]https://boltimg.com/images/tzTE.png[/img][/url]



[color=purple][b](Click to enlarge)[/b][/color]

[url=https://boltimg.com/image/mOvyO][img]https://boltimg.com/images/mOvyO.th.jpg[/img][/url] [url=https://boltimg.com/image/mOezS][img]https://boltimg.com/images/mOezS.th.jpg[/img][/url] [url=https://boltimg.com/image/mjLrE][img]https://boltimg.com/images/mjLrE.th.jpg[/img][/url] [url=https://boltimg.com/image/mjUgz][img]https://boltimg.com/images/mjUgz.th.jpg[/img][/url] [url=https://boltimg.com/image/mjZpM][img]https://boltimg.com/images/mjZpM.th.jpg[/img][/url] [url=https://boltimg.com/image/mjrvZ][img]https://boltimg.com/images/mjrvZ.th.jpg[/img][/url]

[/center]
]]>
In The Booty 3 (Evil Angel) NEW 2017 WEB-DL http://glodls.to/torrent.php?id=2722875 http://glodls.to/torrent.php?id=2722875 Sun, 20 Aug 2017 10:25:07 +0100 Adult XXX
Country: USA

Genre: Gonzo, Anal

Duration: 03:13:08

Language: English

Directed by: Mike Adriano

Studio: Evil Angel

Cast: Rebel Lynn, Riley Jenner, Lana Croft, Chanel Preston.

[size=5][url=http://HotImage.uk/img-5999625b9940b.html]http://HotImage.uk/img-5999625b9940b.html[/url]

[url=http://HotImage.uk/img-5999625ba2ea0.html]http://HotImage.uk/img-5999625ba2ea0.html[/url]

[url=http://HotImage.uk/img-5999625baab86.html]http://HotImage.uk/img-5999625baab86.html[/url]

[url=https://www.xxximagetpb.org/image/URu3C]https://www.xxximagetpb.org/image/URu3C[/url]

[url=https://www.xxximagetpb.org/image/UvCwM]https://www.xxximagetpb.org/image/UvCwM[/url]

[url=https://www.xxximagetpb.org/image/UvSVA]https://www.xxximagetpb.org/image/UvSVA[/url]

[url=http://HotImage.uk/img-5999625bc0dc4.html]http://HotImage.uk/img-5999625bc0dc4.html[/url][/size] ]]>
300 Near Naked Girls with Big Boobs Wallpapers - Set 27 http://glodls.to/torrent.php?id=2722874 http://glodls.to/torrent.php?id=2722874 Sun, 20 Aug 2017 10:25:00 +0100 Pictures
300 JPG | mix | 129 Mb [/b]

[url=http://www.wallhdpic.com/2015/06/sunny-leone-wallpaper.html][b]PREVIEW 1[/b][/url]

[url=http://www.wallhdpic.com/2015/02/salma-hayek-hair-wallpaper.html][b]PREVIEW 2[/b][/url]

[url=http://www.wallhdpic.com/2015/01/penelope-cruz-wallpaper.html][b]PREVIEW 3[/b][/url]

[url=http://www.wallhdpic.com/2015/01/emma-watson-cute-wallpaper.html][b]PREVIEW 4[/b][/url]

[url=http://www.wallhdpic.com/2015/02/denise-richards-wallpaper_24.html][b]PREVIEW 5[/b][/url]

]]>
InTheCrack E1316 Esmi Lee XXX 480p MP4-TK http://glodls.to/torrent.php?id=2722873 http://glodls.to/torrent.php?id=2722873 Sun, 20 Aug 2017 10:22:22 +0100 Adult XXX
[b]Screenshots:[/b]

[url]http://imgking.co/imgs-599962dfef183.html[/url]

[url]http://imgking.co/imgs-599962dfec5e6.html[/url]

[url]http://imgking.co/imgs-599962dfe981f.html[/url]

[url]http://imgking.co/imgs-599962de72659.html[/url]

File Size : 291 MiB
Duration : 35mn 19s
Video : h264, yuv420p, 854x480p, 1024 Kbps
Audio : aac , 2 ch, stereo , 128 Kbps ]]>
Attack.of.the.Killer.Donuts.2016.1080p.BluRay.x264-RUSTED[EtHD] http://glodls.to/torrent.php?id=2722872 http://glodls.to/torrent.php?id=2722872 Sun, 20 Aug 2017 10:18:44 +0100 Movies EtHD - EtHD - Et High-Definition Movies

-----------------------------------------------------

[url=https://extraimage.net/image/TNHW][img]https://extraimage.net/images/2017/08/20/3d2be8dd5bf9c087f826ae1d8032ed08.jpg[/img][/url]

Attack.of.the.Killer.Donuts.2016.1080p.BluRay.x264-RUSTED

http://www.imdb.com/title/tt4480398/

[Video Bitrate]:.............: 13.4mb/s
[Duration]:.............: 1 h 21 min
[Video Codec]:.............: AVC
[Resolution]:.............: 1920x1080 px
[Aspect Ratio]:.............: 16:9
[Audio Codec]:.............: DTS
[Audio Bitrate]:.............: 1509kb/s
[Audio Channels]:.............: 5.1ch
[Audio Language]:.............: English

Genre .......................: Comedy | Horror

[color=green][b]#EtHD -> To avoid fakes, ALWAYS check that the torrent was added by EtHD [/b][/color]



[color=green][b]To keep us going Support us by donating Bitcoin: 3MDamEmgKepqagtQe9eEdQ3NCrWEWjhoL5[/b][/color]

[b]Screens...[/b]

[url]https://extraimage.net/image/TNHH[/url]
[url]https://extraimage.net/image/TNHk[/url]
[url]https://extraimage.net/image/TNHo[/url]
[url]https://extraimage.net/image/TNHt[/url]
[url]https://extraimage.net/image/TNHx[/url]
[url]https://extraimage.net/image/TNHA[/url]
]]>
Sexy Jessica Alba Showing Boobs Exposed photoshoot and Near Naked Pics - Set 26 http://glodls.to/torrent.php?id=2722871 http://glodls.to/torrent.php?id=2722871 Sun, 20 Aug 2017 10:18:43 +0100 Pictures
55 JPG | mix | 7 Mb [/b]

[url=http://www.wallhdpic.com/2015/03/jessica-alba-wallpaper_49.html][b]PREVIEW 1[/b][/url]

[url=http://www.wallhdpic.com/2015/04/jessica-alba-hair-wallpaper.html][b]PREVIEW 2[/b][/url]

[url=http://www.wallhdpic.com/2015/03/jessica-alba-wallpaper_8.html][b]PREVIEW 3[/b][/url]

[url=http://www.wallhdpic.com/2015/03/jessica-alba-eyes-wallpaper_8.html][b]PREVIEW 4[/b][/url]


]]>
The Mist 2007 BDRip 1080p Ita Eng x265-NAHOM http://glodls.to/torrent.php?id=2722870 http://glodls.to/torrent.php?id=2722870 Sun, 20 Aug 2017 10:11:18 +0100 Movies [b]
Titolo originale: The Mist
Nazione: U.S.A.
Anno: 2007
Genere: Horror
Durata: 127'
Regia: Frank Darabont
Sito ufficiale: www.themist-movie.com
Sito italiano: www.keyfilms.it/themist

Cast: Thomas Jane, Marcia Gay Harden, Laurie Holden, William Sadler, Nathan Gamble, David Jensen, Jay Amor, Andre Braugher, Julio Cedillo, Kevin Beard, Dodie Brown, Alexa Davalos, Kip Cummings, John F. Daniel
Produzione: Darkwoods Productions, Dimension Films
Distribuzione: Key Films
[/b]

[IMG]http://i.imgur.com/dwaUgxs.png[/IMG]

[b]A freak storm unleashes a species of bloodthirsty creatures on a small town, where a small band of citizens hole up in a supermarket and fight for their lives.

Dopo che una violenta tempesta si é abbattuta in una cittadina del Maine, la mattina dopo una strana nebbia si avvicina ed avvolge tutta la zona. Il fenomeno tiene prigionieri i clienti di un supermercato, tra i quali David Drayton e suo figlio di cinque anni. David é il primo a capire che qualcosa di misterioso ed orribile si nasconde dietro quella inconsueta nebbia, infatti, le grida che si sentono provenire da questa, sembrano appartenere a creature sconosciute,.......
[/b]

[IMG]http://i.imgur.com/4Ryvo7o.png[/IMG]

[URL=https://ibb.co/b1Lvu5][IMG]https://thumb.ibb.co/b1Lvu5/The_Mist_2007_BDRip_1080p_Ita_Eng_x265_NAHOM_mkv_20170820_080001_149.jpg[/IMG][/URL] [URL=https://ibb.co/embPnQ][IMG]https://thumb.ibb.co/embPnQ/The_Mist_2007_BDRip_1080p_Ita_Eng_x265_NAHOM_mkv_20170820_075946_813.jpg[/IMG][/URL] [URL=https://ibb.co/mG9oE5][IMG]https://thumb.ibb.co/mG9oE5/The_Mist_2007_BDRip_1080p_Ita_Eng_x265_NAHOM_mkv_20170820_075838_997.jpg[/IMG][/URL] [URL=https://ibb.co/bwnau5][IMG]https://thumb.ibb.co/bwnau5/The_Mist_2007_BDRip_1080p_Ita_Eng_x265_NAHOM_mkv_20170820_075307_053.jpg[/IMG][/URL] [URL=https://ibb.co/d8Qvu5][IMG]https://thumb.ibb.co/d8Qvu5/The_Mist_2007_BDRip_1080p_Ita_Eng_x265_NAHOM_mkv_20170820_075140_573.jpg[/IMG][/URL] [URL=https://ibb.co/evd4nQ][IMG]https://thumb.ibb.co/evd4nQ/The_Mist_2007_BDRip_1080p_Ita_Eng_x265_NAHOM_mkv_20170820_074829_815.jpg[/IMG][/URL]


[ Info sul file ]

Nome: The Mist 2007 BDRip 1080p Ita Eng x265-NAHOM.mkv
Data: Fri, 18 Aug 2017 23:58:35 +0200
Dimensione: 3,080,082,117 bytes (2937.395207 MiB)

[ Magic ]

Tipo file: data

[ Info generiche ]

Durata: 02:06:00 (7559.594 s)
Contenitore: matroska
Production date: Fri, 18 Aug 2017 23:53:27 +0200
Totale tracce: 4
Traccia n. 1: video (V_MPEGH/ISO/HEVC) {und}
Traccia n. 2: subtitle (S_TEXT/UTF8) {eng}
Traccia n. 3: audio (A_AC3) {ita}
Traccia n. 4: audio (A_AAC) {eng}
Muxing library: libebml v1.3.4 + libmatroska v1.4.5
Writing application: mkvmerge v13.0.0 ('The Juggler') 32bit

[ Traccia video ]

Codec ID: V_MPEGH/ISO/HEVC
Risoluzione: 1920 x 1036
Frame aspect ratio: 480:259 = 1.853282 (~1.85:1)
Pixel aspect ratio: 1:1 = 1
Display aspect ratio: 480:259 = 1.853282 (~1.85:1)
Framerate: 23.976025 fps
Dimensione stream: 2,593,129,370 bytes (2473.000879 MiB)
Durata: 02:06:00 (7559.593285 s)
Bitrate (bs): 2744.199876 kbps
Qf: 0.057541

[ Traccia audio nr. 1 ]

Codec ID: A_AC3
Freq. campionamento: 48000 Hz
Canali: 6
Dimensione stream: 362,712,576 bytes (345.909668 MiB)
Tipo di bitstream (bs): AC3
Frames (bs): 236,141
Durata: 02:05:57 (7556.512 s)
Chunk-aligned (bs): Sì
Bitrate (bs): 384 kbps CBR
Freq. campionamento (bs): 48000 Hz
Modo (bs): 3 front, 2 rear, 1 LFE

[ Traccia audio nr. 2 ]

Codec ID: A_AAC
Freq. campionamento: 48000 Hz
Canali: 2
Dimensione stream: 121,749,578 bytes (116.109446 MiB)
Tipo di bitstream (bs): AAC LC (Low Complexity)
Frames (bs): 354,355
Durata: 02:06:00 (7559.573333 s)
Chunk-aligned (bs): Sì
Bitrate (bs): 128.842804 kbps VBR
Freq. campionamento (bs): 48000 Hz
Modo (bs): 2: front-left, front-right

Rapporto creato da AVInaptic (18-12-2011) in data 20-08-2017 08:29:44







[SIZE=16][color=red][font=Courier]Un ringraziamento speciale per la seedbox fornita da SkyyVodka[/SIZE][/color][/font]


[/center] ]]>