GloDLS.to - Download Movies, TV, Games and Other Torrents Free RSS 2.0enGloDLS.to - Download Movies, TV, Games and Other Torrents FreeGloDLS.to - Download Movies, TV, Games and Other Torrents Free RSS Feedhttp://glodls.toCopyright GloDLS.to - Download Movies, TV, Games and Other Torrents FreeTue, 23 May 2017 19:52:43 +0100 Nerd Pervert Vol 19 XXX XviD SD http://glodls.to/torrent.php?id=2527930 http://glodls.to/torrent.php?id=2527930 Tue, 23 May 2017 18:51:49 +0100 Adult XXX
[b]Screenshots:[/b]

[url]http://imgking.co/imgs-592484c6e62fc.html[/url]

[url]http://imgking.co/imgs-592484c6e1aa4.html[/url]

[url]http://imgking.co/imgs-592484c6d7dba.html[/url]

[url]http://imgking.co/imgs-592484c28b892.html[/url] ]]>
WowGirls - Meeting With Michelle [1080p] mp4 http://glodls.to/torrent.php?id=2527929 http://glodls.to/torrent.php?id=2527929 Tue, 23 May 2017 18:47:30 +0100 Adult XXX
900.81 MB

Screens

[url]http://img.img-central.com/image/wvXCq[/url]
[url]http://img.img-central.com/image/wvzDE[/url]
[url]http://img.img-central.com/image/wv9Zl[/url]
[url]http://img.img-central.com/image/wvJ9Z[/url]

[img]https://s22.postimg.org/ihxihuqzl/Wow_Girls_1.jpg[/img] ]]>
The.Sense.of.an.Ending.2017.HDRip.XviD.AC3-iFT[PRiME] http://glodls.to/torrent.php?id=2527928 http://glodls.to/torrent.php?id=2527928 Tue, 23 May 2017 18:46:45 +0100 Movies The.Sense.of.an.Ending.2017.HDRip.XviD.AC3-iFT[PRiME]

ImDb: [URL]http://www.imdb.com/title/tt4827986[/URL]

[url=https://www.sparrowpics.com/image/LwB][img]https://www.sparrowpics.com/images/2015/12/10/Info.png[/img][/url]

[color=green]Complete name : The.Sense.of.an.Ending.2017.HDRip.XviD.AC3-iFT[PRiME].avi
Format : AVI
Format/Info : Audio Video Interleave
Format profile : OpenDML
Format settings : rec
File size : 1.76 GiB
Duration : 1 h 48 min
Overall bit rate : 2 336 kb/s
Writing application : AVI-Mux GUI 1.17.8.3, Feb 16 201019:42:50

Video
ID : 0
Format : MPEG-4 Visual
Format profile : Advanced Simple@L5
Format settings, BVOP : 2
Format settings, QPel : No
Format settings, GMC : No warppoints
Format settings, Matrix : Default (H.263)
Muxing mode : Packed bitstream
Codec ID : XVID
Codec ID/Hint : XviD
Duration : 1 h 48 min
Bit rate : 1 947 kb/s
Width : 720 pixels
Height : 304 pixels
Display aspect ratio : 2.35:1
Frame rate : 23.976 (23976/1000) FPS
Color space : YUV
Chroma subsampling : 4:2:0
Bit depth : 8 bits
Scan type : Progressive
Compression mode : Lossy
Bits/(Pixel*Frame) : 0.371
Stream size : 1.47 GiB (83%)
Writing library : XviD 73

Audio
ID : 1
Format : AC-3
Format/Info : Audio Coding 3
Mode extension : CM (complete main)
Format settings, Endianness : Big
Codec ID : 2000
Duration : 1 h 48 min
Bit rate mode : Constant
Bit rate : 384 kb/s
Channel(s) : 6 channels
Channel positions : Front: L C R, Side: L R, LFE
Sampling rate : 48.0 kHz
Frame rate : 31.250 FPS (1536 spf)
Compression mode : Lossy
Stream size : 297 MiB (16%)
Alignment : Aligned on interleaves
Interleave, duration : 64 ms (1.53 video frames)
Interleave, preload duration : 192 ms
Title : The.track_2[/color]

[url=https://www.sparrowpics.com/image/UYe][img]https://www.sparrowpics.com/images/2015/12/10/Screens.png[/img][/url]

[color=red]Click Image To View Full Size[/color]

[URL=https://www.sparrowpics.com/image/7j7rV][IMG]https://www.sparrowpics.com/images/2017/05/24/7j7rV.th.jpg[/IMG][/URL]
[URL=https://www.sparrowpics.com/image/7jK7d][b]Click To View Screenshot[/b][/URL]
[URL=https://www.sparrowpics.com/image/7jmM1][b]Click To View Screenshot[/b][/URL]
[URL=https://www.sparrowpics.com/image/7jvdH][b]Click To View Screenshot[/b][/URL]

[/center] ]]>
Holed - Oiled Up For Anal - Harley Jade [1080p] mp4 http://glodls.to/torrent.php?id=2527927 http://glodls.to/torrent.php?id=2527927 Tue, 23 May 2017 18:45:55 +0100 Adult XXX
2.48 GB

Screens

[url]http://img.img-central.com/image/wvNb4[/url]
[url]http://img.img-central.com/image/wvbIn[/url]
[url]http://img.img-central.com/image/wvfom[/url]
[url]http://img.img-central.com/image/wvP1e[/url]

[img]https://s8.postimg.org/8942lo7v9/Holed_1.jpg[/img]

]]>
[HorribleSubs] Shuumatsu Nani Shitemasuka Isogashii Desuka Sukutte Moratte Ii Desuka - 07 [1080p] mkv http://glodls.to/torrent.php?id=2527926 http://glodls.to/torrent.php?id=2527926 Tue, 23 May 2017 18:43:22 +0100 Anime [color=red][b]JAPANESE AUDIO[/b][/color] |[color=blue] [b]ENGLISH SUBTITLES[/b][/color]

[b][u]Alternative Titles[/u][/b]
[u]English[/u]: WorldEnd: What do you do at the end of the world? Are you busy? Will you save us?
[u]Synonyms[/u]: SukaSuka, What are you doing at the end? Are you busy? Can you save me?
[u]Japanese[/u]: ??????????????????????????????

[b][u]Information[/u][/b]
[u]Type[/u]: TV
[u]Episodes[/u]: ?
[u]Status[/u]: Currently Airing
[u]Aired[/u]: Apr 11, 2017 to ?
[u]Premiered[/u]: Spring 2017
[u]Broadcast[/u]: Tuesdays at 23:30 (JST)
[u]Producers[/u]: Lantis, Kadokawa Shoten, AT-X, DAX Production, KlockWorx, Kadokawa Media House, Production Ace
[u]Licensors[/u]: FUNimation Entertainment
[u]Studios[/u]: Satelight, C2C
[u]Source[/u]: Light novel
[u]Genres[/u]: Sci-Fi, Drama, Romance, Fantasy
[u]Duration[/u]: 24 min.

[b][u]Synopsis[/u][/b]
Five hundred years have passed since the humans went extinct at the hands of the fearsome and mysterious 'Beasts.' The surviving races now make their homes up on floating islands in the sky, out of reach of all but the most mobile of Beasts.

Only a small group of young girls, the Leprechauns, can wield the ancient weapons needed to fend off invasions from these creatures. Into the girls' unstable and fleeting lives, where a call to certain death could come at any moment, enters an unlikely character: a young man who lost everything in his final battle five hundred years ago, the last living human awakened from a long, icy slumber.

Unable to fight any longer, Willem becomes the father that the girls never had, caring for and nurturing them even as he struggles to come to terms with his new life, in which he feels the pain of helplessly waiting for his loved ones to return home from battle that his 'Daughter' once felt for him so long ago. Together, Willem and the girls gradually come to understand what family means and what is truly worth protecting.
]]>
Trash.Fire.2016.720p.BluRay.x264-VALUE[PRiME] http://glodls.to/torrent.php?id=2527924 http://glodls.to/torrent.php?id=2527924 Tue, 23 May 2017 18:42:26 +0100 Movies Trash.Fire.2016.720p.BluRay.x264-VALUE[PRiME]

ImDb: [URL]http://www.imdb.com/title/tt5076792[/URL]

[url=https://www.sparrowpics.com/image/LwB][img]https://www.sparrowpics.com/images/2015/12/10/Info.png[/img][/url]

[color=green]Complete name : trash.fire.2016.720p.bluray.x264-value[PRiME].mkv
Format : Matroska
Format version : Version 4 / Version 2
File size : 4.37 GiB
Duration : 1 h 33 min
Overall bit rate : 6 662 kb/s
Encoded date : UTC 2017-05-23 17:42:53
Writing application : mkvmerge v10.0.0 ('To Drown In You') 64bit
Writing library : libebml v1.3.4 + libmatroska v1.4.5

Video
ID : 1
Format : AVC
Format/Info : Advanced Video Codec
Format profile : High@L4.1
Format settings, CABAC : Yes
Format settings, ReFrames : 5 frames
Codec ID : V_MPEG4/ISO/AVC
Duration : 1 h 33 min
Bit rate : 5 152 kb/s
Width : 1 280 pixels
Height : 536 pixels
Display aspect ratio : 2.40:1
Frame rate mode : Constant
Frame rate : 23.976 (24000/1001) FPS
Color space : YUV
Chroma subsampling : 4:2:0
Bit depth : 8 bits
Scan type : Progressive
Bits/(Pixel*Frame) : 0.313
Stream size : 3.38 GiB (77%)
Writing library : x264 core 148 r2762 90a61ec
Encoding settings : cabac=1 / ref=5 / deblock=1:-1:-1 / analyse=0x3:0x133 / me=umh / subme=8 / psy=1 / psy_rd=1.00:0.15 / mixed_ref=1 / me_range=16 / chroma_me=1 / trellis=1 / 8x8dct=1 / cqm=0 / deadzone=21,11 / fast_pskip=0 / chroma_qp_offset=-4 / threads=17 / lookahead_threads=2 / sliced_threads=0 / nr=0 / decimate=1 / interlaced=0 / bluray_compat=0 / constrained_intra=0 / bframes=3 / b_pyramid=2 / b_adapt=2 / b_bias=0 / direct=3 / weightb=1 / open_gop=0 / weightp=2 / keyint=240 / keyint_min=23 / scenecut=40 / intra_refresh=0 / rc_lookahead=50 / rc=2pass / mbtree=1 / bitrate=5152 / ratetol=1.0 / qcomp=0.60 / qpmin=10 / qpmax=69 / qpstep=4 / cplxblur=20.0 / qblur=0.5 / ip_ratio=1.40 / aq=1:1.00
Language : English
Default : Yes
Forced : No

Audio
ID : 2
Format : DTS
Format/Info : Digital Theater Systems
Mode : 16
Format settings, Endianness : Big
Codec ID : A_DTS
Duration : 1 h 33 min
Bit rate mode : Constant
Bit rate : 1 509 kb/s
Channel(s) : 6 channels
Channel positions : Front: L C R, Side: L R, LFE
Sampling rate : 48.0 kHz
Frame rate : 93.750 FPS (512 spf)
Bit depth : 24 bits
Compression mode : Lossy
Stream size : 1 014 MiB (23%)
Language : English
Default : Yes
Forced : No

Menu
00:00:00.000 : en:00:00:00.000
00:07:13.183 : en:00:07:13.183
00:15:19.627 : en:00:15:19.627
00:22:42.820 : en:00:22:42.820
00:34:36.324 : en:00:34:36.324
00:43:31.484 : en:00:43:31.484
00:50:17.056 : en:00:50:17.056
00:59:19.806 : en:00:59:19.806
01:06:05.211 : en:01:06:05.211
01:14:56.200 : en:01:14:56.200
01:22:26.984 : en:01:22:26.984
01:28:32.307 : en:01:28:32.307[/color]

[url=https://www.sparrowpics.com/image/UYe][img]https://www.sparrowpics.com/images/2015/12/10/Screens.png[/img][/url]

[color=red]Click Image To View Full Size[/color]

[URL=https://www.sparrowpics.com/image/7jcZ3][IMG]https://www.sparrowpics.com/images/2017/05/24/7jcZ3.th.jpg[/IMG][/URL]
[URL=https://www.sparrowpics.com/image/7jDNK][b]Click To View Screenshot[/b][/URL]
[URL=https://www.sparrowpics.com/image/7jVQX][b]Click To View Screenshot[/b][/URL]
[URL=https://www.sparrowpics.com/image/7jnPM][b]Click To View Screenshot[/b][/URL]

[/center] ]]>
[HorribleSubs] Shuumatsu Nani Shitemasuka Isogashii Desuka Sukutte Moratte Ii Desuka - 07 [720p] mkv http://glodls.to/torrent.php?id=2527922 http://glodls.to/torrent.php?id=2527922 Tue, 23 May 2017 18:41:20 +0100 Anime [color=red][b]JAPANESE AUDIO[/b][/color] |[color=blue] [b]ENGLISH SUBTITLES[/b][/color]

[b][u]Alternative Titles[/u][/b]
[u]English[/u]: WorldEnd: What do you do at the end of the world? Are you busy? Will you save us?
[u]Synonyms[/u]: SukaSuka, What are you doing at the end? Are you busy? Can you save me?
[u]Japanese[/u]: ??????????????????????????????

[b][u]Information[/u][/b]
[u]Type[/u]: TV
[u]Episodes[/u]: ?
[u]Status[/u]: Currently Airing
[u]Aired[/u]: Apr 11, 2017 to ?
[u]Premiered[/u]: Spring 2017
[u]Broadcast[/u]: Tuesdays at 23:30 (JST)
[u]Producers[/u]: Lantis, Kadokawa Shoten, AT-X, DAX Production, KlockWorx, Kadokawa Media House, Production Ace
[u]Licensors[/u]: FUNimation Entertainment
[u]Studios[/u]: Satelight, C2C
[u]Source[/u]: Light novel
[u]Genres[/u]: Sci-Fi, Drama, Romance, Fantasy
[u]Duration[/u]: 24 min.

[b][u]Synopsis[/u][/b]
Five hundred years have passed since the humans went extinct at the hands of the fearsome and mysterious 'Beasts.' The surviving races now make their homes up on floating islands in the sky, out of reach of all but the most mobile of Beasts.

Only a small group of young girls, the Leprechauns, can wield the ancient weapons needed to fend off invasions from these creatures. Into the girls' unstable and fleeting lives, where a call to certain death could come at any moment, enters an unlikely character: a young man who lost everything in his final battle five hundred years ago, the last living human awakened from a long, icy slumber.

Unable to fight any longer, Willem becomes the father that the girls never had, caring for and nurturing them even as he struggles to come to terms with his new life, in which he feels the pain of helplessly waiting for his loved ones to return home from battle that his 'Daughter' once felt for him so long ago. Together, Willem and the girls gradually come to understand what family means and what is truly worth protecting.
]]>
[HorribleSubs] Shuumatsu Nani Shitemasuka Isogashii Desuka Sukutte Moratte Ii Desuka - 07 [480p] mkv http://glodls.to/torrent.php?id=2527921 http://glodls.to/torrent.php?id=2527921 Tue, 23 May 2017 18:41:04 +0100 Anime [color=red][b]JAPANESE AUDIO[/b][/color] |[color=blue] [b]ENGLISH SUBTITLES[/b][/color]

[b][u]Alternative Titles[/u][/b]
[u]English[/u]: WorldEnd: What do you do at the end of the world? Are you busy? Will you save us?
[u]Synonyms[/u]: SukaSuka, What are you doing at the end? Are you busy? Can you save me?
[u]Japanese[/u]: ??????????????????????????????

[b][u]Information[/u][/b]
[u]Type[/u]: TV
[u]Episodes[/u]: ?
[u]Status[/u]: Currently Airing
[u]Aired[/u]: Apr 11, 2017 to ?
[u]Premiered[/u]: Spring 2017
[u]Broadcast[/u]: Tuesdays at 23:30 (JST)
[u]Producers[/u]: Lantis, Kadokawa Shoten, AT-X, DAX Production, KlockWorx, Kadokawa Media House, Production Ace
[u]Licensors[/u]: FUNimation Entertainment
[u]Studios[/u]: Satelight, C2C
[u]Source[/u]: Light novel
[u]Genres[/u]: Sci-Fi, Drama, Romance, Fantasy
[u]Duration[/u]: 24 min.

[b][u]Synopsis[/u][/b]
Five hundred years have passed since the humans went extinct at the hands of the fearsome and mysterious 'Beasts.' The surviving races now make their homes up on floating islands in the sky, out of reach of all but the most mobile of Beasts.

Only a small group of young girls, the Leprechauns, can wield the ancient weapons needed to fend off invasions from these creatures. Into the girls' unstable and fleeting lives, where a call to certain death could come at any moment, enters an unlikely character: a young man who lost everything in his final battle five hundred years ago, the last living human awakened from a long, icy slumber.

Unable to fight any longer, Willem becomes the father that the girls never had, caring for and nurturing them even as he struggles to come to terms with his new life, in which he feels the pain of helplessly waiting for his loved ones to return home from battle that his 'Daughter' once felt for him so long ago. Together, Willem and the girls gradually come to understand what family means and what is truly worth protecting.
]]>
[HorribleSubs] Rokudenashi Majutsu Koushi to Akashic Records - 08 [1080p] mkv http://glodls.to/torrent.php?id=2527920 http://glodls.to/torrent.php?id=2527920 Tue, 23 May 2017 18:40:26 +0100 Anime
[img]https://extraimage.net/images/2017/04/08/b5f87d1bb217d21eb5b725ef88f244b6.jpg[/img]
[color=red][b]JAPANESE AUDIO[/b][/color] | [color=blue] [b]ENGLISH SUBTITLES[/b][/color]

[b][u]Alternative Titles[/u][/b]
[u]English[/u]: Akashic Records of Bastard Magic Instructor
[u]Japanese[/u]: ??????????????

[b][u]Information[/u][/b]
[u]Type[/u]: TV
[u]Episodes[/u]: 12
[u]Status[/u]: Currently Airing
[u]Aired[/u]: Apr 4, 2017 to ?
[u]Premiered[/u]: Spring 2017
[u]Broadcast[/u]: Tuesdays at 20:30 (JST)
[u]Producers[/u]: Media Factory, AT-X, Kadokawa Pictures Japan, Ultra Super Pictures, Tohokushinsha Film Corporation, Sony Music Communications
[u]Studios[/u]: LIDENFILMS
[u]Source[/u]: Light novel
[u]Genres[/u]: Action, Magic, Fantasy, School
[u]Duration[/u]: 24 min. per ep.

[b][u]Synopsis[/u][/b]
Sistina attends a magical academy to hone her skills in the magical arts, hoping to solve the mystery of the enigmatic Sky Castle. After the retirement of her favorite teacher, the replacement, Glen, turns out to be a tardy, lazy, and seemingly incompetent bastard of an instructor. How is it that Glen was hand-picked by the best magician in the academy?! ]]>
[HorribleSubs] Rokudenashi Majutsu Koushi to Akashic Records - 08 [720p] mkv http://glodls.to/torrent.php?id=2527919 http://glodls.to/torrent.php?id=2527919 Tue, 23 May 2017 18:40:11 +0100 Anime
[img]https://extraimage.net/images/2017/04/08/b5f87d1bb217d21eb5b725ef88f244b6.jpg[/img]
[color=red][b]JAPANESE AUDIO[/b][/color] | [color=blue] [b]ENGLISH SUBTITLES[/b][/color]

[b][u]Alternative Titles[/u][/b]
[u]English[/u]: Akashic Records of Bastard Magic Instructor
[u]Japanese[/u]: ??????????????

[b][u]Information[/u][/b]
[u]Type[/u]: TV
[u]Episodes[/u]: 12
[u]Status[/u]: Currently Airing
[u]Aired[/u]: Apr 4, 2017 to ?
[u]Premiered[/u]: Spring 2017
[u]Broadcast[/u]: Tuesdays at 20:30 (JST)
[u]Producers[/u]: Media Factory, AT-X, Kadokawa Pictures Japan, Ultra Super Pictures, Tohokushinsha Film Corporation, Sony Music Communications
[u]Studios[/u]: LIDENFILMS
[u]Source[/u]: Light novel
[u]Genres[/u]: Action, Magic, Fantasy, School
[u]Duration[/u]: 24 min. per ep.

[b][u]Synopsis[/u][/b]
Sistina attends a magical academy to hone her skills in the magical arts, hoping to solve the mystery of the enigmatic Sky Castle. After the retirement of her favorite teacher, the replacement, Glen, turns out to be a tardy, lazy, and seemingly incompetent bastard of an instructor. How is it that Glen was hand-picked by the best magician in the academy?! ]]>
[HorribleSubs] Rokudenashi Majutsu Koushi to Akashic Records - 08 [480p] mkv http://glodls.to/torrent.php?id=2527918 http://glodls.to/torrent.php?id=2527918 Tue, 23 May 2017 18:39:56 +0100 Anime
[img]https://extraimage.net/images/2017/04/08/b5f87d1bb217d21eb5b725ef88f244b6.jpg[/img]
[color=red][b]JAPANESE AUDIO[/b][/color] | [color=blue] [b]ENGLISH SUBTITLES[/b][/color]

[b][u]Alternative Titles[/u][/b]
[u]English[/u]: Akashic Records of Bastard Magic Instructor
[u]Japanese[/u]: ??????????????

[b][u]Information[/u][/b]
[u]Type[/u]: TV
[u]Episodes[/u]: 12
[u]Status[/u]: Currently Airing
[u]Aired[/u]: Apr 4, 2017 to ?
[u]Premiered[/u]: Spring 2017
[u]Broadcast[/u]: Tuesdays at 20:30 (JST)
[u]Producers[/u]: Media Factory, AT-X, Kadokawa Pictures Japan, Ultra Super Pictures, Tohokushinsha Film Corporation, Sony Music Communications
[u]Studios[/u]: LIDENFILMS
[u]Source[/u]: Light novel
[u]Genres[/u]: Action, Magic, Fantasy, School
[u]Duration[/u]: 24 min. per ep.

[b][u]Synopsis[/u][/b]
Sistina attends a magical academy to hone her skills in the magical arts, hoping to solve the mystery of the enigmatic Sky Castle. After the retirement of her favorite teacher, the replacement, Glen, turns out to be a tardy, lazy, and seemingly incompetent bastard of an instructor. How is it that Glen was hand-picked by the best magician in the academy?! ]]>
Gandhigiri (2016) Hindi 720p DTHRip x264 AAC - Downloadhub http://glodls.to/torrent.php?id=2527917 http://glodls.to/torrent.php?id=2527917 Tue, 23 May 2017 18:37:53 +0100 Movies
[img]https://extraimage.net/images/2017/05/10/0f98922bd359e7eaf5f6ad12fc86c758.png[/img]

[b][code]MOVIE INFO:
http://www.imdb.com/title/tt4677434/
[FORMAT]:…………………….[ Matroska
[CODEC]:………………[ x264
[GENRE]:……………………[ Drama
[FILE SIZE]:……………………[ 999MB
[RESOLUTION]:……………….[ 1280x528
[LANGUAGE]:…………………[ Hindi
[SUBTITLES]:………………..[ No
[ENCODER]:…………..[ Downloadhub
[SOURCE]:…………………..[ hon3y Thanks[/code]

[Medai Info]: [url]https://linkshub.club/index.php?ID=42958969912600-paste[/url]

[url]https://downloadhub.in[/url]

Sample Including In Torrent[/b]

[url=https://www.jiopic.com/image/X3AYt][img]https://www.jiopic.com/images/2017/05/24/vlcsnap-2017-05-23-13h19m32s878.th.png[/img][/url] [url=https://www.jiopic.com/image/X3VVz][img]https://www.jiopic.com/images/2017/05/24/vlcsnap-2017-05-23-13h19m55s800.th.png[/img][/url] [url=https://www.jiopic.com/image/X37dv][img]https://www.jiopic.com/images/2017/05/24/vlcsnap-2017-05-23-13h20m05s044.th.png[/img][/url] [url=https://www.jiopic.com/image/X3ihF][img]https://www.jiopic.com/images/2017/05/24/vlcsnap-2017-05-23-13h20m11s990.th.png[/img][/url] [url=https://www.jiopic.com/image/X3MFD][img]https://www.jiopic.com/images/2017/05/24/vlcsnap-2017-05-23-13h20m23s654.th.png[/img][/url] [url=https://www.jiopic.com/image/X3oKn][img]https://www.jiopic.com/images/2017/05/24/vlcsnap-2017-05-23-13h20m40s673.th.png[/img][/url] [url=https://www.jiopic.com/image/X3EJf][img]https://www.jiopic.com/images/2017/05/24/vlcsnap-2017-05-23-13h21m13s060.th.png[/img][/url] [url=https://www.jiopic.com/image/X3O51][img]https://www.jiopic.com/images/2017/05/24/vlcsnap-2017-05-23-13h21m18s652.th.png[/img][/url] [url=https://www.jiopic.com/image/X3JkY][img]https://www.jiopic.com/images/2017/05/24/vlcsnap-2017-05-23-13h21m30s794.th.png[/img][/url] [url=https://www.jiopic.com/image/X3Wxj][img]https://www.jiopic.com/images/2017/05/24/vlcsnap-2017-05-23-13h22m07s545.th.png[/img][/url] [url=https://www.jiopic.com/image/X3K6Q][img]https://www.jiopic.com/images/2017/05/24/vlcsnap-2017-05-23-13h22m48s049.th.png[/img][/url] [url=https://www.jiopic.com/image/X30nN][img]https://www.jiopic.com/images/2017/05/24/vlcsnap-2017-05-23-13h23m01s948.th.png[/img][/url][/center] ]]>
Penthouse 16 06 07 Jenna Rose in Playing Dirty XXX 480p MP4-TK http://glodls.to/torrent.php?id=2527916 http://glodls.to/torrent.php?id=2527916 Tue, 23 May 2017 18:35:58 +0100 Adult XXX
[b]Screenshots:[/b]

[url]http://imgking.co/imgs-59248110b91a4.html[/url]

[url]http://imgking.co/imgs-59248110b2a2b.html[/url]

[url]http://imgking.co/imgs-59248110ab819.html[/url]

[url]http://imgking.co/imgs-5924810daaff9.html[/url]

File Size : 204 MiB
Duration : 24mn 36s
Video : h264, yuv420p, 854x480p, 1024 Kbps
Audio : aac , 2 ch, stereo , 128 Kbps ]]>
Trash.Fire.2016.BRRip.XviD.AC3-EVO[PRiME] http://glodls.to/torrent.php?id=2527915 http://glodls.to/torrent.php?id=2527915 Tue, 23 May 2017 18:35:26 +0100 Movies Trash.Fire.2016.BRRip.XviD.AC3-EVO[PRiME]

ImDb: [URL]http://www.imdb.com/title/tt5076792[/URL]

[url=https://www.sparrowpics.com/image/LwB][img]https://www.sparrowpics.com/images/2015/12/10/Info.png[/img][/url]

[color=green]Complete name : Trash.Fire.2016.BRRip.XviD.AC3-EVO[PRiME].avi
Format : AVI
Format/Info : Audio Video Interleave
File size : 1.34 GiB
Duration : 1 h 33 min
Overall bit rate : 2 046 kb/s
Writing library : VirtualDub build 32593/release

Video
ID : 0
Format : MPEG-4 Visual
Format profile : Advanced Simple@L5
Format settings, BVOP : 2
Format settings, QPel : No
Format settings, GMC : No warppoints
Format settings, Matrix : Default (H.263)
Muxing mode : Packed bitstream
Codec ID : XVID
Codec ID/Hint : XviD
Duration : 1 h 33 min
Bit rate : 1 589 kb/s
Width : 720 pixels
Height : 304 pixels
Display aspect ratio : 2.35:1
Frame rate : 23.976 (23976/1000) FPS
Color space : YUV
Chroma subsampling : 4:2:0
Bit depth : 8 bits
Scan type : Progressive
Compression mode : Lossy
Bits/(Pixel*Frame) : 0.303
Stream size : 1.04 GiB (78%)
Writing library : XviD 66

Audio
ID : 1
Format : AC-3
Format/Info : Audio Coding 3
Mode extension : CM (complete main)
Format settings, Endianness : Big
Codec ID : 2000
Duration : 1 h 33 min
Bit rate mode : Constant
Bit rate : 448 kb/s
Channel(s) : 6 channels
Channel positions : Front: L C R, Side: L R, LFE
Sampling rate : 48.0 kHz
Frame rate : 31.250 FPS (1536 spf)
Compression mode : Lossy
Stream size : 301 MiB (22%)
Alignment : Aligned on interleaves
Interleave, duration : 42 ms (1.00 video frame)
Interleave, preload duration : 512 ms[/color]

[url=https://www.sparrowpics.com/image/UYe][img]https://www.sparrowpics.com/images/2015/12/10/Screens.png[/img][/url]

[color=red]Click Image To View Full Size[/color]

[URL=https://www.sparrowpics.com/image/7jlLN][IMG]https://www.sparrowpics.com/images/2017/05/24/7jlLN.th.jpg[/IMG][/URL]
[URL=https://www.sparrowpics.com/image/7jtdY][b]Click To View Screenshot[/b][/URL]
[URL=https://www.sparrowpics.com/image/7j8H9][b]Click To View Screenshot[/b][/URL]
[URL=https://www.sparrowpics.com/image/7jHCb][b]Click To View Screenshot[/b][/URL]

[/center] ]]>
Free.Fire.2017.HDRip.XviD.AC3-iFT[PRiME] http://glodls.to/torrent.php?id=2527914 http://glodls.to/torrent.php?id=2527914 Tue, 23 May 2017 18:32:54 +0100 Movies Free.Fire.2017.HDRip.XviD.AC3-iFT[PRiME]

ImDb: [URL]http://www.imdb.com/title/tt6824136[/URL]

[url=https://www.sparrowpics.com/image/LwB][img]https://www.sparrowpics.com/images/2015/12/10/Info.png[/img][/url]

[color=green]Complete name : Free.Fire.2017.HDRip.XviD.AC3-iFT[PRiME].avi
Format : AVI
Format/Info : Audio Video Interleave
Format profile : OpenDML
Format settings : rec
File size : 1.45 GiB
Duration : 1 h 30 min
Overall bit rate : 2 297 kb/s
Writing application : AVI-Mux GUI 1.17.8.3, Feb 16 201019:42:50

Video
ID : 0
Format : MPEG-4 Visual
Format profile : Advanced Simple@L5
Format settings, BVOP : 2
Format settings, QPel : No
Format settings, GMC : No warppoints
Format settings, Matrix : Default (H.263)
Muxing mode : Packed bitstream
Codec ID : XVID
Codec ID/Hint : XviD
Duration : 1 h 30 min
Bit rate : 1 908 kb/s
Width : 720 pixels
Height : 304 pixels
Display aspect ratio : 2.35:1
Frame rate : 24.000 FPS
Color space : YUV
Chroma subsampling : 4:2:0
Bit depth : 8 bits
Scan type : Progressive
Compression mode : Lossy
Bits/(Pixel*Frame) : 0.363
Stream size : 1.20 GiB (83%)
Writing library : XviD 73

Audio
ID : 1
Format : AC-3
Format/Info : Audio Coding 3
Codec ID : 2000
Duration : 1 h 30 min
Bit rate mode : Constant
Bit rate : 384 kb/s
Channel(s) : 6 channels
Sampling rate : 48.0 kHz
Compression mode : Lossy
Stream size : 248 MiB (17%)
Alignment : Aligned on interleaves
Title : Free.track_1[/color]

[url=https://www.sparrowpics.com/image/UYe][img]https://www.sparrowpics.com/images/2015/12/10/Screens.png[/img][/url]

[color=red]Click Image To View Full Size[/color]

[URL=https://www.sparrowpics.com/image/7j49h][IMG]https://www.sparrowpics.com/images/2017/05/24/7j49h.th.jpg[/IMG][/URL]
[URL=https://www.sparrowpics.com/image/7jEIt][b]Click To View Screenshot[/b][/URL]
[URL=https://www.sparrowpics.com/image/7jNrZ][b]Click To View Screenshot[/b][/URL]
[URL=https://www.sparrowpics.com/image/7jSnx][b]Click To View Screenshot[/b][/URL]

[/center] ]]>
Cougar Cuntry 1 (2008)[DVDRIP][ AVI] http://glodls.to/torrent.php?id=2527913 http://glodls.to/torrent.php?id=2527913 Tue, 23 May 2017 18:30:14 +0100 Adult XXX
Screen:

[url=http://picfox.org/share-887B_59247CEB.html][img]http://picfox.org/thumb-887B_59247CEB.jpg[/img][/url]

[url=http://picfox.org/share-44AB_59247CEB.html][img]http://picfox.org/thumb-44AB_59247CEB.jpg[/img][/url]

[url=http://picfox.org/share-707A_59247CEB.html][img]http://picfox.org/thumb-707A_59247CEB.jpg[/img][/url]

[url=http://picfox.org/share-0DDC_59247CEB.html][img]http://picfox.org/thumb-0DDC_59247CEB.jpg[/img][/url]

COVER:

[url=http://picfox.org/share-54BF_59247CEB.html][img]http://picfox.org/thumb-54BF_59247CEB.jpg[/img][/url]

File Size: 1,19 GB | Resolution: 640x364 | Duration: 01:44:42 | Format: avi ]]>
Penthouse 16 06 07 Capri Cavanni in Live Chat XXX XviD SD http://glodls.to/torrent.php?id=2527912 http://glodls.to/torrent.php?id=2527912 Tue, 23 May 2017 18:26:02 +0100 Adult XXX
[b]Screenshots:[/b]

[url]http://imgking.co/imgs-59247ebc4c394.html[/url]

[url]http://imgking.co/imgs-59247ebc46c7b.html[/url]

[url]http://imgking.co/imgs-59247ebc419f9.html[/url]

[url]http://imgking.co/imgs-59247eb9c7dca.html[/url] ]]>
[BlacksOnBlondes/DogFart]Sarah Shevon - Give Me Your Dick I know His Size http://glodls.to/torrent.php?id=2527911 http://glodls.to/torrent.php?id=2527911 Tue, 23 May 2017 18:23:27 +0100 Adult XXX [center][URL=http://imagedecode.com/img-59247c4f61d28.html][IMG]http://imagedecode.com/upload/small/2017/05/23/59247c4f61ceb.jpg[/IMG][/URL]
[size=4]
Sarah Shevon - Give Me Your Dick I know His Size
Category: Interracial, Oral, Anal, Big Dick, Gonzo
File size: 571 MB
Duration: 00:48:38

[b]SCREENS:[/b]

[url]http://imagedecode.com/img-59247c5c4726e.html[/url]
[url]https://xeimg.yt/img-59247c7fce993.html[/url]

[b]SHOOT:[/b]
[url]http://imgclick.net/jzp9kdj9y8xq/vlcsnap-2017-05-23-21h21m06s000.png.html[/url]
[/size]
[/center]
]]>
Supercar Megabuild S01E10 Audi A8 1080P HDTV x264-skorpion mp4 http://glodls.to/torrent.php?id=2527910 http://glodls.to/torrent.php?id=2527910 Tue, 23 May 2017 18:22:06 +0100 TV
Buckle up petrol-heads, there’s a shiny, motoring show on the scene. Putting a fresh spin on your typical car transformation TV show, Supercar Megabuild. In every episode our British motor-mad mechanics will embark on an ambitious mission to transform an ordinary car into extraordinary supercar, fit for the racetrack. But with limited time and other inevitable roadblocks piling on the pressure, will they succeed in creating the ultimate supercars?

[b][u]Episode: Audi A8[/u][/b]

Engineers Ralph and Ranen have got a huge challenge ahead of them: they must take an Audi A8 and turn it into the ultimate winter warrior.
]]>
Supercar Megabuild S01E09 Chevrolet Camaro 1080P HDTV x264-skorpion mp4 http://glodls.to/torrent.php?id=2527909 http://glodls.to/torrent.php?id=2527909 Tue, 23 May 2017 18:19:58 +0100 TV
Buckle up petrol-heads, there’s a shiny, motoring show on the scene. Putting a fresh spin on your typical car transformation TV show, Supercar Megabuild. In every episode our British motor-mad mechanics will embark on an ambitious mission to transform an ordinary car into extraordinary supercar, fit for the racetrack. But with limited time and other inevitable roadblocks piling on the pressure, will they succeed in creating the ultimate supercars?

[b][u]Episode: Chevrolet Camaro[/u][/b]

Automotive engineers Ralph Hosier and Ranen Rudra are on a mission to bring an American muscle car to the UK. ]]>
VA - Oldies Best! (Original recordings)(4CD) http://glodls.to/torrent.php?id=2527908 http://glodls.to/torrent.php?id=2527908 Tue, 23 May 2017 18:07:47 +0100 Music
***

01 - Donovan - Hurdy Gurdy Man (live)
02 - Melanie - Mr. Tambourine Man
03 - Trini Lopez - La Bamba (live)
04 - Dave Dee, Dozy, Beaky, Mick & Tich - Hard To Love You
05 - Gerry & The Pacemakers - Ferry 'Cross The Mersey
06 - Roy Orbison - Devil Doll
07 - Ike & Tina Turner - Come Togheter
08 - Tom Robinson - Number One Protection
09 - KC & The Sunshine Band - Let's Go Rock 'n' Roll
10 - Sam & Dave - You Got Me Hummin'
11 - Jackson 5 ft. Michael Jackson - Lonely Hearts
12 - Eddy Grant & The Equals - Black Is Black
13 - Fortunes - When Your Heart Speaks
14 - Percy Sledge - If Loving You Is Wrong
15 - Kim Carnes - Feel In Love With A Poet
16 - Bee Gees - I Am The World
17 - Mamas & The Papas - Go Where You Wanna Go (live)
18 - Hazel O'Connor - Do What You Gotta Do
19 - Tremeloes - Candy Man
20 - Sweet - Block Buster; F.B.I. (live)

***

01 - Fortunes - Freedom Come Freedom Go
02 - Roy Orbison - Ooby Dooby
03 - Trini Lopez - Adelita (Live)
04 - Searchers - Walk In The Room
05 - Melanie - What Have They Done To My Song Ma
06 - Gerry & The Pacemakers - Unchained Melody
07 - Donovan - Catch The Wind (Live)
08 - Percy Sledge - Bring It On Home To Me
09 - Dave Dee, Dozy, Beaky, Mick & Tich - Hideaway
10 - Sweet - You're Not Wrong For Loving Me (Live)
11 - Tremeloes - Me And My Life
12 - Hazel O'Connor - Ee-I-Addio
13 - Lovin' Spoonful - Did You Ever Have To Make Up Your Mind
14 - Mamas & The Papas - Straight Shooter (live)
15 - KC & The Sunshine Band - Shotgun Shuffle
16 - Sam & Dave - Said I Wasn't Gonna Tell Anybody
17 - Jackson 5 ft. Michael Jackson - We Don't Have To Be Over 21
18 - Rita Coolidge - That's Just The Way Love Is
19 - Kim Carnes - Sweet Love Song Of My Soul
20 - Andy Williams - Unchained Melody

***

01 - Trini Lopez - This Land Is Your Land (live)
02 - Foundations - In The Bad Bad Old Days
03 - Tremeloes - Here Comes My Baby
04 - Dave Dee, Dozy, Beaky, Mitch & Tich - The Legend Of Xanadu
05 - Eddy Grant & The Equals - Michael & The Slipper Tree
06 - Gerry & The Pacemakers - It's Still Rock And Roll
07 - Eric Clapton - Choker
08 - KC & The Sunshine Band - Give It Up
09 - Real Thing - You To Me Are Everything
10 - Sam & Dave - Can't You Find Another Way
11 - Kool & The Gang - Victory (live)
12 - Three Degrees - A Tender Life
13 - Rita Coolidge - Old Fashioned Heart
14 - Donovan - To Susan On The Westcoast Waiting (live)
15 - Fortunes - Seasons In The Sun
16 - Percy Sledge - You Send Me
17 - Ike & Tina Turner - I Got A Man
18 - Melanie - The Good Book (live)
19 - Roy Orbison - He's Too Late
20 - Searchers - Broken Hearts

***

01 - Donovan - Jennifer Juniper (live)
02 - Percy Sledge - Cover Me
03 - Shirley Bassey - Never Never Never
04 - Foundations - Love You Now
05 - Roy Orbison - Domino
06 - Fortunes - Storm In A Tea Cup
07 - Dave Dee, Dozy, Beaky, Mick & Tich - Last Night In Soho
08 - Tremeloes - Suddenly You Love Me
09 - KC & The Sunshine Band - Boogie Shoes
10 - Sam & Dave - Sooth Me
11 - Bo Diddley - I'm A Man
12 - Bee Gees - Monday's Rain
13 - Kim Carnes - To Love Somebody
14 - Donovan - Young But Growing (live)
15 - Gerry & The Pacemakers - Just The Way You Are (live)
16 - Trini Lopez - Lemon Tree (live)
17 - Bill Haley And The Comets - Rock Around The Clock
18 - Marvin Gaye - Joy (live)
19 - MUD - The Night Has A Thousand Eyes
20 - Melanie - We Don't Know Where We're Going

***

Quality: Lossy (*.mp3, CBR 320 Kbps)
Type recordings: Studio & live
Motto: Enjoy & Share! (anywhere whenever) ]]>
Interrogation 2016 hevc-d3g.[PRiME] http://glodls.to/torrent.php?id=2527907 http://glodls.to/torrent.php?id=2527907 Tue, 23 May 2017 18:05:53 +0100 Movies Interrogation 2016 hevc-d3g.[PRiME]

ImDb: [URL]http://www.imdb.com/title/tt4497338[/URL]

[url=https://www.sparrowpics.com/image/LwB][img]https://www.sparrowpics.com/images/2015/12/10/Info.png[/img][/url]

[color=green]Complete name : Interrogation 2016 BluRay 1080p DD5.1 H265-d3g[PRiME].mkv
Format : Matroska
Format version : Version 4 / Version 2
File size : 1.57 GiB
Duration : 1 h 26 min
Overall bit rate : 2 614 kb/s
Movie name : Interrogation 2016 BluRay 1080p DD5.1 H265-d3g
Encoded date : UTC 2017-05-23 06:25:10
Writing application : DVDFab 10.0.3.9
Writing library : libebml v1.3.4 + libmatroska v1.4.5

Video
ID : 1
Format : HEVC
Format/Info : High Efficiency Video Coding
Format profile : Main@L4@Main
Codec ID : V_MPEGH/ISO/HEVC
Duration : 1 h 26 min
Bit rate : 2 148 kb/s
Width : 1 920 pixels
Height : 1 080 pixels
Display aspect ratio : 16:9
Frame rate mode : Constant
Frame rate : 23.976 (24000/1001) FPS
Color space : YUV
Chroma subsampling : 4:2:0 (Type 1)
Bit depth : 8 bits
Bits/(Pixel*Frame) : 0.043
Stream size : 1.29 GiB (82%)
Default : Yes
Forced : No
Color range : Full
Color primaries : BT.709
Transfer characteristics : BT.709
Matrix coefficients : BT.709

Audio
ID : 2
Format : AC-3
Format/Info : Audio Coding 3
Mode extension : CM (complete main)
Format settings, Endianness : Big
Codec ID : A_AC3
Duration : 1 h 26 min
Bit rate mode : Constant
Bit rate : 448 kb/s
Channel(s) : 6 channels
Channel positions : Front: L C R, Side: L R, LFE
Sampling rate : 48.0 kHz
Frame rate : 31.250 FPS (1536 spf)
Compression mode : Lossy
Stream size : 276 MiB (17%)
Language : English
Default : Yes
Forced : No

Text #1
ID : 3
Format : VobSub
Codec ID : S_VOBSUB
Codec ID/Info : Picture based subtitle format used on DVDs
Duration : 1 h 20 min
Bit rate : 9 088 b/s
Count of elements : 1038
Stream size : 5.20 MiB (0%)
Language : English
Default : No
Forced : No

Text #2
ID : 4
Format : VobSub
Codec ID : S_VOBSUB
Codec ID/Info : Picture based subtitle format used on DVDs
Duration : 1 h 20 min
Bit rate : 8 010 b/s
Count of elements : 937
Stream size : 4.58 MiB (0%)
Language : Spanish
Default : No
Forced : No

Menu
00:00:00.000 : en:(01)00:00:00:000
00:02:11.589 : en:(02)00:02:11:589
00:07:45.548 : en:(03)00:07:45:548
00:16:50.718 : en:(04)00:16:50:718
00:19:58.238 : en:(05)00:19:58:238
00:24:58.955 : en:(06)00:24:58:955
00:29:35.648 : en:(07)00:29:35:648
00:35:34.215 : en:(08)00:35:34:215
00:40:25.089 : en:(09)00:40:25:089
00:45:37.067 : en:(10)00:45:37:067
00:51:30.212 : en:(11)00:51:30:212
00:58:39.015 : en:(12)00:58:39:015
01:03:44.445 : en:(13)01:03:44:445
01:09:28.956 : en:(14)01:09:28:956
01:14:10.571 : en:(15)01:14:10:571
01:18:40.257 : en:(16)01:18:40:257
01:26:08.121 : en:(17)01:26:08:121[/color]

[url=https://www.sparrowpics.com/image/UYe][img]https://www.sparrowpics.com/images/2015/12/10/Screens.png[/img][/url]

[color=red]Click Image To View Full Size[/color]

[URL=https://www.sparrowpics.com/image/7jXHy][IMG]https://www.sparrowpics.com/images/2017/05/23/7jXHy.th.jpg[/IMG][/URL]
[URL=https://www.sparrowpics.com/image/7jaCJ][b]Click To View Screenshot[/b][/URL]
[URL=https://www.sparrowpics.com/image/7jOuc][b]Click To View Screenshot[/b][/URL]
[URL=https://www.sparrowpics.com/image/7jbN6][b]Click To View Screenshot[/b][/URL]

[/center] ]]>
Fantomas.Strikes.Back.1965.1080p.BluRay.x264-USURY[PRiME] http://glodls.to/torrent.php?id=2527906 http://glodls.to/torrent.php?id=2527906 Tue, 23 May 2017 18:05:48 +0100 Movies Fantomas.Strikes.Back.1965.1080p.BluRay.x264-USURY[PRiME]

ImDb: [URL]http://www.imdb.com/title/tt0059168[/URL]

[url=https://www.sparrowpics.com/image/LwB][img]https://www.sparrowpics.com/images/2015/12/10/Info.png[/img][/url]

[color=green]Complete name : fantomas.strikes.back.1965.1080p.bluray.x264-usury[PRiME].mkv
Format : Matroska
Format version : Version 4 / Version 2
File size : 7.95 GiB
Duration : 1 h 38 min
Overall bit rate : 11.5 Mb/s
Encoded date : UTC 2017-05-22 12:27:18
Writing application : mkvmerge v8.3.0 ('Over the Horizon') 64bit
Writing library : libebml v1.3.1 + libmatroska v1.4.2

Video
ID : 1
Format : AVC
Format/Info : Advanced Video Codec
Format profile : High@L4.1
Format settings, CABAC : Yes
Format settings, ReFrames : 5 frames
Codec ID : V_MPEG4/ISO/AVC
Duration : 1 h 38 min
Bit rate : 10.7 Mb/s
Width : 1 920 pixels
Height : 824 pixels
Display aspect ratio : 2.35:1
Frame rate mode : Constant
Frame rate : 24.000 FPS
Color space : YUV
Chroma subsampling : 4:2:0
Bit depth : 8 bits
Scan type : Progressive
Bits/(Pixel*Frame) : 0.283
Stream size : 7.41 GiB (93%)
Writing library : x264 core 150 r2829 d1fe6fd
Encoding settings : cabac=1 / ref=5 / deblock=1:-3:-3 / analyse=0x3:0x133 / me=umh / subme=9 / psy=1 / psy_rd=1.00:0.00 / mixed_ref=1 / me_range=16 / chroma_me=1 / trellis=2 / 8x8dct=1 / cqm=0 / deadzone=21,11 / fast_pskip=0 / chroma_qp_offset=-2 / threads=26 / lookahead_threads=2 / sliced_threads=0 / nr=0 / decimate=1 / interlaced=0 / bluray_compat=0 / constrained_intra=0 / bframes=3 / b_pyramid=2 / b_adapt=1 / b_bias=0 / direct=3 / weightb=1 / open_gop=0 / weightp=2 / keyint=250 / keyint_min=24 / scenecut=40 / intra_refresh=0 / rc_lookahead=50 / rc=2pass / mbtree=1 / bitrate=10740 / ratetol=1.0 / qcomp=0.60 / qpmin=0 / qpmax=69 / qpstep=4 / cplxblur=20.0 / qblur=0.5 / ip_ratio=1.40 / aq=1:1.00
Language : English
Default : Yes
Forced : No

Audio
ID : 2
Format : DTS
Format/Info : Digital Theater Systems
Mode : 16
Format settings, Endianness : Big
Codec ID : A_DTS
Duration : 1 h 38 min
Bit rate mode : Constant
Bit rate : 768 kb/s
Channel(s) : 2 channels
Channel positions : Front: L R
Sampling rate : 48.0 kHz
Frame rate : 93.750 FPS (512 spf)
Bit depth : 24 bits
Compression mode : Lossy
Stream size : 543 MiB (7%)
Language : French
Default : Yes
Forced : No

Text
ID : 3
Format : UTF-8
Codec ID : S_TEXT/UTF8
Codec ID/Info : UTF-8 Plain Text
Duration : 1 h 38 min
Bit rate : 33 b/s
Count of elements : 831
Stream size : 23.9 KiB (0%)
Title : forced
Language : English
Default : Yes
Forced : Yes

Menu
00:00:00.000 : en:00:00:00.000
00:07:28.250 : en:00:07:28.250
00:15:50.250 : en:00:15:50.250
00:23:42.958 : en:00:23:42.958
00:31:02.417 : en:00:31:02.417
00:39:36.792 : en:00:39:36.792
00:46:56.125 : en:00:46:56.125
00:55:39.458 : en:00:55:39.458
01:03:25.708 : en:01:03:25.708
01:11:32.417 : en:01:11:32.417
01:20:25.875 : en:01:20:25.875
01:27:38.375 : en:01:27:38.375[/color]

[url=https://www.sparrowpics.com/image/UYe][img]https://www.sparrowpics.com/images/2015/12/10/Screens.png[/img][/url]

[color=red]Click Image To View Full Size[/color]

[URL=https://www.sparrowpics.com/image/7jAam][IMG]https://www.sparrowpics.com/images/2017/05/23/7jAam.th.jpg[/IMG][/URL]
[URL=https://www.sparrowpics.com/image/7jdnr][b]Click To View Screenshot[/b][/URL]
[URL=https://www.sparrowpics.com/image/7jyLW][b]Click To View Screenshot[/b][/URL]
[URL=https://www.sparrowpics.com/image/7jzAn][b]Click To View Screenshot[/b][/URL]

[/center] ]]>
Penthouse 16 06 07 Jenna Rose in Playing Dirty XXX XviD SD http://glodls.to/torrent.php?id=2527905 http://glodls.to/torrent.php?id=2527905 Tue, 23 May 2017 18:02:39 +0100 Adult XXX
[b]Screenshots:[/b]

[url]http://imgking.co/imgs-5924794197e74.html[/url]

[url]http://imgking.co/imgs-59247941931c0.html[/url]

[url]http://imgking.co/imgs-592479418e5e8.html[/url]

[url]http://imgking.co/imgs-5924793361e94.html[/url] ]]>
My Haunted House S01E23 Dead Ringer And Route 160 720p WEB x264-WEBSTER http://glodls.to/torrent.php?id=2527867 http://glodls.to/torrent.php?id=2527867 Tue, 23 May 2017 18:00:05 +0100 TV http://www.tvrage.com/schedule.php?show_yesterday=1. ]]> Watch What Happens Live 2017 05 21 Iggy Azalea and Terrence Howard 720p WEB x264-TBS http://glodls.to/torrent.php?id=2527866 http://glodls.to/torrent.php?id=2527866 Tue, 23 May 2017 18:00:04 +0100 TV http://www.tvrage.com/schedule.php?show_yesterday=1. ]]> Watch What Happens Live 2017 05 21 Iggy Azalea and Terrence Howard WEB x264-TBS http://glodls.to/torrent.php?id=2527865 http://glodls.to/torrent.php?id=2527865 Tue, 23 May 2017 18:00:03 +0100 TV http://www.tvrage.com/schedule.php?show_yesterday=1. ]]> Watch What Happens Live 2017 05 17 Tinsley Mortimer and Amber Tamblyn WEB x264-TBS http://glodls.to/torrent.php?id=2527864 http://glodls.to/torrent.php?id=2527864 Tue, 23 May 2017 18:00:02 +0100 TV http://www.tvrage.com/schedule.php?show_yesterday=1. ]]> [Caribbeancom]Makoto Shiraishi - Trained G-Cups http://glodls.to/torrent.php?id=2527863 http://glodls.to/torrent.php?id=2527863 Tue, 23 May 2017 17:59:56 +0100 Adult XXX [center][URL=http://imageteam.org/img-5924746cea49f.html][IMG]http://imageteam.org/upload/small/2017/05/23/5924746cea467.jpg[/IMG][/URL]
[size=4]

Makoto Shiraishi - Trained G-Cups
Category: Uncensored, All Sex, BlowJob, Big Tits, Cream Pie
File size: 953 MB
Duration:01:07:13

[b]SCREENS:[/b]

[url]https://xeimg.yt/img-592474a16f094.html[/url]
[url]http://imageteam.org/img-5924747948741.html[/url]

[b]SHOOT:[/b]
[url]http://imgclick.net/7by4t887gkx4/vlcsnap-2017-05-23-20h55m13s062.png.html[/url]
[/size]
[/center] ]]>
Courted.2015.LIMITED.1080p.BluRay.x264-USURY[PRiME] http://glodls.to/torrent.php?id=2527862 http://glodls.to/torrent.php?id=2527862 Tue, 23 May 2017 17:56:39 +0100 Movies Courted.2015.LIMITED.1080p.BluRay.x264-USURY[PRiME]

ImDb: [URL]http://www.imdb.com/title/tt2279373[/URL]

[url=https://www.sparrowpics.com/image/LwB][img]https://www.sparrowpics.com/images/2015/12/10/Info.png[/img][/url]

[color=green]Complete name : courted.2015.limited.1080p.bluray.x264-usury[PRiME].mkv
Format : Matroska
Format version : Version 4 / Version 2
File size : 7.65 GiB
Duration : 1 h 37 min
Overall bit rate : 11.2 Mb/s
Encoded date : UTC 2017-05-23 15:57:02
Writing application : mkvmerge v8.3.0 ('Over the Horizon') 64bit
Writing library : libebml v1.3.1 + libmatroska v1.4.2

Video
ID : 1
Format : AVC
Format/Info : Advanced Video Codec
Format profile : High@L4.1
Format settings, CABAC : Yes
Format settings, ReFrames : 5 frames
Codec ID : V_MPEG4/ISO/AVC
Duration : 1 h 37 min
Bit rate : 9 678 kb/s
Width : 1 920 pixels
Height : 800 pixels
Display aspect ratio : 2.40:1
Frame rate mode : Constant
Frame rate : 24.000 FPS
Color space : YUV
Chroma subsampling : 4:2:0
Bit depth : 8 bits
Scan type : Progressive
Bits/(Pixel*Frame) : 0.263
Stream size : 6.62 GiB (86%)
Writing library : x264 core 150 r2829 d1fe6fd
Encoding settings : cabac=1 / ref=5 / deblock=1:-3:-3 / analyse=0x3:0x133 / me=umh / subme=9 / psy=1 / psy_rd=1.00:0.00 / mixed_ref=1 / me_range=16 / chroma_me=1 / trellis=2 / 8x8dct=1 / cqm=0 / deadzone=21,11 / fast_pskip=0 / chroma_qp_offset=-2 / threads=25 / lookahead_threads=2 / sliced_threads=0 / nr=0 / decimate=1 / interlaced=0 / bluray_compat=0 / constrained_intra=0 / bframes=3 / b_pyramid=2 / b_adapt=1 / b_bias=0 / direct=3 / weightb=1 / open_gop=0 / weightp=2 / keyint=250 / keyint_min=24 / scenecut=40 / intra_refresh=0 / rc_lookahead=50 / rc=2pass / mbtree=1 / bitrate=9678 / ratetol=1.0 / qcomp=0.60 / qpmin=0 / qpmax=69 / qpstep=4 / cplxblur=20.0 / qblur=0.5 / ip_ratio=1.40 / aq=1:1.00
Language : English
Default : Yes
Forced : No

Audio
ID : 2
Format : DTS
Format/Info : Digital Theater Systems
Mode : 16
Format settings, Endianness : Big
Codec ID : A_DTS
Duration : 1 h 37 min
Bit rate mode : Constant
Bit rate : 1 509 kb/s
Channel(s) : 6 channels
Channel positions : Front: L C R, Side: L R, LFE
Sampling rate : 48.0 kHz
Frame rate : 93.750 FPS (512 spf)
Bit depth : 24 bits
Compression mode : Lossy
Stream size : 1.03 GiB (13%)
Language : French
Default : Yes
Forced : No

Text
ID : 3
Format : UTF-8
Codec ID : S_TEXT/UTF8
Codec ID/Info : UTF-8 Plain Text
Duration : 1 h 37 min
Bit rate : 60 b/s
Count of elements : 1511
Stream size : 43.7 KiB (0%)
Title : forced
Language : English
Default : Yes
Forced : Yes

Menu
00:00:00.000 : en:00:00:00.000
00:09:32.042 : en:00:09:32.042
00:22:00.458 : en:00:22:00.458
00:32:22.000 : en:00:32:22.000
00:42:13.292 : en:00:42:13.292
00:50:00.583 : en:00:50:00.583
00:59:12.333 : en:00:59:12.333
01:03:52.417 : en:01:03:52.417
01:16:20.083 : en:01:16:20.083
01:21:21.417 : en:01:21:21.417
01:29:05.167 : en:01:29:05.167
01:34:45.250 : en:01:34:45.250[/color]

[url=https://www.sparrowpics.com/image/UYe][img]https://www.sparrowpics.com/images/2015/12/10/Screens.png[/img][/url]

[color=red]Click Image To View Full Size[/color]

[URL=https://www.sparrowpics.com/image/7jZus][IMG]https://www.sparrowpics.com/images/2017/05/23/7jZus.th.jpg[/IMG][/URL]
[URL=https://www.sparrowpics.com/image/7j0Ef][b]Click To View Screenshot[/b][/URL]
[URL=https://www.sparrowpics.com/image/7jT95][b]Click To View Screenshot[/b][/URL]
[URL=https://www.sparrowpics.com/image/7j6IP][b]Click To View Screenshot[/b][/URL]

[/center] ]]>
MyVeryFirstTime - Melanie Woods First Anal [1080p] mp4 http://glodls.to/torrent.php?id=2527861 http://glodls.to/torrent.php?id=2527861 Tue, 23 May 2017 17:54:50 +0100 Adult XXX
1.77 GB

Screens

[url]http://img.img-central.com/image/wZtYV[/url]
[url]http://img.img-central.com/image/wva9U[/url]
[url]http://img.img-central.com/image/wvnjb[/url]
[url]http://img.img-central.com/image/wv6xS[/url]

[img]https://s11.postimg.org/xmqv1449f/My_Very_First_Time_1.jpg[/img] ]]>
FitnessRooms - Private Yoga Class After Workout - Clea Gaultier[1080p] mp4 http://glodls.to/torrent.php?id=2527860 http://glodls.to/torrent.php?id=2527860 Tue, 23 May 2017 17:43:24 +0100 Adult XXX
1.39 GB

Screens

[url]http://img.img-central.com/image/wZZoJ[/url]
[url]http://img.img-central.com/image/wZvt7[/url]
[url]http://img.img-central.com/image/wZRC3[/url]
[url]http://img.img-central.com/image/wZqDX[/url]

[img]https://s11.postimg.org/gwfhbs5ub/Fitness_Rooms_1.jpg[/img] ]]>
Dare Dorm 28[Reality Kings]**Split Scenes** http://glodls.to/torrent.php?id=2527859 http://glodls.to/torrent.php?id=2527859 Tue, 23 May 2017 17:41:22 +0100 Adult XXX [center][URL=http://imagedecode.com/img-59246f965d40b.html][IMG]http://imagedecode.com/upload/small/2017/05/23/59246f965d3f0.jpg[/IMG][/URL]
[size=4]
Stars: Layla London, Avery Adair, Ariel Lee, Annika Eve, Blossom
Category: 18+ Teens, Amateur, College, Gonzo, Oral
File size: 1.65 GB
Duration: 02:35:08

[b]SCREENS:[/b]

[url]http://imagedecode.com/img-59246fdd59801.html[/url]
[url]http://damimage.com/img-59246ff5158f8.html[/url]
[url]http://imageteam.org/img-59247010eae96.html[/url]

[/size]
[/center] ]]>
Casting Extreme 2 (2012)[DVDRIP][ AVI] http://glodls.to/torrent.php?id=2527858 http://glodls.to/torrent.php?id=2527858 Tue, 23 May 2017 17:37:28 +0100 Adult XXX
Screen:

[url=http://blobopics.biz/share-E739_592467C2.html][img]http://blobopics.biz/thumb-E739_592467C2.jpg[/img][/url]

[url=http://blobopics.biz/share-3337_592467C2.html][img]http://blobopics.biz/thumb-3337_592467C2.jpg[/img][/url]

[url=http://blobopics.biz/share-757B_592467C2.html][img]http://blobopics.biz/thumb-757B_592467C2.jpg[/img][/url]

[url=http://blobopics.biz/share-357B_592467C2.html][img]http://blobopics.biz/thumb-357B_592467C2.jpg[/img][/url]

COVER:

[url=http://blobopics.biz/share-D5A7_592467C2.html][img]http://blobopics.biz/thumb-D5A7_592467C2.jpg[/img][/url]

File Size: 882 MB | Resolution: 768x392 | Duration: 01:16:41 | Format: avi ]]>
FakeCop - Unregistered Driver Creampied by Cop - Vera Wonder [1080p] mp4 http://glodls.to/torrent.php?id=2527857 http://glodls.to/torrent.php?id=2527857 Tue, 23 May 2017 17:37:15 +0100 Adult XXX
1.25 GB

Screens

[url]http://img.img-central.com/image/wZdgp[/url]
[url]http://img.img-central.com/image/wZhxC[/url]
[url]http://img.img-central.com/image/wZ7N8[/url]
[url]http://img.img-central.com/image/wZY4r[/url]

[img]https://s12.postimg.org/dg8xlk031/Fake_Cop_1.jpg[/img]
]]>
[Blacked] Ashley Fires (Right At My Finger Tips - 20 05 2017) http://glodls.to/torrent.php?id=2527855 http://glodls.to/torrent.php?id=2527855 Tue, 23 May 2017 17:26:35 +0100 Adult XXX
Genre :- Stockings, Blowjob, Gonzo, IR, All Sex, 480p] 1024kbps

Screenshot :-

[url=http://imgtorrnt.in/view.php?id=YKAxc76][color=green] View Screen 1 [/color] [/url]

[url=http://imgtorrnt.in/view.php?id=i4cHINj][color=green] View Screen 2 [/color] [/url]

[img]http://i.imgur.com/YKAxc76.jpg[/img]

]]>
[BangBrosClips - BangBros] Aidra Fox (Aidra Fox Fucks Handy Man - bbc15925 - 20 05 2017) http://glodls.to/torrent.php?id=2527854 http://glodls.to/torrent.php?id=2527854 Tue, 23 May 2017 17:22:50 +0100 Adult XXX
Genre :- [Blowjob, Brunette, Cow Girl, Cum In Mouth, Cum Shot, Deep Throat, Doggystyle, Gagging, Hardcore, Missionary, Pornstar, Riding, Shaved, Vaginal, 480p]

Screenshot :-

[url=http://imgtorrnt.in/view.php?id=YS1mT1o][color=green] View Screen 1 [/color] [/url]

[url=http://imgtorrnt.in/view.php?id=6VGU0pN][color=green] View Screen 2 [/color] [/url]

[img]http://i.imgur.com/YS1mT1o.jpg[/img]

]]>
Ebony Sex Tapes[Mofos]**Split Scenes** http://glodls.to/torrent.php?id=2527853 http://glodls.to/torrent.php?id=2527853 Tue, 23 May 2017 17:20:13 +0100 Adult XXX [center][URL=http://imageteam.org/img-59246b2fb321b.html][IMG]http://imageteam.org/upload/small/2017/05/23/59246b2fb31e1.jpg[/IMG][/URL]
[size=4]
Stars: Nicole Bexley, Anya Ivy, Teanna Trump, Elisse, Lexi Rose
Category: Amateur, Black, Gonzo, Interracial
File size: 1.51 GB
Duration: 02:49:37

[b]SCREENS:[/b]

[url]http://imageteam.org/img-59246bb42a2ca.html[/url]
[url]http://damimage.com/img-59246bd12023e.html[/url]
[url]http://imagedecode.com/img-59246be8392eb.html[/url]
[url]https://img.yt/img-59246c138ff04.html[/url]
[url]https://xeimg.yt/img-59246c39c8fe3.html[/url]

[/size]
[/center] ]]>
[PetiteHDPorn - NubilesNetwork] Nikki Next (Yoga Babe - 20 05 2017) http://glodls.to/torrent.php?id=2527852 http://glodls.to/torrent.php?id=2527852 Tue, 23 May 2017 17:17:12 +0100 Adult XXX
Genre :- [Medium Boobs, Big Puffy Nipples, Brunette, Athlete, Hardcore, Petite, Camel Toe, Blowjob, Facial, Handjob, Fitness, POV, Deep Throat, Big Dick, Pussy Licking] 360p

Screenshot :-

[url=http://imgtorrnt.in/view.php?id=HrqRlg6][color=green] View Screen 1 [/color] [/url]

[url=http://imgtorrnt.in/view.php?id=Q6rhCN5][color=green] View Screen 2 [/color] [/url]

[img]http://i.imgur.com/HrqRlg6.jpg[/img]

]]>
[MyFriendsHotGirl - NaughtyAmerica] Andi Rye (22757 - 20 05 2017) http://glodls.to/torrent.php?id=2527851 http://glodls.to/torrent.php?id=2527851 Tue, 23 May 2017 17:12:36 +0100 Adult XXX
Genre :- [Anal, American, Blow Job, Blue Eyes, Brunette, Caucasian, Facial, Green Eyes, Masturbation, Natural Tits, Outie Pussy, Shaved, Straight] 360p

Screenshot :-

[url=http://imgtorrnt.in/view.php?id=VVdM1ep][color=green] View Screen 1 [/color] [/url]

[url=http://imgtorrnt.in/view.php?id=Im8LUNL][color=green] View Screen 2 [/color] [/url]

[img]http://i.imgur.com/VVdM1ep.jpg[/img]

]]>
Fantomas.Against.Scotland.Yard.1967.720p.BluRay.x264-USURY[PRiME] http://glodls.to/torrent.php?id=2527850 http://glodls.to/torrent.php?id=2527850 Tue, 23 May 2017 17:12:03 +0100 Movies Fantomas.Against.Scotland.Yard.1967.720p.BluRay.x264-USURY[PRiME]

ImDb: [URL]http://www.imdb.com/title/tt0060400[/URL]

[url=https://www.sparrowpics.com/image/LwB][img]https://www.sparrowpics.com/images/2015/12/10/Info.png[/img][/url]

[color=green]Complete name : fantomas.against.scotland.yard.1967.720p.bluray.x264-usury[PRiME].mkv
Format : Matroska
Format version : Version 4 / Version 2
File size : 4.37 GiB
Duration : 1 h 40 min
Overall bit rate : 6 200 kb/s
Encoded date : UTC 2017-05-23 11:12:07
Writing application : mkvmerge v8.3.0 ('Over the Horizon') 64bit
Writing library : libebml v1.3.1 + libmatroska v1.4.2

Video
ID : 1
Format : AVC
Format/Info : Advanced Video Codec
Format profile : High@L4.1
Format settings, CABAC : Yes
Format settings, ReFrames : 5 frames
Codec ID : V_MPEG4/ISO/AVC
Duration : 1 h 40 min
Bit rate : 5 430 kb/s
Width : 1 280 pixels
Height : 544 pixels
Display aspect ratio : 2.35:1
Frame rate mode : Constant
Frame rate : 24.000 FPS
Color space : YUV
Chroma subsampling : 4:2:0
Bit depth : 8 bits
Scan type : Progressive
Bits/(Pixel*Frame) : 0.325
Stream size : 3.83 GiB (88%)
Writing library : x264 core 150 r2829 d1fe6fd
Encoding settings : cabac=1 / ref=5 / deblock=1:-3:-3 / analyse=0x3:0x133 / me=umh / subme=9 / psy=1 / psy_rd=1.00:0.00 / mixed_ref=1 / me_range=16 / chroma_me=1 / trellis=2 / 8x8dct=1 / cqm=0 / deadzone=21,11 / fast_pskip=0 / chroma_qp_offset=-2 / threads=17 / lookahead_threads=1 / sliced_threads=0 / nr=0 / decimate=1 / interlaced=0 / bluray_compat=0 / constrained_intra=0 / bframes=3 / b_pyramid=2 / b_adapt=1 / b_bias=0 / direct=3 / weightb=1 / open_gop=0 / weightp=2 / keyint=250 / keyint_min=24 / scenecut=40 / intra_refresh=0 / rc_lookahead=50 / rc=2pass / mbtree=1 / bitrate=5430 / ratetol=1.0 / qcomp=0.60 / qpmin=0 / qpmax=69 / qpstep=4 / cplxblur=20.0 / qblur=0.5 / ip_ratio=1.40 / aq=1:1.00
Language : English
Default : Yes
Forced : No

Audio
ID : 2
Format : DTS
Format/Info : Digital Theater Systems
Mode : 16
Format settings, Endianness : Big
Codec ID : A_DTS
Duration : 1 h 40 min
Bit rate mode : Constant
Bit rate : 768 kb/s
Channel(s) : 2 channels
Channel positions : Front: L R
Sampling rate : 48.0 kHz
Frame rate : 93.750 FPS (512 spf)
Bit depth : 24 bits
Compression mode : Lossy
Stream size : 555 MiB (12%)
Language : French
Default : Yes
Forced : No

Text
ID : 3
Format : UTF-8
Codec ID : S_TEXT/UTF8
Codec ID/Info : UTF-8 Plain Text
Duration : 1 h 39 min
Bit rate : 40 b/s
Count of elements : 1037
Stream size : 30.0 KiB (0%)
Title : forced
Language : English
Default : Yes
Forced : Yes

Menu
00:00:00.000 : en:00:00:00.000
00:10:00.125 : en:00:10:00.125
00:17:52.625 : en:00:17:52.625
00:26:38.000 : en:00:26:38.000
00:39:46.750 : en:00:39:46.750
00:47:17.208 : en:00:47:17.208
00:54:57.083 : en:00:54:57.083
01:04:40.583 : en:01:04:40.583
01:14:11.958 : en:01:14:11.958
01:21:55.083 : en:01:21:55.083
01:31:25.458 : en:01:31:25.458
01:35:12.625 : en:01:35:12.625[/color]

[url=https://www.sparrowpics.com/image/UYe][img]https://www.sparrowpics.com/images/2015/12/10/Screens.png[/img][/url]

[color=red]Click Image To View Full Size[/color]

[URL=https://www.sparrowpics.com/image/7jRJH][IMG]https://www.sparrowpics.com/images/2017/05/23/7jRJH.th.jpg[/IMG][/URL]
[URL=https://www.sparrowpics.com/image/7jYAT][b]Click To View Screenshot[/b][/URL]
[URL=https://www.sparrowpics.com/image/7jo8B][b]Click To View Screenshot[/b][/URL]
[URL=https://www.sparrowpics.com/image/7jsBe][b]Click To View Screenshot[/b][/URL]

[/center] ]]>
Private Gold 200 - Erasmus Orgasmus [2017] DVDRip mp4 http://glodls.to/torrent.php?id=2527849 http://glodls.to/torrent.php?id=2527849 Tue, 23 May 2017 17:09:28 +0100 Adult XXX
1.22 GB

Screens

[url]http://img.img-central.com/image/wZWrs[/url]
[url]http://img.img-central.com/image/wZuYy[/url]
[url]http://img.img-central.com/image/wZV91[/url]

[img]https://s22.postimg.org/tu0x85kwx/Private_Gold_1.jpg[/img]
]]>
[PublicPickUps - Mofos] Kimber Lee (Post-Workout Treat for Gym Babe - 24 05 2017) http://glodls.to/torrent.php?id=2527848 http://glodls.to/torrent.php?id=2527848 Tue, 23 May 2017 17:08:05 +0100 Adult XXX
Genre :- [POV, Outdoors, All Sex, Masturbation, Missionary, Doggystyle (Standing), Blowjob] 480p

Screenshot :-

[url=http://imgtorrnt.in/view.php?id=ePSZrCQ][color=green] View Screen 1 [/color] [/url]

[url=http://imgtorrnt.in/view.php?id=TzPAb4j][color=green] View Screen 2 [/color] [/url]

[img]http://i.imgur.com/ePSZrCQ.jpg[/img]

]]>
Private Specials 157 - Cute And Tight Holes 3 [2017] DVDRip mp4 http://glodls.to/torrent.php?id=2527847 http://glodls.to/torrent.php?id=2527847 Tue, 23 May 2017 17:06:11 +0100 Adult XXX
857.25 MB

Screens

[url]http://img.img-central.com/image/wZomu[/url]
[url]http://img.img-central.com/image/wZst2[/url]
[url]http://img.img-central.com/image/wZSCG[/url]

[img]https://s9.postimg.org/b62az6vb3/Private_Specials_1.jpg[/img]
]]>
[WakeUpNFuck] Nekane - WUNF 190 (05 06 2016) rq (Full) mp4 http://glodls.to/torrent.php?id=2527846 http://glodls.to/torrent.php?id=2527846 Tue, 23 May 2017 17:05:19 +0100 Adult XXX Audio: aac, 48000 Hz, stereo, s16, 130 kb/s (und)
Video: h264, yuv420p, 960x540, 1401 kb/s, 25,00 fps(r) (und)

https://imgdrive.net/img-59246b896f9d1.html

]]>
Courted.2015.LIMITED.720p.BluRay.x264-USURY[PRiME] http://glodls.to/torrent.php?id=2527845 http://glodls.to/torrent.php?id=2527845 Tue, 23 May 2017 17:04:57 +0100 Movies Courted.2015.LIMITED.720p.BluRay.x264-USURY[PRiME]

ImDb: [URL]http://www.imdb.com/title/tt2279373[/URL]

[url=https://www.sparrowpics.com/image/LwB][img]https://www.sparrowpics.com/images/2015/12/10/Info.png[/img][/url]

[color=green]Complete name : courted.2015.limited.720p.bluray.x264-usury[PRiME].mkv
Format : Matroska
Format version : Version 4 / Version 2
File size : 4.37 GiB
Duration : 1 h 37 min
Overall bit rate : 6 390 kb/s
Encoded date : UTC 2017-05-23 15:55:43
Writing application : mkvmerge v8.3.0 ('Over the Horizon') 64bit
Writing library : libebml v1.3.1 + libmatroska v1.4.2

Video
ID : 1
Format : AVC
Format/Info : Advanced Video Codec
Format profile : High@L4.1
Format settings, CABAC : Yes
Format settings, ReFrames : 5 frames
Codec ID : V_MPEG4/ISO/AVC
Duration : 1 h 37 min
Bit rate : 4 880 kb/s
Width : 1 280 pixels
Height : 536 pixels
Display aspect ratio : 2.40:1
Frame rate mode : Constant
Frame rate : 24.000 FPS
Color space : YUV
Chroma subsampling : 4:2:0
Bit depth : 8 bits
Scan type : Progressive
Bits/(Pixel*Frame) : 0.296
Stream size : 3.34 GiB (76%)
Writing library : x264 core 150 r2829 d1fe6fd
Encoding settings : cabac=1 / ref=5 / deblock=1:-3:-3 / analyse=0x3:0x133 / me=umh / subme=9 / psy=1 / psy_rd=1.00:0.00 / mixed_ref=1 / me_range=16 / chroma_me=1 / trellis=2 / 8x8dct=1 / cqm=0 / deadzone=21,11 / fast_pskip=0 / chroma_qp_offset=-2 / threads=17 / lookahead_threads=1 / sliced_threads=0 / nr=0 / decimate=1 / interlaced=0 / bluray_compat=0 / constrained_intra=0 / bframes=3 / b_pyramid=2 / b_adapt=1 / b_bias=0 / direct=3 / weightb=1 / open_gop=0 / weightp=2 / keyint=250 / keyint_min=24 / scenecut=40 / intra_refresh=0 / rc_lookahead=50 / rc=2pass / mbtree=1 / bitrate=4880 / ratetol=1.0 / qcomp=0.60 / qpmin=0 / qpmax=69 / qpstep=4 / cplxblur=20.0 / qblur=0.5 / ip_ratio=1.40 / aq=1:1.00
Language : English
Default : Yes
Forced : No

Audio
ID : 2
Format : DTS
Format/Info : Digital Theater Systems
Mode : 16
Format settings, Endianness : Big
Codec ID : A_DTS
Duration : 1 h 37 min
Bit rate mode : Constant
Bit rate : 1 509 kb/s
Channel(s) : 6 channels
Channel positions : Front: L C R, Side: L R, LFE
Sampling rate : 48.0 kHz
Frame rate : 93.750 FPS (512 spf)
Bit depth : 24 bits
Compression mode : Lossy
Stream size : 1.03 GiB (24%)
Language : French
Default : Yes
Forced : No

Text
ID : 3
Format : UTF-8
Codec ID : S_TEXT/UTF8
Codec ID/Info : UTF-8 Plain Text
Duration : 1 h 37 min
Bit rate : 60 b/s
Count of elements : 1511
Stream size : 43.7 KiB (0%)
Title : forced
Language : English
Default : Yes
Forced : Yes

Menu
00:00:00.000 : en:00:00:00.000
00:09:32.042 : en:00:09:32.042
00:22:00.458 : en:00:22:00.458
00:32:22.000 : en:00:32:22.000
00:42:13.292 : en:00:42:13.292
00:50:00.583 : en:00:50:00.583
00:59:12.333 : en:00:59:12.333
01:03:52.417 : en:01:03:52.417
01:16:20.083 : en:01:16:20.083
01:21:21.417 : en:01:21:21.417
01:29:05.167 : en:01:29:05.167
01:34:45.250 : en:01:34:45.250[/color]

[url=https://www.sparrowpics.com/image/UYe][img]https://www.sparrowpics.com/images/2015/12/10/Screens.png[/img][/url]

[color=red]Click Image To View Full Size[/color]

[URL=https://www.sparrowpics.com/image/7jU9M][IMG]https://www.sparrowpics.com/images/2017/05/23/7jU9M.th.jpg[/IMG][/URL]
[URL=https://www.sparrowpics.com/image/7jg3V][b]Click To View Screenshot[/b][/URL]
[URL=https://www.sparrowpics.com/image/7j3ad][b]Click To View Screenshot[/b][/URL]
[URL=https://www.sparrowpics.com/image/7jIn1][b]Click To View Screenshot[/b][/URL]

[/center] ]]>
[FeatureFilms - Twistys] Amara Romani (Noveau Riche Part 3 - 20 05 2017) http://glodls.to/torrent.php?id=2527844 http://glodls.to/torrent.php?id=2527844 Tue, 23 May 2017 17:03:34 +0100 Adult XXX
Genre :- [Blowjob, All Sex] 480p

Screenshot :-

[url=http://imgtorrnt.in/view.php?id=S4OKwOl][color=green] View Screen 1 [/color] [/url]

[url=http://imgtorrnt.in/view.php?id=BKfN7HP][color=green] View Screen 2 [/color] [/url]

[img]http://i.imgur.com/S4OKwOl.jpg[/img]

]]>
Dog House Digital - Grannies Wet Panties [2017] DVDRip mp4 http://glodls.to/torrent.php?id=2527843 http://glodls.to/torrent.php?id=2527843 Tue, 23 May 2017 17:01:35 +0100 Adult XXX
1.19 GB

Screens

[url]http://img.img-central.com/image/wZiuh[/url]
[url]http://img.img-central.com/image/wZQNg[/url]
[url]http://img.img-central.com/image/wZm4w[/url]

[img]https://s12.postimg.org/a2ri7crql/Dog_1.jpg[/img] ]]>
[X-Art] Dina aka Lady Dee (Pretty Little Pussy - 19 05 2017) http://glodls.to/torrent.php?id=2527797 http://glodls.to/torrent.php?id=2527797 Tue, 23 May 2017 16:59:04 +0100 Adult XXX
Genre :- [Vibrator, All Sex, Blowjob, Hardcore, 544p]

Screenshot :-

[url=http://imgtorrnt.in/view.php?id=JWlgSZf][color=green] View Screen 1 [/color] [/url]

[url=http://imgtorrnt.in/view.php?id=FackmYt][color=green] View Screen 2 [/color] [/url]

[img]http://i.imgur.com/JWlgSZf.jpg[/img]

]]>
Penthouse 16 06 07 Katja Kassin in Office Encounter XXX 480p MP4-TK http://glodls.to/torrent.php?id=2527796 http://glodls.to/torrent.php?id=2527796 Tue, 23 May 2017 16:57:31 +0100 Adult XXX
[b]Screenshots:[/b]

[url]http://imgking.co/imgs-592469fd015e2.html[/url]

[url]http://imgking.co/imgs-592469fcef0f6.html[/url]

[url]http://imgking.co/imgs-592469fce72af.html[/url]

[url]http://imgking.co/imgs-592469f23039f.html[/url]

File Size : 157 MiB
Duration : 18mn 50s
Video : h264, yuv420p, 854x480p, 1024 Kbps
Audio : aac , 2 ch, stereo , 128 Kbps ]]>