GloDLS.to - Download Movies, TV, Games and Other Torrents Free RSS 2.0enGloDLS.to - Download Movies, TV, Games and Other Torrents FreeGloDLS.to - Download Movies, TV, Games and Other Torrents Free RSS Feedhttp://glodls.toCopyright GloDLS.to - Download Movies, TV, Games and Other Torrents FreeFri, 20 Oct 2017 11:36:00 +0100 Miles Davis & Quincy Jones - Live At Montreux (1993) http://glodls.to/torrent.php?id=2886840 http://glodls.to/torrent.php?id=2886840 Fri, 20 Oct 2017 10:35:28 +0100 Music
Artist: Miles Davis & Quincy Jones
Title: Live At Montreux
Year Of Release: 1993
Genre: Jazz
Label: Warner Bros
Tracks: 16
CDs: 1
Format: Mp3
Quality: 320 kbps
Included Scans: Si
Archive Size: 130 Mb

----------------

01. Introduction By Claude Nobs And Quincy Jones
02. Boplicity
03. Introduction To "Miles Ahead" Medley
04. Springsville
05. Maids Of Cadiz
06. The Duke
07. My Ship
08. Miles Ahead
09. Blues For Pablo
10. Introduction To "Porgy And Bess" Medley
11. Orgone
12. Gone, Gone, Gone
13. Summertime
14. Here Come De Honey Man
15. The Pan Piper
16. Solea ]]>
Lullu Gun, Jason Steel - I Prefer Your Pussy Smell http://glodls.to/torrent.php?id=2886839 http://glodls.to/torrent.php?id=2886839 Fri, 20 Oct 2017 10:33:11 +0100 Adult XXX
[b]Date[/b]: 2017
[b]Cast[/b]: Lullu Gun, Jason Steel
[b]Genre[/b]: All sex, BJ
[b]Name[/b]: I Prefer Your Pussy Smell


[b]Video[/b]: AVC, 1040x584, 25.000 FPS, 3996 kb/s
[b]Audio[/b]: AAC LC, 48.0 kHz, 2 channels, 157 kb/s
[b]Format[/b]: mp4
[b]Duration[/b]: 00:19:03
]]>
Angel Dickens is having sex in the living room while a guy http://glodls.to/torrent.php?id=2886838 http://glodls.to/torrent.php?id=2886838 Fri, 20 Oct 2017 10:32:07 +0100 Adult XXX
https://socialporn.online/2017/10/19/angel-dickens-is-having/
https://socialporn.online/2017/10/19/angel-dickens-is-having-2/
https://socialporn.online/2017/10/19/angel-dickens-is-having-3/
https://socialporn.online/2017/10/19/angel-dickens-is-having-4/ ]]>
Firebreather 2010 720p Esub BluRay Dual Audio English Hindi GOPISAHI http://glodls.to/torrent.php?id=2886837 http://glodls.to/torrent.php?id=2886837 Fri, 20 Oct 2017 10:31:38 +0100 Movies Format : Matroska
Format version : Version 4 / Version 2
File size : 535 MiB
Duration : 1 h 9 min
Overall bit rate : 1 082 kb/s
Movie name : Firebreather 2010

Video
Format : AVC
Codec ID : V_MPEG4/ISO/AVC
Duration : 1 h 9 min
Bit rate : 800 kb/s
Width : 1 280 pixels
Height : 720 pixels
Display aspect ratio : 16:9
Frame rate mode : Constant
Frame rate : 23.976 (24000/1001) FPS
Stream size : 395 MiB (74%)
Writing library : x264

Audio #1
Format : AAC
Duration : 1 h 9 min
Bit rate : 174 kb/s
Channel(s) : 6 channels
Channel positions : Front: L C R, Side: L R, LFE
Sampling rate : 44.1 kHz
Frame rate : 43.066 FPS (1024 SPF)
Stream size : 86.2 MiB (16%)
Language : English

Audio #2
Format : AAC
Duration : 1 h 9 min
Bit rate : 106 kb/s
Channel(s) : 2 channels
Channel positions : Front: L R
Sampling rate : 44.1 kHz
Frame rate : 43.066 FPS (1024 SPF)
Stream size : 52.2 MiB (10%)
Language : Hindi

Text
Language : English
[img]https://i.imgur.com/HPvUUQP.jpg[/img]
[img]https://i.imgur.com/9WetNl1.jpg[/img]
[img]https://i.imgur.com/DuvAaUo.jpg[/img][/center] ]]>
Watch.What.Happens.Live.2017.10.19.Pink.WEB.x264-TBS[ettv] http://glodls.to/torrent.php?id=2886836 http://glodls.to/torrent.php?id=2886836 Fri, 20 Oct 2017 10:31:27 +0100 TV Et TV Shows


Watch.What.Happens.Live.2017.10.19.Pink.WEB.x264-TBS


[Format]: Matroska
[Duration]: 21mn 48s
[Resolution]: 960 x 544 pixels
[Display aspect ratio]: 16:9
[Frame rate mode]: Constant
[Frame rate]: 29.970 fps


[color=green][b]#ettv -> To avoid fakes, ALWAYS check that the torrent was added by ettv[/b][/color]




[color=green][b]To keep us going Support us by donating Bitcoin: 3MDamEmgKepqagtQe9eEdQ3NCrWEWjhoL5[/b][/color]

[b]Screens...[/b]
[url=https://extraimage.net/image/TC4T][img]https://extraimage.net/images/2017/10/20/e60ba6a3028fe8d98a67a3da61f3de77.th.jpg[/img][/url] ]]>
Lullu Gun, Jason Steel - I Prefer Your Pussy Smell http://glodls.to/torrent.php?id=2886835 http://glodls.to/torrent.php?id=2886835 Fri, 20 Oct 2017 10:27:16 +0100 Adult XXX
[b]Date[/b]: 2017
[b]Cast[/b]: Lullu Gun, Jason Steel
[b]Genre[/b]: All sex, BJ
[b]Name[/b]: I Prefer Your Pussy Smell


[b]Video[/b]: AVC, 1920x1080, 25.000 FPS, 6177 kb/s
[b]Audio[/b]: AAC LC, 48.0 kHz, 2 channels, 192 kb/s
[b]Format[/b]: mp4
[b]Duration[/b]: 00:19:03
]]>
Flipping.Out.S10E10.WEB.x264-TBS[ettv] http://glodls.to/torrent.php?id=2886834 http://glodls.to/torrent.php?id=2886834 Fri, 20 Oct 2017 10:21:26 +0100 TV Et TV Shows


Flipping.Out.S10E10.WEB.x264-TBS


[Format]: Matroska
[Duration]: 43mn 23s
[Resolution]: 960 x 544 pixels
[Display aspect ratio]: 16:9
[Frame rate mode]: Constant
[Frame rate]: 23.976 fps


[color=green][b]#ettv -> To avoid fakes, ALWAYS check that the torrent was added by ettv[/b][/color]




[color=green][b]To keep us going Support us by donating Bitcoin: 3MDamEmgKepqagtQe9eEdQ3NCrWEWjhoL5[/b][/color]

[b]Screens...[/b]
[url=https://extraimage.net/image/TCet][img]https://extraimage.net/images/2017/10/20/de62ebb4de3e5ac3c2d38a0a7c9c06b7.th.jpg[/img][/url] ]]>
The Adventurers 2017 BDRip XviD AC3-EVO http://glodls.to/torrent.php?id=2886833 http://glodls.to/torrent.php?id=2886833 Fri, 20 Oct 2017 10:20:41 +0100 Movies COVER:
https://tinizo.com/upload/small/2017/10/20/59e9cdcdd8ab5.jpg

RELEASED:
18 August 2017

IMDB: https://www.imdb.com/title/tt5866930/



Size: 1490398216 bytes (1.39 GiB), duration: 01:47:05, avg.bitrate: 1856 kb/s
Audio: ac3, 48000 Hz, 5:1, 448 kb/s
Video: mpeg4, yuv420p, 720x304, 24.00 fps(r)




SCREENS:
[url=https://tinizo.com/img-59e9cdce35a24.html[/url]

[url]https://tinizo.com/img-59e9cdce39772.html[/url]

[url]https://tinizo.com/img-59e9cdce3b3a9.html[/url]


DOWNLOAD AND ENJOY.

KEEP IT FOR LONG SEEDING TO HELP OTHERS


Thanks to : EVO
Movie Share ]]>
The.Flintstones.In.Viva.Rock.Vegas.2000.720p.BluRay.x264-SPOOKS http://glodls.to/torrent.php?id=2886832 http://glodls.to/torrent.php?id=2886832 Fri, 20 Oct 2017 10:20:17 +0100 Movies
[b]ImDb: [URL]http://www.imdb.com/title/tt0158622[/URL][/b]

[url=https://www.sparrowpics.com/image/kbFon][img]https://www.sparrowpics.com/images/2017/07/04/kbFon.png[/img][/url]

[b]Complete name : the.flintstones.in.viva.rock.vegas.2000.720p.bluray.x264-spooks.mkv
Format : Matroska
Format version : Version 4 / Version 2
File size : 4.37 GiB
Duration : 1 h 30 min
Overall bit rate : 6 885 kb/s
Encoded date : UTC 2017-10-19 21:45:57
Writing application : mkvmerge v13.0.0 ('The Juggler') 64bit
Writing library : libebml v1.3.4 + libmatroska v1.4.5

Video
ID : 1
Format : AVC
Format/Info : Advanced Video Codec
Format profile : High@L4.1
Format settings, CABAC : Yes
Format settings, ReFrames : 5 frames
Codec ID : V_MPEG4/ISO/AVC
Duration : 1 h 30 min
Bit rate : 5 375 kb/s
Width : 1 280 pixels
Height : 696 pixels
Display aspect ratio : 1.85:1
Frame rate mode : Constant
Frame rate : 23.976 (24000/1001) FPS
Color space : YUV
Chroma subsampling : 4:2:0
Bit depth : 8 bits
Scan type : Progressive
Bits/(Pixel*Frame) : 0.252
Stream size : 3.33 GiB (76%)
Writing library : x264 core 152 r2851kMod ba24899
Encoding settings : cabac=1 / ref=5 / deblock=1:-3:-3 / analyse=0x3:0x133 / me=umh / subme=8 / psy=1 / fade_compensate=0.00 / psy_rd=1.00:0.00 / mixed_ref=1 / me_range=16 / chroma_me=1 / trellis=1 / 8x8dct=1 / cqm=0 / deadzone=21,11 / fast_pskip=0 / chroma_qp_offset=-2 / threads=6 / lookahead_threads=1 / sliced_threads=0 / nr=0 / decimate=1 / interlaced=0 / bluray_compat=0 / constrained_intra=0 / bframes=3 / b_pyramid=2 / b_adapt=1 / b_bias=0 / direct=3 / weightb=1 / open_gop=0 / weightp=2 / keyint=250 / keyint_min=23 / scenecut=40 / intra_refresh=0 / rc_lookahead=50 / rc=2pass / mbtree=1 / bitrate=5375 / ratetol=1.0 / qcomp=0.60 / qpmin=0 / qpmax=69 / qpstep=4 / cplxblur=20.0 / qblur=0.5 / vbv_maxrate=62500 / vbv_bufsize=78125 / nal_hrd=none / filler=0 / ip_ratio=1.40 / aq=1:1.00
Default : Yes
Forced : No

Audio
ID : 2
Format : DTS
Format/Info : Digital Theater Systems
Mode : 16
Format settings, Endianness : Big
Codec ID : A_DTS
Duration : 1 h 30 min
Bit rate mode : Constant
Bit rate : 1 509 kb/s
Channel(s) : 6 channels
Channel positions : Front: L C R, Side: L R, LFE
Sampling rate : 48.0 kHz
Frame rate : 93.750 FPS (512 spf)
Bit depth : 24 bits
Compression mode : Lossy
Stream size : 981 MiB (22%)
Language : English
Default : Yes
Forced : No

Menu
00:00:00.000 : en:00:00:00.000
00:05:06.306 : en:00:05:06.306
00:08:44.524 : en:00:08:44.524
00:13:04.200 : en:00:13:04.200
00:20:24.223 : en:00:20:24.223
00:28:39.051 : en:00:28:39.051
00:44:06.519 : en:00:44:06.519
00:53:56.859 : en:00:53:56.859
00:57:09.843 : en:00:57:09.843
01:05:09.322 : en:01:05:09.322
01:14:13.074 : en:01:14:13.074
01:23:56.031 : en:01:23:56.031[/b]

[url=https://www.sparrowpics.com/image/kbJ5y][img]https://www.sparrowpics.com/images/2017/07/04/kbJ5y.png[/img][/url]

[URL=https://www.sparrowpics.com/image/2n1YZ][IMG]https://www.sparrowpics.com/images/2017/10/20/2n1YZ.th.jpg[/IMG][/URL]

[URL=https://www.sparrowpics.com/image/2nFbx][b]Click To View Screenshot[/b][/URL]

[URL=https://www.sparrowpics.com/image/2nJkN][b]Click To View Screenshot[/b][/URL]

[URL=https://www.sparrowpics.com/image/2nMWY][b]Click To View Screenshot[/b][/URL][/center] ]]>
Real.Estate.Wars.S01E03.WEB.x264-TBS[ettv] http://glodls.to/torrent.php?id=2886831 http://glodls.to/torrent.php?id=2886831 Fri, 20 Oct 2017 10:19:30 +0100 TV Et TV Shows


Real.Estate.Wars.S01E03.WEB.x264-TBS


[Format]: Matroska
[Duration]: 43mn 23s
[Resolution]: 960 x 544 pixels
[Display aspect ratio]: 16:9
[Frame rate mode]: Constant
[Frame rate]: 23.976 fps


[color=green][b]#ettv -> To avoid fakes, ALWAYS check that the torrent was added by ettv[/b][/color]




[color=green][b]To keep us going Support us by donating Bitcoin: 3MDamEmgKepqagtQe9eEdQ3NCrWEWjhoL5[/b][/color]

[b]Screens...[/b]
[url=https://extraimage.net/image/TCek][img]https://extraimage.net/images/2017/10/20/8d782210e38c58dd37cb712a0eb335f8.th.jpg[/img][/url] ]]>
The.Flintstones.In.Viva.Rock.Vegas.2000.1080p.BluRay.x264-SPOOKS http://glodls.to/torrent.php?id=2886830 http://glodls.to/torrent.php?id=2886830 Fri, 20 Oct 2017 10:14:35 +0100 Movies
[b]ImDb: [URL]http://www.imdb.com/title/tt0158622[/URL][/b]

[url=https://www.sparrowpics.com/image/kbFon][img]https://www.sparrowpics.com/images/2017/07/04/kbFon.png[/img][/url]

[b]Complete name : the.flintstones.in.viva.rock.vegas.2000.1080p.bluray.x264-spooks.mkv
Format : Matroska
Format version : Version 4 / Version 2
File size : 6.56 GiB
Duration : 1 h 30 min
Overall bit rate : 10.3 Mb/s
Encoded date : UTC 2017-10-19 21:04:09
Writing application : mkvmerge v13.0.0 ('The Juggler') 64bit
Writing library : libebml v1.3.4 + libmatroska v1.4.5

Video
ID : 1
Format : AVC
Format/Info : Advanced Video Codec
Format profile : High@L4.1
Format settings, CABAC : Yes
Format settings, ReFrames : 4 frames
Codec ID : V_MPEG4/ISO/AVC
Duration : 1 h 30 min
Bit rate : 8 822 kb/s
Width : 1 920 pixels
Height : 1 040 pixels
Display aspect ratio : 1.85:1
Frame rate mode : Constant
Frame rate : 23.976 (24000/1001) FPS
Color space : YUV
Chroma subsampling : 4:2:0
Bit depth : 8 bits
Scan type : Progressive
Bits/(Pixel*Frame) : 0.184
Stream size : 5.47 GiB (83%)
Writing library : x264 core 152 r2851kMod ba24899
Encoding settings : cabac=1 / ref=4 / deblock=1:-3:-3 / analyse=0x3:0x133 / me=umh / subme=8 / psy=1 / fade_compensate=0.00 / psy_rd=1.00:0.00 / mixed_ref=1 / me_range=16 / chroma_me=1 / trellis=1 / 8x8dct=1 / cqm=0 / deadzone=21,11 / fast_pskip=0 / chroma_qp_offset=-2 / threads=24 / lookahead_threads=4 / sliced_threads=0 / nr=0 / decimate=1 / interlaced=0 / bluray_compat=0 / constrained_intra=0 / bframes=3 / b_pyramid=2 / b_adapt=1 / b_bias=0 / direct=3 / weightb=1 / open_gop=0 / weightp=2 / keyint=250 / keyint_min=23 / scenecut=40 / intra_refresh=0 / rc_lookahead=50 / rc=2pass / mbtree=1 / bitrate=8822 / ratetol=1.0 / qcomp=0.60 / qpmin=0 / qpmax=69 / qpstep=4 / cplxblur=20.0 / qblur=0.5 / vbv_maxrate=62500 / vbv_bufsize=78125 / nal_hrd=none / filler=0 / ip_ratio=1.40 / aq=1:1.00
Default : Yes
Forced : No

Audio
ID : 2
Format : DTS
Format/Info : Digital Theater Systems
Mode : 16
Format settings, Endianness : Big
Codec ID : A_DTS
Duration : 1 h 30 min
Bit rate mode : Constant
Bit rate : 1 509 kb/s
Channel(s) : 6 channels
Channel positions : Front: L C R, Side: L R, LFE
Sampling rate : 48.0 kHz
Frame rate : 93.750 FPS (512 spf)
Bit depth : 24 bits
Compression mode : Lossy
Stream size : 981 MiB (15%)
Language : English
Default : Yes
Forced : No

Menu
00:00:00.000 : en:00:00:00.000
00:05:06.306 : en:00:05:06.306
00:08:44.524 : en:00:08:44.524
00:13:04.200 : en:00:13:04.200
00:20:24.223 : en:00:20:24.223
00:28:39.051 : en:00:28:39.051
00:44:06.519 : en:00:44:06.519
00:53:56.859 : en:00:53:56.859
00:57:09.843 : en:00:57:09.843
01:05:09.322 : en:01:05:09.322
01:14:13.074 : en:01:14:13.074
01:23:56.031 : en:01:23:56.031[/b]

[url=https://www.sparrowpics.com/image/kbJ5y][img]https://www.sparrowpics.com/images/2017/07/04/kbJ5y.png[/img][/url]

[URL=https://www.sparrowpics.com/image/2jfyy][IMG]https://www.sparrowpics.com/images/2017/10/20/2jfyy.th.jpg[/IMG][/URL]

[URL=https://www.sparrowpics.com/image/2jwDJ][b]Click To View Screenshot[/b][/URL]

[URL=https://www.sparrowpics.com/image/2jxqc][b]Click To View Screenshot[/b][/URL]

[URL=https://www.sparrowpics.com/image/2jBT6][b]Click To View Screenshot[/b][/URL][/center] ]]>
Jade Blissette - Mechanized Orgasm http://glodls.to/torrent.php?id=2886829 http://glodls.to/torrent.php?id=2886829 Fri, 20 Oct 2017 10:12:20 +0100 Adult XXX
[b]Date[/b]: 2017
[b]Cast[/b]: Jade Blissette
[b]Genre[/b]: MILF, Solo
[b]Name[/b]: Mechanized Orgasm


[b]Video[/b]: AVC, 854x480, 29.970 FPS, 1580 kb/s
[b]Audio[/b]: AAC LC, 48.0 kHz, 2 channels, 165 kb/s
[b]Format[/b]: mp4
[b]Duration[/b]: 00:20:22
]]>
Jade Blissette - Mechanized Orgasm http://glodls.to/torrent.php?id=2886828 http://glodls.to/torrent.php?id=2886828 Fri, 20 Oct 2017 10:09:16 +0100 Adult XXX
[b]Date[/b]: 2017
[b]Cast[/b]: Jade Blissette
[b]Genre[/b]: MILF, Solo
[b]Name[/b]: Mechanized Orgasm


[b]Video[/b]: AVC, 1920x1080, 29.970 FPS, 5600 kb/s
[b]Audio[/b]: AAC LC, 48.0 kHz, 2 channels, 165 kb/s
[b]Format[/b]: mp4
[b]Duration[/b]: 00:20:22
]]>
Chicago - Greatest Hits (1982-1989) http://glodls.to/torrent.php?id=2886827 http://glodls.to/torrent.php?id=2886827 Fri, 20 Oct 2017 10:08:06 +0100 Music
Tracklist:

01."Hard to Say I'm Sorry/Get Away" (Peter Cetera, David Foster, Robert Lamm)
02."Look Away" (Diane Warren)
03."Stay the Night" (Cetera, Foster)
04."Will You Still Love Me?" (Foster, Tom Keane, Richard Baskin)
05."Love Me Tomorrow" (Cetera, Foster)
06."What Kind of Man Would I Be?" (Remix) (Jason Scheff, Chas Sandford, Bobby Caldwell)
07."You're the Inspiration" (Cetera, Foster)
08."I Don't Wanna Live Without Your Love" (Warren, Albert Hammond)
09."Hard Habit to Break" (Steve Kipner, Jon Parker)
10."Along Comes a Woman" (Cetera, Mark Goldenberg)
11."If She Would Have Been Faithful..." (Kipner, Randy Goodrum)
12."We Can Last Forever" (Scheff, John Dexter)

***

Quality: Lossy (*.mp3)
Codec: LAME 3.99.5r
Bitrate type: Constant (320 Kbps)
Channels: Stereo (48 kHz, 16 bits)
Overall time: 53:25
Release date: 1989
Recording type: Studio
Genre: Soft Rock
Release Group: by matesio & WR Music
Share: Anywhere


]]>
The.Adventurers.2017.BDRip.XviD.AC3-EVO http://glodls.to/torrent.php?id=2886826 http://glodls.to/torrent.php?id=2886826 Fri, 20 Oct 2017 10:03:18 +0100 Movies
[b]ImDb: [URL]http://www.imdb.com/title/tt5866930[/URL][/b]

[url=https://www.sparrowpics.com/image/kbFon][img]https://www.sparrowpics.com/images/2017/07/04/kbFon.png[/img][/url]

[b]Complete name : The.Adventurers.2017.BDRip.XviD.AC3-EVO.avi
Format : AVI
Format/Info : Audio Video Interleave
File size : 1.39 GiB
Duration : 1 h 47 min
Overall bit rate : 1 856 kb/s
Writing library : VirtualDub build 32593/release

Video
ID : 0
Format : MPEG-4 Visual
Format profile : Advanced Simple@L5
Format settings, BVOP : 2
Format settings, QPel : No
Format settings, GMC : No warppoints
Format settings, Matrix : Default (H.263)
Muxing mode : Packed bitstream
Codec ID : XVID
Codec ID/Hint : XviD
Duration : 1 h 47 min
Bit rate : 1 398 kb/s
Width : 720 pixels
Height : 304 pixels
Display aspect ratio : 2.35:1
Frame rate : 24.000 FPS
Color space : YUV
Chroma subsampling : 4:2:0
Bit depth : 8 bits
Scan type : Progressive
Compression mode : Lossy
Bits/(Pixel*Frame) : 0.266
Stream size : 1.05 GiB (75%)
Writing library : XviD 66

Audio
ID : 1
Format : AC-3
Format/Info : Audio Coding 3
Format settings, Endianness : Big
Codec ID : 2000
Duration : 1 h 47 min
Bit rate mode : Constant
Bit rate : 448 kb/s
Channel(s) : 6 channels
Channel positions : Front: L C R, Side: L R, LFE
Sampling rate : 48.0 kHz
Frame rate : 31.250 FPS (1536 spf)
Bit depth : 16 bits
Compression mode : Lossy
Stream size : 343 MiB (24%)
Alignment : Aligned on interleaves
Interleave, duration : 42 ms (1.00 video frame)
Interleave, preload duration : 512 ms
Service kind : Complete Main[/b]

[url=https://www.sparrowpics.com/image/kbJ5y][img]https://www.sparrowpics.com/images/2017/07/04/kbJ5y.png[/img][/url]

[URL=https://www.sparrowpics.com/image/2jne5][IMG]https://www.sparrowpics.com/images/2017/10/20/2jne5.th.jpg[/IMG][/URL]

[URL=https://www.sparrowpics.com/image/2j7wP][b]Click To View Screenshot[/b][/URL]

[URL=https://www.sparrowpics.com/image/2jkRm][b]Click To View Screenshot[/b][/URL]

[URL=https://www.sparrowpics.com/image/2jmbr][b]Click To View Screenshot[/b][/URL][/center] ]]>
Anal sex loving brunettes got naked and had group sex with guys http://glodls.to/torrent.php?id=2886825 http://glodls.to/torrent.php?id=2886825 Fri, 20 Oct 2017 10:01:52 +0100 Adult XXX https://socialporn.online/2017/10/19/anal-sex-loving-brunettes/
https://socialporn.online/2017/10/19/anal-sex-loving-brunettes-2/
https://socialporn.online/2017/10/19/anal-sex-loving-brunettes-3/
https://socialporn.online/2017/10/19/anal-sex-loving-brunettes-4/ ]]>
The.Adventurers.2017.BDRip.XviD.AC3-EVO http://glodls.to/torrent.php?id=2886824 http://glodls.to/torrent.php?id=2886824 Fri, 20 Oct 2017 10:01:06 +0100 Movies [color=red][b]
The.Adventurers.2017.BDRip.XviD.AC3-EVO

[/b][/color]


IMDb: http://www.imdb.com/title/tt5866930/





[url=https://boltimg.com/image/t52z][img]https://boltimg.com/images/t52z.png[/img][/url]



[color=green][b]
General

(Duration): 1h 47mn
(FileSize): 1.39 GiB



Audio

(Format): AC-3 - Audio Coding 3
(Codec): AC3



Video

(Format): MPEG-4 Visual -
(Media): video/MP4V-ES
(Format): XviD
(Resolution): 720x304 px
(AspectRatio): 2.35:1
(FrameRate): 24.000 fps




[/b][/color]


[url=https://boltimg.com/image/tzTE][img]https://boltimg.com/images/tzTE.png[/img][/url]



[color=purple][b](Click to enlarge)[/b][/color]

[url=https://boltimg.com/image/RlaC5][img]https://boltimg.com/images/RlaC5.th.jpg[/img][/url] [url=https://boltimg.com/image/RlbVW][img]https://boltimg.com/images/RlbVW.th.jpg[/img][/url] [url=https://boltimg.com/image/Rlo3x][img]https://boltimg.com/images/Rlo3x.th.jpg[/img][/url] [url=https://boltimg.com/image/RlBAX][img]https://boltimg.com/images/RlBAX.th.jpg[/img][/url] [url=https://boltimg.com/image/RlC1w][img]https://boltimg.com/images/RlC1w.th.jpg[/img][/url] [url=https://boltimg.com/image/RlKOL][img]https://boltimg.com/images/RlKOL.th.jpg[/img][/url]

[/center]
]]>
The.Only.Living.Boy.in.New.York.2017.1080p.WEB-DL.DD5.1.H264-FGT[EtHD] http://glodls.to/torrent.php?id=2886781 http://glodls.to/torrent.php?id=2886781 Fri, 20 Oct 2017 10:00:18 +0100 Movies EtHD - EtHD - Et High-Definition Movies

-----------------------------------------------------

[url=https://extraimage.net/image/TCeK][img]https://extraimage.net/images/2017/10/20/a5204aea1580dc946019536f937fb310.jpg[/img][/url]

The.Only.Living.Boy.in.New.York.2017.1080p.WEB-DL.DD5.1.H264-FGT

http://www.imdb.com/title/tt0460890/

[Video Bitrate]:.............: 5647kb/s
[Duration]:.............: 1 h 28 min
[Video Codec]:.............: AVC
[Resolution]:.............: 1912x1072 px
[Aspect Ratio]:.............: 16:9
[Audio Codec]:.............: AC-3
[Audio Bitrate]:.............: 384kb/s
[Audio Channels]:.............: 5.1ch
[Audio Language]:.............: English

Genre .......................: Drama

[color=green][b]#EtHD -> To avoid fakes, ALWAYS check that the torrent was added by EtHD [/b][/color]



[color=green][b]To keep us going Support us by donating Bitcoin: 3MDamEmgKepqagtQe9eEdQ3NCrWEWjhoL5[/b][/color]

[b]Screens...[/b]
[url=https://extraimage.net/image/TCed][img]https://extraimage.net/images/2017/10/20/5d585c852d87273fe54de777ad3aebfc.th.jpg[/img][/url]
[url=https://extraimage.net/image/TCeh][img]https://extraimage.net/images/2017/10/20/63a0e796d185b90b354131930781e805.th.jpg[/img][/url]
[url=https://extraimage.net/image/TCeb][img]https://extraimage.net/images/2017/10/20/8c0af9e1ea2e9b718a218200fb3a6b3b.th.jpg[/img][/url]
[url=https://extraimage.net/image/TCe3][img]https://extraimage.net/images/2017/10/20/84111132c4994015a2817ffd153b4165.th.jpg[/img][/url]
[url=https://extraimage.net/image/TCeJ][img]https://extraimage.net/images/2017/10/20/98785965f5ac7a93e0d2592b95e0f4dc.th.jpg[/img][/url] ]]>
Chicago Fire S06E04 iNTERNAL 720p WEB x264-BAMBOOZLE http://glodls.to/torrent.php?id=2886780 http://glodls.to/torrent.php?id=2886780 Fri, 20 Oct 2017 10:00:16 +0100 TV http://www.tvrage.com/schedule.php?show_yesterday=1. ]]> The Good Place S02E05 REAL iNTERNAL 720p WEB x264-BAMBOOZLE http://glodls.to/torrent.php?id=2886779 http://glodls.to/torrent.php?id=2886779 Fri, 20 Oct 2017 10:00:14 +0100 TV http://www.tvrage.com/schedule.php?show_yesterday=1. ]]> Jimmy Kimmel 2017 10 19 Tracy Morgan WEB x264-TBS http://glodls.to/torrent.php?id=2886778 http://glodls.to/torrent.php?id=2886778 Fri, 20 Oct 2017 10:00:13 +0100 TV http://www.tvrage.com/schedule.php?show_yesterday=1. ]]> Superstore S03E04 iNTERNAL 720p WEB x264-BAMBOOZLE http://glodls.to/torrent.php?id=2886777 http://glodls.to/torrent.php?id=2886777 Fri, 20 Oct 2017 10:00:11 +0100 TV http://www.tvrage.com/schedule.php?show_yesterday=1. ]]> Jimmy Kimmel 2017 10 19 Tracy Morgan 720p WEB x264-TBS http://glodls.to/torrent.php?id=2886776 http://glodls.to/torrent.php?id=2886776 Fri, 20 Oct 2017 10:00:09 +0100 TV http://www.tvrage.com/schedule.php?show_yesterday=1. ]]> Great News S02E04 iNTERNAL 720p WEB x264-BAMBOOZLE http://glodls.to/torrent.php?id=2886775 http://glodls.to/torrent.php?id=2886775 Fri, 20 Oct 2017 10:00:07 +0100 TV http://www.tvrage.com/schedule.php?show_yesterday=1. ]]> How to Get Away with Murder S04E04 iNTERNAL 720p WEB x264-BAMBOOZLE http://glodls.to/torrent.php?id=2886774 http://glodls.to/torrent.php?id=2886774 Fri, 20 Oct 2017 10:00:06 +0100 TV http://www.tvrage.com/schedule.php?show_yesterday=1. ]]> Scandal US S07E03 iNTERNAL 720p WEB x264-BAMBOOZLE http://glodls.to/torrent.php?id=2886773 http://glodls.to/torrent.php?id=2886773 Fri, 20 Oct 2017 10:00:04 +0100 TV http://www.tvrage.com/schedule.php?show_yesterday=1. ]]> Leatherface.2017.1080p.WEB-DL.DD5.1.H264-FGT[EtHD] http://glodls.to/torrent.php?id=2886772 http://glodls.to/torrent.php?id=2886772 Fri, 20 Oct 2017 09:59:28 +0100 Movies EtHD - EtHD - Et High-Definition Movies

-----------------------------------------------------

[url=https://extraimage.net/image/TCei][img]https://extraimage.net/images/2017/10/20/1641b7b74638ade9f1d3099bd79314ad.jpg[/img][/url]

Leatherface.2017.1080p.WEB-DL.DD5.1.H264-FGT

http://www.imdb.com/title/tt2620590/

[Video Bitrate]:.............: 4955kb/s
[Duration]:.............: 1 h 27 min
[Video Codec]:.............: AVC
[Resolution]:.............: 1920x792 px
[Aspect Ratio]:.............: 2.40:1
[Audio Codec]:.............: AC-3
[Audio Bitrate]:.............: 384kb/s
[Audio Channels]:.............: 5.1ch
[Audio Language]:.............: English

Genre .......................: Horror | Thriller

[color=green][b]#EtHD -> To avoid fakes, ALWAYS check that the torrent was added by EtHD [/b][/color]



[color=green][b]To keep us going Support us by donating Bitcoin: 3MDamEmgKepqagtQe9eEdQ3NCrWEWjhoL5[/b][/color]

[b]Screens...[/b]
[url=https://extraimage.net/image/TCe1][img]https://extraimage.net/images/2017/10/20/e098710a632224601d1df2321a48bbd0.th.jpg[/img][/url]
[url=https://extraimage.net/image/TCeE][img]https://extraimage.net/images/2017/10/20/f66091070a146cfa63560114a861b834.th.jpg[/img][/url]
[url=https://extraimage.net/image/TCeO][img]https://extraimage.net/images/2017/10/20/5450418161861de5670852e14d73291f.th.jpg[/img][/url]
[url=https://extraimage.net/image/TCeS][img]https://extraimage.net/images/2017/10/20/454dd28484dadebed91d53d5151a4d53.th.jpg[/img][/url]
[url=https://extraimage.net/image/TCem][img]https://extraimage.net/images/2017/10/20/44ac433bda2005022e9b183afa62b2a8.th.jpg[/img][/url] ]]>
1922.2017.1080p.NF.WEB-DL.DD5.1.x264-NTG[EtHD] http://glodls.to/torrent.php?id=2886771 http://glodls.to/torrent.php?id=2886771 Fri, 20 Oct 2017 09:58:48 +0100 Movies EtHD - EtHD - Et High-Definition Movies

-----------------------------------------------------

[url=https://extraimage.net/image/TCen][img]https://extraimage.net/images/2017/10/20/11a9008854a64e7dd3d7c2105bdd5948.jpg[/img][/url]

1922.2017.1080p.NF.WEB-DL.DD5.1.x264-NTG

http://www.imdb.com/title/tt6214928/

[Video Bitrate]:.............: 4012kb/s
[Duration]:.............: 1 h 42 min
[Video Codec]:.............: AVC
[Resolution]:.............: 1920x1080 px
[Aspect Ratio]:.............: 16:9
[Audio Codec]:.............: AC-3
[Audio Bitrate]:.............: 384kb/s
[Audio Channels]:.............: 5.1ch
[Audio Language]:.............: English

Genre .......................: Crime | Drama | Horror | Mystery | Thriller

[color=green][b]#EtHD -> To avoid fakes, ALWAYS check that the torrent was added by EtHD [/b][/color]



[color=green][b]To keep us going Support us by donating Bitcoin: 3MDamEmgKepqagtQe9eEdQ3NCrWEWjhoL5[/b][/color]

[b]Screens...[/b]
[url=https://extraimage.net/image/TCZA][img]https://extraimage.net/images/2017/10/20/f8c2f6a71aa70d7a89e5d5ad810317c6.th.jpg[/img][/url]
[url=https://extraimage.net/image/TCZW][img]https://extraimage.net/images/2017/10/20/eae53ef3db392dfc814303a9919a2878.th.jpg[/img][/url]
[url=https://extraimage.net/image/TCZf][img]https://extraimage.net/images/2017/10/20/753042a6048087a93e3543227acef002.th.jpg[/img][/url]
[url=https://extraimage.net/image/TCe8][img]https://extraimage.net/images/2017/10/20/74df26cae901a42062cf20f75e1cda3a.th.jpg[/img][/url]
[url=https://extraimage.net/image/TCej][img]https://extraimage.net/images/2017/10/20/75c8be29e2018ccc29fdb6096e2a3971.th.jpg[/img][/url] ]]>
Bad.Day.for.the.Cut.2017.1080p.WEB-DL.DD5.1.H264-FGT[EtHD] http://glodls.to/torrent.php?id=2886770 http://glodls.to/torrent.php?id=2886770 Fri, 20 Oct 2017 09:57:41 +0100 Movies EtHD - EtHD - Et High-Definition Movies

-----------------------------------------------------

[url=https://extraimage.net/image/TCZx][img]https://extraimage.net/images/2017/10/20/c5ce5a65da646df575ea47b84e71ff8a.jpg[/img][/url]

Bad.Day.for.the.Cut.2017.1080p.WEB-DL.DD5.1.H264-FGT

http://www.imdb.com/title/tt5653514/

[Video Bitrate]:.............: 4916kb/s
[Duration]:.............: 1 h 39 min
[Video Codec]:.............: AVC
[Resolution]:.............: 1920x802 px
[Aspect Ratio]:.............: 2.40:1
[Audio Codec]:.............: AC-3
[Audio Bitrate]:.............: 384kb/s
[Audio Channels]:.............: 5.1ch
[Audio Language]:.............: English

Genre .......................: Thriller

[color=green][b]#EtHD -> To avoid fakes, ALWAYS check that the torrent was added by EtHD [/b][/color]



[color=green][b]To keep us going Support us by donating Bitcoin: 3MDamEmgKepqagtQe9eEdQ3NCrWEWjhoL5[/b][/color]

[b]Screens...[/b]
[url=https://extraimage.net/image/TCZG][img]https://extraimage.net/images/2017/10/20/74ea51798acff77c2db35c1e49e8e886.th.jpg[/img][/url]
[url=https://extraimage.net/image/TCZX][img]https://extraimage.net/images/2017/10/20/12f3318ebcc1f4e0cea0d237a4ce2571.th.jpg[/img][/url]
[url=https://extraimage.net/image/TCZg][img]https://extraimage.net/images/2017/10/20/910b87bb46582c70730ed5878daf4a71.th.jpg[/img][/url]
[url=https://extraimage.net/image/TCZ5][img]https://extraimage.net/images/2017/10/20/7c3be01388b05424c89cbf77822cf760.th.jpg[/img][/url]
[url=https://extraimage.net/image/TCZt][img]https://extraimage.net/images/2017/10/20/52117ba0f668abd6dec9c81edefa368a.th.jpg[/img][/url] ]]>
Nightworld.2017.1080p.WEB-DL.DD5.1.H264-FGT[EtHD] http://glodls.to/torrent.php?id=2886769 http://glodls.to/torrent.php?id=2886769 Fri, 20 Oct 2017 09:55:34 +0100 Movies EtHD - EtHD - Et High-Definition Movies

-----------------------------------------------------

[url=https://extraimage.net/image/TCZe][img]https://extraimage.net/images/2017/10/20/2e90a90e4fc1c09e1530ab2e08802510.jpg[/img][/url]

Nightworld.2017.1080p.WEB-DL.DD5.1.H264-FGT

http://www.imdb.com/title/tt5157052/

[Video Bitrate]:.............: 4957kb/s
[Duration]:.............: 1 h 31 min
[Video Codec]:.............: AVC
[Resolution]:.............: 1912x796 px
[Aspect Ratio]:.............: 2.40:1
[Audio Codec]:.............: AC-3
[Audio Bitrate]:.............: 384kb/s
[Audio Channels]:.............: 5.1ch
[Audio Language]:.............: English

Genre .......................: Horror | Thriller

[color=green][b]#EtHD -> To avoid fakes, ALWAYS check that the torrent was added by EtHD [/b][/color]



[color=green][b]To keep us going Support us by donating Bitcoin: 3MDamEmgKepqagtQe9eEdQ3NCrWEWjhoL5[/b][/color]

[b]Screens...[/b]
[url=https://extraimage.net/image/TCZb][img]https://extraimage.net/images/2017/10/20/f84cd81084063d7f5cc33a1db11ee969.th.jpg[/img][/url]
[url=https://extraimage.net/image/TCZ3][img]https://extraimage.net/images/2017/10/20/9901a13f74cf2d241e594940db550bbd.th.jpg[/img][/url]
[url=https://extraimage.net/image/TCZ9][img]https://extraimage.net/images/2017/10/20/4df8923488bafa087e34e3986be654db.th.jpg[/img][/url]
[url=https://extraimage.net/image/TCZM][img]https://extraimage.net/images/2017/10/20/774f0f6c5e963d7a91358732f443bb2d.th.jpg[/img][/url]
[url=https://extraimage.net/image/TCZZ][img]https://extraimage.net/images/2017/10/20/a40d97e8016d5e2f5c59de217eeb37da.th.jpg[/img][/url] ]]>
Amateurs - Czech Solarium 269 http://glodls.to/torrent.php?id=2886768 http://glodls.to/torrent.php?id=2886768 Fri, 20 Oct 2017 09:54:22 +0100 Adult XXX
[b]Date[/b]: 2017
[b]Cast[/b]: Amateurs
[b]Genre[/b]: Czech, Solarium, Milf
[b]Name[/b]: Czech Solarium 269


[b]Video[/b]: AVC, 1920x1080, 25.000 FPS, 4000 kb/s
[b]Audio[/b]: AAC LC, 48.0 kHz, 2 channels, 127 kb/s
[b]Format[/b]: mp4
[b]Duration[/b]: 00:08:21
]]>
Wheelman.2017.1080p.NF.WEB-DL.DD5.1.x264-NTG[EtHD] http://glodls.to/torrent.php?id=2886767 http://glodls.to/torrent.php?id=2886767 Fri, 20 Oct 2017 09:53:19 +0100 Movies EtHD - EtHD - Et High-Definition Movies

-----------------------------------------------------

[url=https://extraimage.net/image/TCZl][img]https://extraimage.net/images/2017/10/20/e7126ace0feb50de1bffaa32c243097d.jpg[/img][/url]

Wheelman.2017.1080p.NF.WEB-DL.DD5.1.x264-NTG

http://www.imdb.com/title/tt5723286/

[Video Bitrate]:.............: 2744kb/s
[Duration]:.............: 1 h 22 min
[Video Codec]:.............: AVC
[Resolution]:.............: 1920x1080 px
[Aspect Ratio]:.............: 16:9
[Audio Codec]:.............: AC-3
[Audio Bitrate]:.............: 384kb/s
[Audio Channels]:.............: 5.1ch
[Audio Language]:.............: English

Genre .......................: Action | Thriller

[color=green][b]#EtHD -> To avoid fakes, ALWAYS check that the torrent was added by EtHD [/b][/color]



[color=green][b]To keep us going Support us by donating Bitcoin: 3MDamEmgKepqagtQe9eEdQ3NCrWEWjhoL5[/b][/color]

[b]Screens...[/b]
[url=https://extraimage.net/image/TCZE][img]https://extraimage.net/images/2017/10/20/ec4c670234e324290dc963a3cd6d5be6.th.jpg[/img][/url]
[url=https://extraimage.net/image/TCZO][img]https://extraimage.net/images/2017/10/20/3b62de6345ffc3278942f20756b81702.th.jpg[/img][/url]
[url=https://extraimage.net/image/TCZS][img]https://extraimage.net/images/2017/10/20/df53808c9805c53800e3fccf73d38a3f.th.jpg[/img][/url]
[url=https://extraimage.net/image/TCZq][img]https://extraimage.net/images/2017/10/20/29a8ad71c3224115d92da95f9778dd75.th.jpg[/img][/url]
[url=https://extraimage.net/image/TCZi][img]https://extraimage.net/images/2017/10/20/3f2b1d27198d2423c0f9f2685a8248f1.th.jpg[/img][/url] ]]>
Never.Here.2017.1080p.WEB-DL.DD5.1.H264-FGT[EtHD] http://glodls.to/torrent.php?id=2886766 http://glodls.to/torrent.php?id=2886766 Fri, 20 Oct 2017 09:51:30 +0100 Movies EtHD - EtHD - Et High-Definition Movies

-----------------------------------------------------

[url=https://extraimage.net/image/TCZN][img]https://extraimage.net/images/2017/10/20/b532aefc6347e2b8459bd13175273602.jpg[/img][/url]

Never.Here.2017.1080p.WEB-DL.DD5.1.H264-FGT

http://www.imdb.com/title/tt5742374/

[Video Bitrate]:.............: 4945kb/s
[Duration]:.............: 1 h 50 min
[Video Codec]:.............: AVC
[Resolution]:.............: 1904x792 px
[Aspect Ratio]:.............: 2.40:1
[Audio Codec]:.............: AC-3
[Audio Bitrate]:.............: 384kb/s
[Audio Channels]:.............: 5.1ch
[Audio Language]:.............: English

Genre .......................: Drama | Mystery | Thriller

[color=green][b]#EtHD -> To avoid fakes, ALWAYS check that the torrent was added by EtHD [/b][/color]



[color=green][b]To keep us going Support us by donating Bitcoin: 3MDamEmgKepqagtQe9eEdQ3NCrWEWjhoL5[/b][/color]

[b]Screens...[/b]
[url=https://extraimage.net/image/TCKV][img]https://extraimage.net/images/2017/10/20/fe7c34088b93d7ede139884b4a70444d.th.jpg[/img][/url]
[url=https://extraimage.net/image/TCKu][img]https://extraimage.net/images/2017/10/20/8e5fc8a8075a89abc9bebe94150c04e4.th.jpg[/img][/url]
[url=https://extraimage.net/image/TCKv][img]https://extraimage.net/images/2017/10/20/3a4d81f43745dc90c6aa5fb687fb59dc.th.jpg[/img][/url]
[url=https://extraimage.net/image/TCKA][img]https://extraimage.net/images/2017/10/20/f801f15e4839ecbabfb37799d3e91c25.th.jpg[/img][/url]
[url=https://extraimage.net/image/TCZ2][img]https://extraimage.net/images/2017/10/20/3f05a4b7dd3703fd3c93261fb945de68.th.jpg[/img][/url] ]]>
VelvetEcstasy 17 10 20 Brandy Birthday Porn Fantasy XXX 480p MP4-TK http://glodls.to/torrent.php?id=2886765 http://glodls.to/torrent.php?id=2886765 Fri, 20 Oct 2017 09:40:49 +0100 Adult XXX
[b]Screenshots:[/b]

[url]http://imagerar.com/imgs-59e9c4a37d4d1.html[/url]

[url]http://imagerar.com/imgs-59e9c4a377116.html[/url]

[url]http://imagerar.com/imgs-59e9c4a35c79b.html[/url]

[url]http://imagerar.com/imgs-59e9c4a21d745.html[/url]

File Size : 243 MiB
Duration : 29mn 22s
Video : h264, yuv420p, 854x480p, 1024 Kbps
Audio : aac , 2 ch, stereo , 128 Kbps ]]>
Bad Day for the Cut 2017 720p WEB-DL DD 5 1 x264 ESub http://glodls.to/torrent.php?id=2886764 http://glodls.to/torrent.php?id=2886764 Fri, 20 Oct 2017 09:40:29 +0100 Movies
General
Format : Matroska
Format version : Version 4 / Version 2
File size : 1.00 GiB
Duration : 1 h 39 min
Overall bit rate : 1 448 kb/s

Video
ID : 1
Format : AVC
Format/Info : Advanced Video Codec
Format profile : High@L3.1
Format settings : CABAC / 4 Ref Frames
Format settings, CABAC : Yes
Format settings, RefFrames : 4 frames
Codec ID : V_MPEG4/ISO/AVC
Duration : 1 h 39 min
Bit rate : 1 200 kb/s
Width : 1 280 pixels
Height : 534 pixels
Display aspect ratio : 2.40:1
Frame rate mode : Constant
Frame rate : 24.000 FPS
Color space : YUV
Chroma subsampling : 4:2:0
Bit depth : 8 bits
Scan type : Progressive
Bits/(Pixel*Frame) : 0.073
Stream size : 844 MiB (82%)
Writing library : x264 core 148 r2643 5c65704
Language : English
Default : Yes
Forced : No

Audio
ID : 2
Format : AC-3
Format/Info : Audio Coding 3
Format settings, Endianness : Big
Codec ID : A_AC3
Duration : 1 h 39 min
Bit rate mode : Constant
Bit rate : 256 kb/s
Channel(s) : 6 channels
Channel positions : Front: L C R, Side: L R, LFE
Sampling rate : 48.0 kHz
Frame rate : 31.250 FPS (1536 SPF)
Bit depth : 16 bits
Compression mode : Lossy
Stream size : 181 MiB (18%)
Service kind : Complete Main
Default : Yes
Forced : No

Text
ID : 3
Format : UTF-8
Codec ID : S_TEXT/UTF8
Codec ID/Info : UTF-8 Plain Text
Duration : 1 h 33 min
Bit rate : 37 b/s
Count of elements : 734
Stream size : 25.6 KiB (0%)
Language : English
Default : Yes
Forced : No

Menu
00:00:00.000 : en:1
00:14:29.250 : en:2
00:26:31.291 : en:3
00:40:06.041 : en:4
00:54:22.082 : en:5
01:07:28.082 : en:6
01:19:47.540 : en:7
01:34:30.123 : en:8


[img]http://ssec.life/i/images/2017/10/20/2017-10-20_14h53_32.jpg[/img]
[img]http://ssec.life/i/images/2017/10/20/2017-10-20_14h53_56.jpg[/img]
[img]http://ssec.life/i/images/2017/10/20/2017-10-20_14h54_05.jpg[/img]
[img]http://ssec.life/i/images/2017/10/20/2017-10-20_14h55_08.jpg[/img]
[img]http://ssec.life/i/images/2017/10/20/2017-10-20_14h55_55.jpg[/img]
]]>
Subil Arch, Jake Jace - When the dream becomes reality http://glodls.to/torrent.php?id=2886763 http://glodls.to/torrent.php?id=2886763 Fri, 20 Oct 2017 09:39:20 +0100 Adult XXX
[b]Date[/b]: 2017
[b]Cast[/b]: Subil Arch, Jake Jace
[b]Genre[/b]: All sex, Milf
[b]Name[/b]: When the dream becomes reality


[b]Video[/b]: AVC, 720x406, 24.000 FPS, 1500 kb/s
[b]Audio[/b]: AAC LC, 48.0 kHz, 2 channels, 118 kb/s
[b]Format[/b]: mp4
[b]Duration[/b]: 00:38:17
]]>
Never.Here.2017.HDRip.XviD.AC3-EVO http://glodls.to/torrent.php?id=2886762 http://glodls.to/torrent.php?id=2886762 Fri, 20 Oct 2017 09:38:05 +0100 Movies
[b]ImDb: [URL]http://www.imdb.com/title/tt5742374[/URL][/b]

[url=https://www.sparrowpics.com/image/kbFon][img]https://www.sparrowpics.com/images/2017/07/04/kbFon.png[/img][/url]

[b]Complete name : Never.Here.2017.HDRip.XviD.AC3-EVO.avi
Format : AVI
Format/Info : Audio Video Interleave
Format profile : OpenDML
Format settings : rec
File size : 1.32 GiB
Duration : 1 h 50 min
Overall bit rate : 1 711 kb/s
Writing application : AVI-Mux GUI 1.17.8.3, Feb 16 201019:42:50

Video
ID : 0
Format : MPEG-4 Visual
Format profile : Advanced Simple@L5
Format settings, BVOP : 2
Format settings, QPel : No
Format settings, GMC : No warppoints
Format settings, Matrix : Default (H.263)
Muxing mode : Packed bitstream
Codec ID : XVID
Codec ID/Hint : XviD
Duration : 1 h 50 min
Bit rate : 1 321 kb/s
Width : 720 pixels
Height : 304 pixels
Display aspect ratio : 2.35:1
Frame rate : 23.976 (24000/1001) FPS
Color space : YUV
Chroma subsampling : 4:2:0
Bit depth : 8 bits
Scan type : Progressive
Compression mode : Lossy
Bits/(Pixel*Frame) : 0.252
Stream size : 1.02 GiB (77%)
Writing library : XviD 66

Audio
ID : 1
Format : AC-3
Format/Info : Audio Coding 3
Format settings, Endianness : Big
Codec ID : 2000
Duration : 1 h 50 min
Bit rate mode : Constant
Bit rate : 384 kb/s
Channel(s) : 6 channels
Channel positions : Front: L C R, Side: L R, LFE
Sampling rate : 48.0 kHz
Frame rate : 31.250 FPS (1536 spf)
Bit depth : 16 bits
Compression mode : Lossy
Stream size : 302 MiB (22%)
Alignment : Aligned on interleaves
Interleave, duration : 64 ms (1.53 video frames)
Interleave, preload duration : 192 ms
Service kind : Complete Main[/b]

[url=https://www.sparrowpics.com/image/kbJ5y][img]https://www.sparrowpics.com/images/2017/07/04/kbJ5y.png[/img][/url]

[URL=https://www.sparrowpics.com/image/2jtKH][IMG]https://www.sparrowpics.com/images/2017/10/20/2jtKH.th.jpg[/IMG][/URL]

[URL=https://www.sparrowpics.com/image/2jHUT][b]Click To View Screenshot[/b][/URL]

[URL=https://www.sparrowpics.com/image/2jGpB][b]Click To View Screenshot[/b][/URL]

[URL=https://www.sparrowpics.com/image/2jcce][b]Click To View Screenshot[/b][/URL][/center] ]]>
Never.Here.2017.HDRip.XviD.AC3-EVO http://glodls.to/torrent.php?id=2886761 http://glodls.to/torrent.php?id=2886761 Fri, 20 Oct 2017 09:36:16 +0100 Movies [color=red][b]
Never.Here.2017.HDRip.XviD.AC3-EVO

[/b][/color]


IMDb: http://www.imdb.com/title/tt2039412/





[url=https://boltimg.com/image/t52z][img]https://boltimg.com/images/t52z.png[/img][/url]



[color=green][b]
General

(Duration): 1h 50mn
(FileSize): 1.32 GiB



Audio

(Format): AC-3 - Audio Coding 3
(Codec): AC3



Video

(Format): MPEG-4 Visual -
(Media): video/MP4V-ES
(Format): XviD
(Resolution): 720x304 px
(AspectRatio): 2.35:1
(FrameRate): 23.976 fps




[/b][/color]


[url=https://boltimg.com/image/tzTE][img]https://boltimg.com/images/tzTE.png[/img][/url]



[color=purple][b](Click to enlarge)[/b][/color]

[url=https://boltimg.com/image/Rl6m3][img]https://boltimg.com/images/Rl6m3.th.jpg[/img][/url] [url=https://boltimg.com/image/RlEDn][img]https://boltimg.com/images/RlEDn.th.jpg[/img][/url] [url=https://boltimg.com/image/RlIEA][img]https://boltimg.com/images/RlIEA.th.jpg[/img][/url] [url=https://boltimg.com/image/RlYMk][img]https://boltimg.com/images/RlYMk.th.jpg[/img][/url] [url=https://boltimg.com/image/Rlf8m][img]https://boltimg.com/images/Rlf8m.th.jpg[/img][/url]

[/center]
]]>
Superstore.S03E04.iNTERNAL.720p.WEB.x264-BAMBOOZLE http://glodls.to/torrent.php?id=2886760 http://glodls.to/torrent.php?id=2886760 Fri, 20 Oct 2017 09:35:36 +0100 TV
[url=https://www.sparrowpics.com/image/kbFon][img]https://www.sparrowpics.com/images/2017/07/04/kbFon.png[/img][/url]

[b]Complete name : superstore.s03e04.internal.720p.web.x264-bamboozle.mkv
Format : Matroska
Format version : Version 4 / Version 2
File size : 416 MiB
Duration : 21 min 41 s
Overall bit rate : 2 682 kb/s
Encoded date : UTC 2017-10-20 09:07:15
Writing application : mkvmerge v8.8.0 ('Wind at my back') 64bit
Writing library : libebml v1.3.3 + libmatroska v1.4.4

Video
ID : 1
Format : AVC
Format/Info : Advanced Video Codec
Format profile : Main@L3.1
Format settings, CABAC : Yes
Format settings, ReFrames : 1 frame
Format settings, GOP : M=1, N=48
Codec ID : V_MPEG4/ISO/AVC
Duration : 21 min 41 s
Bit rate : 2 560 kb/s
Width : 1 280 pixels
Height : 720 pixels
Display aspect ratio : 16:9
Frame rate mode : Variable
Frame rate : 23.976 FPS
Color space : YUV
Chroma subsampling : 4:2:0
Bit depth : 8 bits
Scan type : Progressive
Bits/(Pixel*Frame) : 0.116
Stream size : 401 MiB (96%)
Writing library : x264 core 120
Encoding settings : cabac=1 / ref=1 / deblock=1:0:0 / analyse=0x1:0x111 / me=hex / subme=6 / psy=1 / psy_rd=1.00:0.00 / mixed_ref=0 / me_range=16 / chroma_me=0 / trellis=1 / 8x8dct=0 / cqm=0 / deadzone=21,11 / fast_pskip=1 / chroma_qp_offset=-2 / threads=8 / sliced_threads=0 / nr=0 / decimate=1 / interlaced=0 / bluray_compat=0 / constrained_intra=0 / bframes=0 / weightp=2 / keyint=48 / keyint_min=25 / scenecut=0 / intra_refresh=0 / rc=abr / mbtree=0 / bitrate=2560 / ratetol=1.0 / qcomp=0.60 / qpmin=10 / qpmax=51 / qpstep=4 / ip_ratio=1.40 / aq=1:1.00
Default : Yes
Forced : No

Audio
ID : 2
Format : AAC
Format/Info : Advanced Audio Codec
Format profile : LC
Codec ID : A_AAC
Duration : 21 min 41 s
Bit rate : 96.0 kb/s
Channel(s) : 2 channels
Channel positions : Front: L R
Sampling rate : 44.1 kHz
Frame rate : 43.066 FPS (1024 spf)
Compression mode : Lossy
Stream size : 14.8 MiB (4%)
Default : Yes
Forced : No[/b]

[url=https://www.sparrowpics.com/image/kbJ5y][img]https://www.sparrowpics.com/images/2017/07/04/kbJ5y.png[/img][/url]

[URL=https://tv.sparrowpics.com/image/Du5pb][IMG]https://tv.sparrowpics.com/images/2017/10/20/Du5pb.th.jpg[/IMG][/URL]

[URL=https://tv.sparrowpics.com/image/DuE04][b]Click To View Screenshot[/b][/URL]

[URL=https://tv.sparrowpics.com/image/Dud3d][b]Click To View Screenshot[/b][/URL]

[URL=https://tv.sparrowpics.com/image/DuAts][b]Click To View Screenshot[/b][/URL][/center] ]]>
Scandal.US.S07E03.iNTERNAL.720p.WEB.x264-BAMBOOZLE http://glodls.to/torrent.php?id=2886759 http://glodls.to/torrent.php?id=2886759 Fri, 20 Oct 2017 09:34:20 +0100 TV
[url=https://www.sparrowpics.com/image/kbFon][img]https://www.sparrowpics.com/images/2017/07/04/kbFon.png[/img][/url]

[b]Complete name : scandal.us.s07e03.internal.720p.web.x264-bamboozle.mkv
Format : Matroska
Format version : Version 4 / Version 2
File size : 1.03 GiB
Duration : 43 min 3 s
Overall bit rate : 3 418 kb/s
Encoded date : UTC 2017-10-20 09:18:31
Writing application : mkvmerge v8.8.0 ('Wind at my back') 64bit
Writing library : libebml v1.3.3 + libmatroska v1.4.4

Video
ID : 1
Format : AVC
Format/Info : Advanced Video Codec
Format profile : High@L3.1
Format settings, CABAC : Yes
Format settings, ReFrames : 2 frames
Codec ID : V_MPEG4/ISO/AVC
Duration : 43 min 2 s
Bit rate : 3 360 kb/s
Width : 1 280 pixels
Height : 720 pixels
Display aspect ratio : 16:9
Frame rate mode : Constant
Frame rate : 23.976 (23976/1000) FPS
Original frame rate : 24.000 FPS
Color space : YUV
Chroma subsampling : 4:2:0
Bit depth : 8 bits
Scan type : Progressive
Bits/(Pixel*Frame) : 0.152
Stream size : 1 013 MiB (96%)
Writing library : x264 core 148 r2579M 73ae2d1
Encoding settings : cabac=1 / ref=2 / deblock=1:0:0 / analyse=0x3:0x113 / me=hex / subme=2 / psy=1 / psy_rd=1.00:0.00 / mixed_ref=0 / me_range=16 / chroma_me=1 / trellis=0 / 8x8dct=1 / cqm=0 / deadzone=21,11 / fast_pskip=1 / chroma_qp_offset=0 / threads=4 / lookahead_threads=1 / sliced_threads=0 / nr=250 / decimate=1 / interlaced=0 / bluray_compat=0 / stitchable=1 / constrained_intra=0 / bframes=0 / weightp=1 / keyint=250 / keyint_min=24 / scenecut=40 / intra_refresh=0 / rc_lookahead=10 / rc=2pass / mbtree=1 / bitrate=3360 / ratetol=1.0 / qcomp=0.60 / qpmin=5 / qpmax=69 / qpstep=4 / cplxblur=20.0 / qblur=0.5 / ip_ratio=1.40 / aq=1:1.00
Default : Yes
Forced : No

Audio
ID : 2
Format : AAC
Format/Info : Advanced Audio Codec
Format profile : HE-AAC / LC
Codec ID : A_AAC
Duration : 43 min 3 s
Bit rate : 127 kb/s
Channel(s) : 2 channels
Channel positions : Front: L R
Sampling rate : 48.0 kHz / 24.0 kHz
Frame rate : 23.438 FPS (1024 spf)
Compression mode : Lossy
Delay relative to video : -41 ms
Stream size : 39.0 MiB (4%)
Default : Yes
Forced : No[/b]

[url=https://www.sparrowpics.com/image/kbJ5y][img]https://www.sparrowpics.com/images/2017/07/04/kbJ5y.png[/img][/url]

[URL=https://tv.sparrowpics.com/image/DufCf][IMG]https://tv.sparrowpics.com/images/2017/10/20/DufCf.th.jpg[/IMG][/URL]

[URL=https://tv.sparrowpics.com/image/Dukir][b]Click To View Screenshot[/b][/URL]

[URL=https://tv.sparrowpics.com/image/DuvFe][b]Click To View Screenshot[/b][/URL]

[URL=https://tv.sparrowpics.com/image/Du0VB][b]Click To View Screenshot[/b][/URL][/center] ]]>
How.to.Get.Away.with.Murder.S04E04.iNTERNAL.720p.WEB.x264-BAMBOOZLE http://glodls.to/torrent.php?id=2886758 http://glodls.to/torrent.php?id=2886758 Fri, 20 Oct 2017 09:34:15 +0100 TV
[url=https://www.sparrowpics.com/image/kbFon][img]https://www.sparrowpics.com/images/2017/07/04/kbFon.png[/img][/url]

[b]Complete name : how.to.get.away.with.murder.s04e04.internal.720p.web.x264-bamboozle.mkv
Format : Matroska
Format version : Version 4 / Version 2
File size : 1.03 GiB
Duration : 43 min 3 s
Overall bit rate : 3 415 kb/s
Encoded date : UTC 2017-10-20 09:17:32
Writing application : mkvmerge v8.8.0 ('Wind at my back') 64bit
Writing library : libebml v1.3.3 + libmatroska v1.4.4

Video
ID : 1
Format : AVC
Format/Info : Advanced Video Codec
Format profile : High@L3.1
Format settings, CABAC : Yes
Format settings, ReFrames : 2 frames
Codec ID : V_MPEG4/ISO/AVC
Duration : 43 min 3 s
Bit rate : 3 360 kb/s
Width : 1 280 pixels
Height : 720 pixels
Display aspect ratio : 16:9
Frame rate mode : Constant
Frame rate : 23.976 (23976/1000) FPS
Original frame rate : 24.000 FPS
Color space : YUV
Chroma subsampling : 4:2:0
Bit depth : 8 bits
Scan type : Progressive
Bits/(Pixel*Frame) : 0.152
Stream size : 1 012 MiB (96%)
Writing library : x264 core 148 r2579M 73ae2d1
Encoding settings : cabac=1 / ref=2 / deblock=1:0:0 / analyse=0x3:0x113 / me=hex / subme=2 / psy=1 / psy_rd=1.00:0.00 / mixed_ref=0 / me_range=16 / chroma_me=1 / trellis=0 / 8x8dct=1 / cqm=0 / deadzone=21,11 / fast_pskip=1 / chroma_qp_offset=0 / threads=4 / lookahead_threads=1 / sliced_threads=0 / nr=250 / decimate=1 / interlaced=0 / bluray_compat=0 / stitchable=1 / constrained_intra=0 / bframes=0 / weightp=1 / keyint=250 / keyint_min=24 / scenecut=40 / intra_refresh=0 / rc_lookahead=10 / rc=2pass / mbtree=1 / bitrate=3360 / ratetol=1.0 / qcomp=0.60 / qpmin=5 / qpmax=69 / qpstep=4 / cplxblur=20.0 / qblur=0.5 / ip_ratio=1.40 / aq=1:1.00
Default : Yes
Forced : No

Audio
ID : 2
Format : AAC
Format/Info : Advanced Audio Codec
Format profile : HE-AAC / LC
Codec ID : A_AAC
Duration : 43 min 3 s
Bit rate : 127 kb/s
Channel(s) : 2 channels
Channel positions : Front: L R
Sampling rate : 48.0 kHz / 24.0 kHz
Frame rate : 23.438 FPS (1024 spf)
Compression mode : Lossy
Delay relative to video : -41 ms
Stream size : 39.0 MiB (4%)
Default : Yes
Forced : No[/b]

[url=https://www.sparrowpics.com/image/kbJ5y][img]https://www.sparrowpics.com/images/2017/07/04/kbJ5y.png[/img][/url]

[URL=https://tv.sparrowpics.com/image/DubE5][IMG]https://tv.sparrowpics.com/images/2017/10/20/DubE5.th.jpg[/IMG][/URL]

[URL=https://tv.sparrowpics.com/image/DumKw][b]Click To View Screenshot[/b][/URL]

[URL=https://tv.sparrowpics.com/image/DunpH][b]Click To View Screenshot[/b][/URL]

[URL=https://tv.sparrowpics.com/image/DuBv0][b]Click To View Screenshot[/b][/URL][/center] ]]>
Nightworld.2017.HDRip.XviD.AC3-EVO http://glodls.to/torrent.php?id=2886757 http://glodls.to/torrent.php?id=2886757 Fri, 20 Oct 2017 09:30:53 +0100 Movies
[b]ImDb: [URL]http://www.imdb.com/title/tt5157052[/URL][/b]

[url=https://www.sparrowpics.com/image/kbFon][img]https://www.sparrowpics.com/images/2017/07/04/kbFon.png[/img][/url]

[b]Complete name : Nightworld.2017.HDRip.XviD.AC3-EVO.avi
Format : AVI
Format/Info : Audio Video Interleave
Format profile : OpenDML
Format settings : rec
File size : 1.33 GiB
Duration : 1 h 31 min
Overall bit rate : 2 095 kb/s
Writing application : AVI-Mux GUI 1.17.8.3, Feb 16 201019:42:50

Video
ID : 0
Format : MPEG-4 Visual
Format profile : Advanced Simple@L5
Format settings, BVOP : 2
Format settings, QPel : No
Format settings, GMC : No warppoints
Format settings, Matrix : Default (H.263)
Muxing mode : Packed bitstream
Codec ID : XVID
Codec ID/Hint : XviD
Duration : 1 h 31 min
Bit rate : 1 705 kb/s
Width : 720 pixels
Height : 304 pixels
Display aspect ratio : 2.35:1
Frame rate : 25.000 FPS
Color space : YUV
Chroma subsampling : 4:2:0
Bit depth : 8 bits
Scan type : Progressive
Compression mode : Lossy
Bits/(Pixel*Frame) : 0.312
Stream size : 1.09 GiB (81%)
Writing library : XviD 66

Audio
ID : 1
Format : AC-3
Format/Info : Audio Coding 3
Format settings, Endianness : Big
Codec ID : 2000
Duration : 1 h 31 min
Bit rate mode : Constant
Bit rate : 384 kb/s
Channel(s) : 6 channels
Channel positions : Front: L C R, Side: L R, LFE
Sampling rate : 48.0 kHz
Frame rate : 31.250 FPS (1536 spf)
Bit depth : 16 bits
Compression mode : Lossy
Stream size : 251 MiB (18%)
Alignment : Aligned on interleaves
Interleave, duration : 64 ms (1.60 video frames)
Interleave, preload duration : 192 ms
Service kind : Complete Main[/b]

[url=https://www.sparrowpics.com/image/kbJ5y][img]https://www.sparrowpics.com/images/2017/07/04/kbJ5y.png[/img][/url]

[URL=https://www.sparrowpics.com/image/2jbhK][IMG]https://www.sparrowpics.com/images/2017/10/20/2jbhK.th.jpg[/IMG][/URL]

[URL=https://www.sparrowpics.com/image/2j50X][b]Click To View Screenshot[/b][/URL]

[URL=https://www.sparrowpics.com/image/2jEeM][b]Click To View Screenshot[/b][/URL]

[URL=https://www.sparrowpics.com/image/2jNfV][b]Click To View Screenshot[/b][/URL][/center] ]]>
Nightworld.2017.HDRip.XviD.AC3-EVO http://glodls.to/torrent.php?id=2886756 http://glodls.to/torrent.php?id=2886756 Fri, 20 Oct 2017 09:30:50 +0100 Movies [color=red][b]
Nightworld.2017.HDRip.XviD.AC3-EVO

[/b][/color]


IMDb: http://www.imdb.com/title/tt5157052/





[url=https://boltimg.com/image/t52z][img]https://boltimg.com/images/t52z.png[/img][/url]



[color=green][b]
General

(Duration): 1h 31mn
(FileSize): 1.33 GiB



Audio

(Format): AC-3 - Audio Coding 3
(Codec): AC3



Video

(Format): MPEG-4 Visual -
(Media): video/MP4V-ES
(Format): XviD
(Resolution): 720x304 px
(AspectRatio): 2.35:1
(FrameRate): 25.000 fps




[/b][/color]


[url=https://boltimg.com/image/tzTE][img]https://boltimg.com/images/tzTE.png[/img][/url]



[color=purple][b](Click to enlarge)[/b][/color]

[url=https://boltimg.com/image/RJq2O][img]https://boltimg.com/images/RJq2O.th.jpg[/img][/url] [url=https://boltimg.com/image/RJNmS][img]https://boltimg.com/images/RJNmS.th.jpg[/img][/url] [url=https://boltimg.com/image/RJTDE][img]https://boltimg.com/images/RJTDE.th.jpg[/img][/url] [url=https://boltimg.com/image/RJ96z][img]https://boltimg.com/images/RJ96z.th.jpg[/img][/url] [url=https://boltimg.com/image/RJGMM][img]https://boltimg.com/images/RJGMM.th.jpg[/img][/url] [url=https://boltimg.com/image/RJv8Z][img]https://boltimg.com/images/RJv8Z.th.jpg[/img][/url]

[/center]
]]>
Great.News.S02E04.iNTERNAL.720p.WEB.x264-BAMBOOZLE http://glodls.to/torrent.php?id=2886755 http://glodls.to/torrent.php?id=2886755 Fri, 20 Oct 2017 09:29:39 +0100 TV
[url=https://www.sparrowpics.com/image/kbFon][img]https://www.sparrowpics.com/images/2017/07/04/kbFon.png[/img][/url]

[b]Complete name : great.news.s02e04.internal.720p.web.x264-bamboozle.mkv
Format : Matroska
Format version : Version 4 / Version 2
File size : 416 MiB
Duration : 21 min 47 s
Overall bit rate : 2 671 kb/s
Encoded date : UTC 2017-10-20 09:00:44
Writing application : mkvmerge v8.8.0 ('Wind at my back') 64bit
Writing library : libebml v1.3.3 + libmatroska v1.4.4

Video
ID : 1
Format : AVC
Format/Info : Advanced Video Codec
Format profile : Main@L3.1
Format settings, CABAC : Yes
Format settings, ReFrames : 1 frame
Format settings, GOP : M=1, N=48
Codec ID : V_MPEG4/ISO/AVC
Duration : 21 min 47 s
Bit rate : 2 560 kb/s
Width : 1 280 pixels
Height : 720 pixels
Display aspect ratio : 16:9
Frame rate mode : Variable
Frame rate : 23.976 FPS
Color space : YUV
Chroma subsampling : 4:2:0
Bit depth : 8 bits
Scan type : Progressive
Bits/(Pixel*Frame) : 0.116
Stream size : 401 MiB (96%)
Writing library : x264 core 120
Encoding settings : cabac=1 / ref=1 / deblock=1:0:0 / analyse=0x1:0x111 / me=hex / subme=6 / psy=1 / psy_rd=1.00:0.00 / mixed_ref=0 / me_range=16 / chroma_me=0 / trellis=1 / 8x8dct=0 / cqm=0 / deadzone=21,11 / fast_pskip=1 / chroma_qp_offset=-2 / threads=8 / sliced_threads=0 / nr=0 / decimate=1 / interlaced=0 / bluray_compat=0 / constrained_intra=0 / bframes=0 / weightp=2 / keyint=48 / keyint_min=25 / scenecut=0 / intra_refresh=0 / rc=abr / mbtree=0 / bitrate=2560 / ratetol=1.0 / qcomp=0.60 / qpmin=10 / qpmax=51 / qpstep=4 / ip_ratio=1.40 / aq=1:1.00
Default : Yes
Forced : No

Audio
ID : 2
Format : AAC
Format/Info : Advanced Audio Codec
Format profile : LC
Codec ID : A_AAC
Duration : 21 min 47 s
Bit rate : 96.0 kb/s
Channel(s) : 2 channels
Channel positions : Front: L R
Sampling rate : 44.1 kHz
Frame rate : 43.066 FPS (1024 spf)
Compression mode : Lossy
Stream size : 14.9 MiB (4%)
Default : Yes
Forced : No[/b]

[url=https://www.sparrowpics.com/image/kbJ5y][img]https://www.sparrowpics.com/images/2017/07/04/kbJ5y.png[/img][/url]

[URL=https://tv.sparrowpics.com/image/DuUMi][IMG]https://tv.sparrowpics.com/images/2017/10/20/DuUMi.th.jpg[/IMG][/URL]

[URL=https://tv.sparrowpics.com/image/Duwrm][b]Click To View Screenshot[/b][/URL]

[URL=https://tv.sparrowpics.com/image/DuLCF][b]Click To View Screenshot[/b][/URL]

[URL=https://tv.sparrowpics.com/image/DusZA][b]Click To View Screenshot[/b][/URL][/center] ]]>
Delicious Food Wallpapers {Pack-43} http://glodls.to/torrent.php?id=2886754 http://glodls.to/torrent.php?id=2886754 Fri, 20 Oct 2017 09:29:20 +0100 Pictures
[b][url=http://4kw.in/Food/Sushi-Fish-Seafood-8K-Wallpaper.html]PREVIEW 1[/url][/b]

[b][url=http://4kw.in/Food/Grapes-8K-Wallpaper.html]PREVIEW 2[/url][/b]

[b][url=http://4kw.in/Wallpapers/Close-Up-Of-Mushroom-Growing-In-Forest.html]PREVIEW 3[/url][/b]

[b][url=http://4kw.in/Wallpapers/Glasses-red-grapes-wine-barrel-bottle-4k.html]PREVIEW 4[/url][/b]
[/size] ]]>
BrownBunnies 17 10 20 Daya Knight XXX 480p MP4-TK http://glodls.to/torrent.php?id=2886753 http://glodls.to/torrent.php?id=2886753 Fri, 20 Oct 2017 09:28:36 +0100 Adult XXX
[b]Screenshots:[/b]

[url]http://imagerar.com/imgs-59e9c1c64d5ab.html[/url]

[url]http://imagerar.com/imgs-59e9c1c646765.html[/url]

[url]http://imagerar.com/imgs-59e9c1c63d92a.html[/url]

[url]http://imagerar.com/imgs-59e9c1c49736b.html[/url]

File Size : 269 MiB
Duration : 32mn 32s
Video : h264, yuv420p, 854x480p, 1024 Kbps
Audio : aac , 2 ch, stereo , 128 Kbps ]]>
TonightsGirlfriend 17 10 20 Nina North XXX 480p MP4-TK http://glodls.to/torrent.php?id=2886752 http://glodls.to/torrent.php?id=2886752 Fri, 20 Oct 2017 09:26:30 +0100 Adult XXX
[b]Screenshots:[/b]

[url]http://imagerar.com/imgs-59e9c148aadc2.html[/url]

[url]http://imagerar.com/imgs-59e9c148a3a1b.html[/url]

[url]http://imagerar.com/imgs-59e9c14877f6e.html[/url]

[url]http://imagerar.com/imgs-59e9c1465704c.html[/url]

File Size : 367 MiB
Duration : 44mn 18s
Video : h264, yuv420p, 854x480p, 1024 Kbps
Audio : aac , 2 ch, stereo , 128 Kbps ]]>
Beautiful And Amazing Movie Wallpapers Set-2 http://glodls.to/torrent.php?id=2886751 http://glodls.to/torrent.php?id=2886751 Fri, 20 Oct 2017 09:25:41 +0100 Pictures
[b][url=http://4kw.in/Wallpapers/Pirates-of-the-caribbean-dead-men-tell-no-tales-8k-2017-7680x4320.html]PREVIEW 1[/url][/b]

[b][url=http://4kw.in/Wallpapers/Rough-night-movie-3840x2160.html]PREVIEW 2[/url][/b]

[b][url=http://4kw.in/Wallpapers/Wonder-woman-hippolyta-general-antiope-3840x2160.html]PREVIEW 3[/url][/b]

[b][url=http://4kw.in/Wallpapers/War-for-the-planet-of-the-apes-2017-movie-3840x2160.html]PREVIEW 4[/url][/b][/size] ]]>
Your Unique Self - The Radical Path to Personal Enlightenment http://glodls.to/torrent.php?id=2886750 http://glodls.to/torrent.php?id=2886750 Fri, 20 Oct 2017 09:24:16 +0100 Books
[b][url=http://4kw.in/9415.html]PREVIEW 1[/url][/b]

[b][url=http://4kw.in/9416.html]PREVIEW 2[/url][/b]

[b][url=http://4kw.in/9417.html]PREVIEW 3[/url][/b]

[b][url=http://4kw.in/9418.html]PREVIEW 4[/url][/b][/size] ]]>
Jimmy.Kimmel.2017.10.19.Tracy.Morgan.WEB.x264-TBS[ettv] http://glodls.to/torrent.php?id=2886749 http://glodls.to/torrent.php?id=2886749 Fri, 20 Oct 2017 09:23:24 +0100 TV Et TV Shows


Jimmy.Kimmel.2017.10.19.Tracy.Morgan.WEB.x264-TBS


[Format]: Matroska
[Duration]: 40mn 13s
[Resolution]: 992 x 558 pixels
[Display aspect ratio]: 16:9
[Frame rate mode]: Variable
[Original frame rate]: 30.000 fps


[color=green][b]#ettv -> To avoid fakes, ALWAYS check that the torrent was added by ettv[/b][/color]




[color=green][b]To keep us going Support us by donating Bitcoin: 3MDamEmgKepqagtQe9eEdQ3NCrWEWjhoL5[/b][/color]

[b]Screens...[/b]
[url=https://extraimage.net/image/TCKn][img]https://extraimage.net/images/2017/10/20/089d24a3d161cbc58a1eac2c5bead5ab.th.jpg[/img][/url] ]]>