Download Santana - Africa Speaks (2019) Flac torrent - GloDLS
Login
Username:
Password:
Remember Me:
[Signup]
[Recover Account]
Friends
Pirateiro
Friendly site

Free Courses Online
Friendly site

ETTV Community
Friendly site

KaranPC
Friendly site

P2PDL.com
Friendly site

Free Tutorials & Courses
Friendly site

Torrent Details For "Santana - Africa Speaks (2019) Flac"

Santana - Africa Speaks (2019) Flac

To download this torrent, you need a BitTorrent client: Vuze or BTGuard
Download this torrent
Download using Magnet Link

Health:
Seeds: 9
Leechers: 0
Completed:
Last Checked: 09-06-2019 10:00:52

Uploader Reputation points : 432
External: Torrent






Write a Review for the Uploader:   5   Say Thanks with one good review:
Share on Facebook


Details
Name:Santana - Africa Speaks (2019) Flac
Description:


Quality-Lossless
Release-2019
Duration-01:04:25
File Size-474.3 MB
Genre-Latin Rock
Cover Size-1400px

?----------------------------------------------------------------------------------------------
Analyzed: Africa Speaks /  Artist: Santana
----------------------------------------------------------------------------------------------
DR Peak RMS Duration Title [codec]
----------------------------------------------------------------------------------------------
DR4 -0.00 dB -6.96 dB 4:46 01 - Africa Speaks [flac]
DR3 -0.00 dB -4.97 dB 5:42 02 - Batonga [flac]
DR5 -0.00 dB -7.57 dB 5:58 03 - Oye Este Mi Canto [flac]
DR5 -0.00 dB -6.55 dB 6:12 04 - Yo Me Lo Merezco [flac]
DR3 -0.00 dB -8.76 dB 9:08 05 - Blue Skies [flac]
DR5 -0.00 dB -7.77 dB 5:58 06 - Paraísos Quemados [flac]
DR4 -0.00 dB -5.70 dB 4:29 07 - Breaking Down the Door [flac]
DR4 -0.00 dB -5.05 dB 5:54 08 - Los Invisibles [flac]
DR4 -0.00 dB -5.65 dB 4:46 09 - Luna Hechicera [flac]
DR5 -0.00 dB -7.46 dB 5:50 10 - Bembele [flac]
DR4 -0.00 dB -6.15 dB 5:36 11 - Candombe Cumbele [flac]
----------------------------------------------------------------------------------------------
Number of files:    11
Official DR value:  DR4

Sampling rate: 44100 Hz
Average bitrate: 986kbs
Bits per sample: 16 bit
YouTube Video:
Category:Music
Language:Aucune/N/D
Total Size:452.31 MB
Info Hash:81B79A4ED131F6C24123AE107F29986033F4F967
Added By:was95was Verified UploaderMusic Lover
Date Added:09-06-2019 09:54:32
Torrent Status:Torrent Verified


Ratings:Not Yet Rated (Log in to rate it)


Tracker:
udp://tracker.piratepublic.com:1337/announce

This Torrent also has backup trackers
URLSeedersLeechersCompleted
udp://tracker.piratepublic.com:1337/announce000
udp://tracker.pirateparty.gr:6969/announce100
udp://tracker.coppersurfer.tk:6969/announce100
udp://tracker.leechers-paradise.org:6969/announce100
udp://9.rarbg.com:2710/announce100
http://p4p.arenabg.com:1337/announce000
http://tracker.internetwarriors.net:1337/announce000
udp://tracker.opentrackr.org:1337/announce100
udp://exodus.desync.com:6969/announce100
udp://tracker.leechers-paradise.org:6969/announce100
udp://tracker.zer0day.to:1337/announce000
udp://eddie4.nl:6969/announce000
udp://open.demonii.si:1337/announce100
udp://tracker.iamhansen.xyz:2000/announce100


File List: 





Comments
No comments still posted