Download Scooby Doo The Sword And The Scoob (2021) 720p English HDRip x264 AAC By Full4Movies mkv torrent - GloDLS
Torrent Details For "Scooby Doo The Sword And The Scoob (2021) 720p English HDRip x264 AAC By Full4Movies ..."

Scooby Doo The Sword And The Scoob (2021) 720p English HDRip x264 AAC By Full4Movies ...

To download this torrent, you need a BitTorrent client: Vuze or BTGuard
Download this torrent
Download using Magnet Link

Health:
Seeds: 49
Leechers: 39
Completed: 36 
Last Checked: 23-02-2021 13:05:40

Uploader Reputation points : 5125
External: Torrent






Write a Review for the Uploader:   5   Say Thanks with one good review:
Share on Facebook


Details
Name:Scooby Doo The Sword And The Scoob (2021) 720p English HDRip x264 AAC By Full4Movies ...
Description:


Visit Us = https://www.full4movies.biz/



General
Complete name                  : Scooby Doo The Sword And The Scoob (2021) 720p English HDRip x264 AAC By Full4Movies.mkv
Format                         : Matroska
Format version                 : Version 4
File size                      : 1.23 GiB
Duration                       : 1 h 16 min
Overall bit rate               : 2 293 kb/s
Encoded date                   : UTC 2021-02-23 04:23:36
Writing application            : mkvmerge v6.8.0
Writing library                : libebml v1.3.0 + libmatroska v1.4.1

Video
ID                             : 1
Format                         : AVC
Format/Info                    : Advanced Video Codec
Format profile                 : [email protected]
Format settings                : CABAC / 4 Ref Frames
Format settings, CABAC         : Yes
Format settings, Reference fra : 4 frames
Codec ID                       : V_MPEG4/ISO/AVC
Duration                       : 1 h 16 min
Bit rate                       : 1 900 kb/s
Width                          : 720 pixels
Height                         : 406 pixels
Display aspect ratio           : 16:9
Frame rate mode                : Constant
Frame rate                     : 23.976 (24000/1001) FPS
Color space                    : YUV
Chroma subsampling             : 4:2:0
Bit depth                      : 8 bits
Scan type                      : Progressive
Bits/(Pixel*Frame)             : 0.271
Stream size                    : 1 020 MiB (81%)
Writing library                : x264 core 142 r2479 dd79a61
Default                        : Yes
Forced                         : No
Color range                    : Limited
Color primaries                : BT.601 NTSC
Transfer characteristics       : BT.709
Matrix coefficients            : BT.601

Audio
ID                             : 2
Format                         : AC-3
Format/Info                    : Audio Coding 3
Commercial name                : Dolby Digital
Codec ID                       : A_AC3
Duration                       : 1 h 16 min
Bit rate mode                  : Constant
Bit rate                       : 384 kb/s
Channel(s)                     : 6 channels
Channel layout                 : L R C LFE Ls Rs
Sampling rate                  : 48.0 kHz
Frame rate                     : 31.250 FPS (1536 SPF)
Compression mode               : Lossy
Delay relative to video        : -5 ms
Stream size                    : 210 MiB (17%)
Language                       : English
Service kind                   : Complete Main
Default                        : Yes
Forced                         : No

Screen Shoots
YouTube Video:
Category:Movies
Language:English  English
Total Size:1.23 GB
Info Hash:85E0263750CD662988745CB2FA3613F3C4A1276F
Added By:india4movie Verified Uploader
Date Added:2021-02-23 16:22:16
Torrent Status:Torrent Verified


Ratings:Not Yet Rated (Log in to rate it)


Tracker:
udp://tracker.opentrackr.org:1337/announce

This Torrent also has backup trackers
URLSeedersLeechersCompleted
udp://tracker.opentrackr.org:1337/announce000
udp://tracker.cyberia.is:6969/announce969
udp://9.rarbg.me:2980/announce000
udp://open.stealth.si:80/announce544
udp://exodus.desync.com:6969/announce442
udp://tracker.moeking.me:6969/announce443
udp://explodie.org:6969/announce220
udp://tracker.openbittorrent.com:80/announce120
udp://inferno.demonoid.is:3391/announce434
udp://tracker.torrent.eu.org:451/announce533
udp://ipv4.tracker.harry.lu:80/announce210
udp://tracker.uw0.xyz:6969/announce433
udp://tracker.coppersurfer.tk:6969/announce000
udp://exodus.desync.com:6969/announce442
udp://tracker.tiny-vps.com:6969/announce536


File List: 





Comments
No comments still posted