Login
Username:
Password:
Remember Me:
[Signup]
[Recover Account]
Friends
BTScene
Friendly site

Free Courses Online
Friendly site

Anime RG
Friendly site

KaranPC
Friendly site

P2PDL.com
Friendly site

Free Tutorials & Courses
Friendly site
Torrent Details For "Sollers Point (2018) 720p HDRip x264 AAC by Full4movies"

Sollers Point (2018) 720p HDRip x264 AAC by Full4movies

To download this torrent, you need a BitTorrent client: Vuze or BTGuard
Download this torrent
Download using Magnet Link

Direct Download - no client needed

Download Faster - High Speed Download

Health:
Seeds: 29
Leechers: 63
Completed:
Last Checked: 12-07-2018 18:53:28

Uploader Reputation points : 1440
External: Torrent




Write a Review for the Uploader:   0   Say Thanks with one good review:
Share on Facebook


Details
Name:Sollers Point (2018) 720p HDRip x264 AAC by Full4movies
Description:


General
Complete name                  : Sollers Point (2018) 720p HDRip x264 AAC by Full4movies.mkv
Format                         : Matroska
Format version                 : Version 4 / Version 2
File size                      : 1.00 GiB
Duration                       : 1 h 41 min
Overall bit rate               : 1 410 kb/s
Movie name                     : www.Full4movies.co
Encoded date                   : UTC 2018-07-11 15:34:38
Writing application            : mkvmerge v8.1.0 ('Psychedelic Postcard') 32bit
Writing library                : libebml v1.3.1 + libmatroska v1.4.2

Video
ID                             : 1
Format                         : AVC
Format/Info                    : Advanced Video Codec
Format profile                 : [email protected]
Format settings, CABAC         : Yes
Format settings, RefFrames     : 5 frames
Codec ID                       : V_MPEG4/ISO/AVC
Duration                       : 1 h 41 min
Bit rate                       : 1 280 kb/s
Width                          : 1 328 pixels
Height                         : 720 pixels
Display aspect ratio           : 1.85:1
Frame rate mode                : Constant
Frame rate                     : 23.976 (24000/1001) FPS
Color space                    : YUV
Chroma subsampling             : 4:2:0
Bit depth                      : 8 bits
Scan type                      : Progressive
Bits/(Pixel*Frame)             : 0.056
Stream size                    : 930 MiB (91%)
Writing library                : x264 core 148 r2643 5c65704
Language                       : English
Default                        : Yes
Forced                         : No

Audio
ID                             : 2
Format                         : AAC
Format/Info                    : Advanced Audio Codec
Format profile                 : LC
Codec ID                       : A_AAC
Duration                       : 1 h 41 min
Bit rate                       : 128 kb/s
Channel(s)                     : 2 channels
Channel positions              : Front: L R
Sampling rate                  : 48.0 kHz
Frame rate                     : 46.875 FPS (1024 SPF)
Compression mode               : Lossy
Delay relative to video        : -21 ms
Stream size                    : 93.4 MiB (9%)
Language                       : English
Default                        : Yes
Forced                         : No

Screen Shoots
YouTube Video:   
Category:Movies
Language:English  English
Total Size:1.00 GB
Info Hash:CB17C1A46322FACE12F4F47B57788ED91662FC8D
Added By:india4movie Verified Uploader
Date Added:12-07-2018 17:50:03
Torrent Status:Torrent Verified


Ratings:Not Yet Rated (Log in to rate it)


Tracker:
udp://tracker.coppersurfer.tk:6969/announce

This Torrent also has backup trackers
URLSeedersLeechersCompleted
udp://tracker.coppersurfer.tk:6969/announce280
udp://tracker.opentrackr.org:1337/announce340
udp://9.rarbg.me:2710/announce141
udp://tracker.torrent.eu.org:451/announce241
udp://open.stealth.si:80/announce332
udp://public.popcorn-tracker.org:6969/announce241
udp://p4p.arenabg.ch:1337/announce000
udp://tracker.zer0day.to:1337/announce000
udp://tracker.pirateparty.gr:6969/announce280
udp://tracker.leechers-paradise.org:6969/announce350
udp://tracker.tiny-vps.com:6969/announce250
udp://bt.firebit.co.uk:6969/announce350
udp://inferno.demonoid.pw:3397/announce240
udp://shadowshq.yi.org:6969/announce350
udp://9.rarbg.to:2780/announce141


File List: 





Comments
No comments still posted