Download Sophie Zelmani - Sing and Dance (2001) Flac-was95 torrent - GloDLS
Torrent Details For "Sophie Zelmani - Sing and Dance (2001) Flac-was95"

Sophie Zelmani - Sing and Dance (2001) Flac-was95

To download this torrent, you need a BitTorrent client: Vuze or BTGuard
Download this torrent
Download using Magnet Link

Health:
Seeds: 0
Leechers: 0
Completed:
Last Checked: 21-08-2019 12:53:49

Uploader Reputation points : 618
External: Torrent






Write a Review for the Uploader:   5   Say Thanks with one good review:
Share on Facebook


Details
Name:Sophie Zelmani - Sing and Dance (2001) Flac-was95
Description:


Quality-Lossless
Release-2001
Duration-00:40:51
File Size-254.2 MB
Genre-Pop
Cover Size-1400px

?----------------------------------------------------------------------------------------------
Analyzed: Sing and Dance /  Artist: Sophie Zelmani
----------------------------------------------------------------------------------------------
DR Peak RMS Duration Title [codec]
----------------------------------------------------------------------------------------------
DR10 -0.10 dB -14.31 dB 7:08 01 - Oh Dear [flac]
DR8 -0.10 dB -11.34 dB 2:35 02 - How's Your Heart Doing [flac]
DR8 -0.10 dB -10.21 dB 4:08 03 - Going Home [flac]
DR9 -0.10 dB -10.91 dB 3:46 04 - People [flac]
DR10 -0.10 dB -15.42 dB 3:25 05 - Once [flac]
DR8 -0.10 dB -9.69 dB 4:03 06 - Breeze [flac]
DR10 -0.10 dB -11.89 dB 3:23 07 - Sing and Dance [flac]
DR10 -0.10 dB -12.51 dB 2:53 08 - Yes I Am [flac]
DR10 -0.10 dB -13.15 dB 2:37 09 - Moonlight [flac]
DR11 -0.10 dB -13.25 dB 2:54 10 - Gone With the Madness [flac]
DR9 -0.10 dB -10.39 dB 3:54 11 - How It Feels [flac]
----------------------------------------------------------------------------------------------
Number of files:    11
Official DR value:  DR9

Sampling rate: 44100 Hz
Average bitrate: 827kbs
Bits per sample: 16 bit
YouTube Video:
Category:FLAC
Language:Aucune/N/D
Total Size:242.46 MB
Info Hash:3E998FDA7D159F051E157872BF4D0D2E7E5958D5
Added By:was95was Verified UploaderMusic Lover
Date Added:2019-08-21 19:53:45
Torrent Status:Torrent Verified


Ratings:Not Yet Rated (Log in to rate it)


Tracker:
udp://tracker.piratepublic.com:1337/announce

This Torrent also has backup trackers
URLSeedersLeechersCompleted
udp://tracker.piratepublic.com:1337/announce000
udp://tracker.pirateparty.gr:6969/announce000
udp://tracker.coppersurfer.tk:6969/announce000
udp://tracker.leechers-paradise.org:6969/announce000
udp://9.rarbg.com:2710/announce000
http://p4p.arenabg.com:1337/announce000
http://explodie.org:6969/announce000
udp://tracker.opentrackr.org:1337/announce000
udp://exodus.desync.com:6969/announce000
udp://tracker.leechers-paradise.org:6969/announce000
udp://tracker.zer0day.to:1337/announce000
udp://open.demonii.si:1337/announce000
udp://exodus.desync.com:6969/announce000
udp://tracker.iamhansen.xyz:2000/announce000


File List: 





Comments
No comments still posted