Login
Username:
Password:
Remember Me:
[Signup]
[Recover Account]
Friends
BTScene
Friendly site

Free Courses Online
Friendly site

Anime RG
Friendly site

KaranPC
Friendly site

P2PDL.com
Friendly site

Free Tutorials & Courses
Friendly site
Torrent Details For "Superfly (2018) HDCAMRip x264 AAC by Full4movies"

Superfly (2018) HDCAMRip x264 AAC by Full4movies

To download this torrent, you need a BitTorrent client: Vuze or BTGuard
Download this torrent
Download using Magnet Link

Direct Download - no client needed

Download Faster - High Speed Download

Health:
Seeds: 148
Leechers: 22
Completed: 1,478 
Last Checked: 14-07-2018 07:37:10

Uploader Reputation points : 1424
External: Torrent




Write a Review for the Uploader:   0   Say Thanks with one good review:
Share on Facebook


Details
Name:Superfly (2018) HDCAMRip x264 AAC by Full4movies
Description:


General
Complete name                  : Superfly (2018) HDCAMRip x264 AAC by Full4movies.mkv
Format                         : Matroska
Format version                 : Version 4 / Version 2
File size                      : 462 MiB
Duration                       : 1 h 51 min
Overall bit rate               : 582 kb/s
Movie name                     : www.Full4movies.co
Encoded date                   : UTC 2018-07-12 18:13:04
Writing application            : mkvmerge v8.1.0 ('Psychedelic Postcard') 32bit
Writing library                : libebml v1.3.1 + libmatroska v1.4.2

Video
ID                             : 1
Format                         : AVC
Format/Info                    : Advanced Video Codec
Format profile                 : [email protected]
Format settings, CABAC         : Yes
Format settings, RefFrames     : 5 frames
Codec ID                       : V_MPEG4/ISO/AVC
Duration                       : 1 h 51 min
Bit rate                       : 512 kb/s
Width                          : 720 pixels
Height                         : 304 pixels
Display aspect ratio           : 2.35:1
Frame rate mode                : Constant
Frame rate                     : 29.970 FPS
Color space                    : YUV
Chroma subsampling             : 4:2:0
Bit depth                      : 8 bits
Scan type                      : Progressive
Bits/(Pixel*Frame)             : 0.078
Stream size                    : 409 MiB (89%)
Writing library                : x264 core 148 r2643 5c65704
Language                       : English
Default                        : Yes
Forced                         : No

Audio
ID                             : 2
Format                         : AAC
Format/Info                    : Advanced Audio Codec
Format profile                 : LC
Codec ID                       : A_AAC
Duration                       : 1 h 51 min
Bit rate                       : 64.2 kb/s
Channel(s)                     : 2 channels
Channel positions              : Front: L R
Sampling rate                  : 48.0 kHz
Frame rate                     : 46.875 FPS (1024 SPF)
Compression mode               : Lossy
Stream size                    : 51.0 MiB (11%)
Language                       : English
Default                        : Yes
Forced                         : No

Screen Shoots
YouTube Video:   
Category:Movies
Language:English  English
Total Size:462.01 MB
Info Hash:694E61EFDDFC50BD91387E4A4243581060270875
Added By:india4movie Verified Uploader
Date Added:12-07-2018 19:59:41
Torrent Status:Torrent Verified


Ratings:Not Yet Rated (Log in to rate it)


Tracker:
udp://tracker.coppersurfer.tk:6969/announce

This Torrent also has backup trackers
URLSeedersLeechersCompleted
udp://tracker.coppersurfer.tk:6969/announce183210
udp://tracker.opentrackr.org:1337/announce284294
udp://9.rarbg.me:2710/announce6064
udp://tracker.torrent.eu.org:451/announce3146
udp://open.stealth.si:80/announce6231
udp://public.popcorn-tracker.org:6969/announce7236
udp://p4p.arenabg.ch:1337/announce000
udp://tracker.zer0day.to:1337/announce000
udp://tracker.pirateparty.gr:6969/announce183210
udp://tracker.leechers-paradise.org:6969/announce151148
udp://tracker.tiny-vps.com:6969/announce6244
udp://bt.firebit.co.uk:6969/announce151148
udp://inferno.demonoid.pw:3397/announce5235
udp://shadowshq.yi.org:6969/announce151148
udp://9.rarbg.to:2780/announce6064


File List: 





Comments
No comments still posted