Login
Username:
Password:
Remember Me:
[Signup]
[Recover Account]
Friends
BTScene
Friendly site

Free Courses Online
Friendly site

Anime RG
Friendly site

KaranPC
Friendly site

P2PDL.com
Friendly site

Free Tutorials & Courses
Friendly site
Torrent Details For "The Adventurers 2017 BDRip x264 AC3-WAR (BG, ENG, RO, PL SUB)"

The Adventurers 2017 BDRip x264 AC3-WAR (BG, ENG, RO, PL SUB)

To download this torrent, you need a BitTorrent client: Vuze or BTGuard
Download this torrent
Download using Magnet Link

Direct Download - no client needed

Download Faster - High Speed Download

Health:
Seeds: 5
Leechers: 0
Completed: 842 
Last Checked: 20-06-2018 11:27:31

Uploader Reputation points : 553
External: Torrent




Write a Review for the Uploader:   0   Say Thanks with one good review:
Share on Facebook


Details
Name:The Adventurers 2017 BDRip x264 AC3-WAR (BG, ENG, RO, PL SUB)
Description:






Genre: Action, Adventure, Crime
Country: China, Hong Kong, Czech Republic
Year: 2017
Subtitles: Bulgarian, English, Romanian, Polish
Runtime: 108 min.
Director: Stephen Fung
Cast: Jean Reno, Qi Shu, Andy Lau, Jingchu Zhang, Eric Tsang, Tony Yo-ning Yang and others
Plot: The world's top thieves join forces to pull off the heist of a lifetime. But when they find themselves pursued across Europe by a legendary French detective, they'll have to take their game to the next level.

Quote:

General
Complete name                  : The.Adventurers.2017.BDRip.x264.AC3-WAR\wtaders.mkv
Format                         : Matroska
Format version                 : Version 4 / Version 2
File size                      : 1.22 GiB
Duration                       : 1h 47mn
Overall bit rate               : 1 636 Kbps
Encoded date                   : UTC 2018-01-12 16:28:38
Writing application            : mkvmerge v9.9.0 ('Pick Up') 32bit
Writing library                : libebml v1.3.4 + libmatroska v1.4.5

Video
ID                             : 1
Format                         : AVC
Format/Info                    : Advanced Video Codec
Format profile                 : [email protected]
Format settings, CABAC         : Yes
Format settings, ReFrames      : 8 frames
Codec ID                       : V_MPEG4/ISO/AVC
Duration                       : 1h 47mn
Bit rate                       : 1 250 Kbps
Width                          : 720 pixels
Height                         : 302 pixels
Display aspect ratio           : 2.40:1
Frame rate mode                : Constant
Frame rate                     : 24.000 fps
Color space                    : YUV
Chroma subsampling             : 4:2:0
Bit depth                      : 8 bits
Scan type                      : Progressive
Bits/(Pixel*Frame)             : 0.239
Stream size                    : 957 MiB (76%)
Writing library                : x264 core 152 r2851 ba24899
Encoding settings              : cabac=1 / ref=8 / deblock=1:0:0 / analyse=0x3:0x133 / me=umh / subme=9 / psy=1 / psy_rd=1.00:0.00 / mixed_ref=1 / me_range=24 / chroma_me=1 / trellis=2 / 8x8dct=1 / cqm=0 / deadzone=21,11 / fast_pskip=0 / chroma_qp_offset=-2 / threads=6 / lookahead_threads=1 / sliced_threads=0 / nr=0 / decimate=1 / interlaced=0 / bluray_compat=0 / constrained_intra=0 / bframes=3 / b_pyramid=2 / b_adapt=2 / b_bias=0 / direct=3 / weightb=1 / open_gop=0 / weightp=2 / keyint=240 / keyint_min=24 / scenecut=40 / intra_refresh=0 / rc_lookahead=60 / rc=crf / mbtree=1 / crf=19.0 / qcomp=0.60 / qpmin=0 / qpmax=69 / qpstep=4 / vbv_maxrate=17500 / vbv_bufsize=17500 / crf_max=0.0 / nal_hrd=none / filler=0 / ip_ratio=1.40 / aq=1:1.00
Language                       : Chinese
Default                        : Yes
Forced                         : No

Audio
ID                             : 2
Format                         : AC-3
Format/Info                    : Audio Coding 3
Mode extension                 : CM (complete main)
Format settings, Endianness    : Big
Codec ID                       : A_AC3
Duration                       : 1h 47mn
Bit rate mode                  : Constant
Bit rate                       : 384 Kbps
Channel(s)                     : 6 channels
Channel positions              : Front: L C R, Side: L R, LFE
Sampling rate                  : 48.0 KHz
Frame rate                     : 31.250 fps (1536 spf)
Compression mode               : Lossy
Stream size                    : 294 MiB (23%)
Language                       : Chinese
Default                        : Yes
Forced                         : No

Text #1
ID                             : 3
Format                         : UTF-8
Codec ID                       : S_TEXT/UTF8
Codec ID/Info                  : UTF-8 Plain Text
Duration                       : 1h 41mn
Bit rate                       : 59 bps
Count of elements              : 874
Stream size                    : 44.4 KiB (0%)
Title                          : bg
Language                       : Bulgarian
Default                        : Yes
Forced                         : No

Text #2
ID                             : 4
Format                         : UTF-8
Codec ID                       : S_TEXT/UTF8
Codec ID/Info                  : UTF-8 Plain Text
Duration                       : 1h 40mn
Bit rate                       : 38 bps
Count of elements              : 1060
Stream size                    : 28.6 KiB (0%)
Title                          : ro
Language                       : Romanian
Default                        : No
Forced                         : No

Text #3
ID                             : 5
Format                         : UTF-8
Codec ID                       : S_TEXT/UTF8
Codec ID/Info                  : UTF-8 Plain Text
Duration                       : 1h 40mn
Bit rate                       : 33 bps
Count of elements              : 1051
Stream size                    : 25.0 KiB (0%)
Title                          : eng
Language                       : English
Default                        : No
Forced                         : No

Text #4
ID                             : 6
Format                         : UTF-8
Codec ID                       : S_TEXT/UTF8
Codec ID/Info                  : UTF-8 Plain Text
Duration                       : 1h 40mn
Bit rate                       : 37 bps
Count of elements              : 878
Stream size                    : 27.9 KiB (0%)
Title                          : pl
Language                       : Polish
Default                        : No
Forced                         : No












YouTube Video:   
Category:Movies
Language:Chinese  Chinese
Total Size:1.27 GB
Info Hash:76FAABD91D3F905B9EF614C616F15F678D76A91B
Added By:RIAS Verified Uploader
Date Added:12-01-2018 18:34:51
Torrent Status:Torrent Verified


Ratings:Not Yet Rated (Log in to rate it)

  


Tracker:
http://tracker.opentrackr.org:1337/announce

This Torrent also has backup trackers
URLSeedersLeechersCompleted
http://tracker.opentrackr.org:1337/announce000
http://p2p-torrent.ru.tf/announce.php?pid=b25d1a88159deed69a8cdfa89d78eef430581
udp://tracker.internetwarriors.net:1337/announce000
udp://tracker.coppersurfer.tk:6969/announce10261
udp://tracker.leechers-paradise.org:6969/announce100
udp://tracker.zer0day.to:1337/announce000
udp://ipv4.tracker.harry.lu:80/announce000


File List: 

Error reading .nfo file!



Comments
No comments still posted