Download The Best Summer Hits 2019 (2019) M4A-was95 torrent - GloDLS
Torrent Details For "The Best Summer Hits 2019 (2019) M4A-was95"

The Best Summer Hits 2019 (2019) M4A-was95

To download this torrent, you need a BitTorrent client: Vuze or BTGuard
Download this torrent
Download using Magnet Link

Health:
Seeds: 0
Leechers: 0
Completed:
Last Checked: 23-08-2019 06:46:55

Uploader Reputation points : 618
External: Torrent






Write a Review for the Uploader:   5   Say Thanks with one good review:
Share on Facebook


Details
Name:The Best Summer Hits 2019 (2019) M4A-was95
Description:
?

Quality-M4A
Release-2019
Duration-00:56:55
File Size-153 MB
Genre-Pop
Cover Size-1400px

----------------------------------------------------------------------------------------------
Analyzed: The Best Summer Hits 2019 /  Artist: Various Artists
----------------------------------------------------------------------------------------------
DR Peak RMS Duration Title [codec]
----------------------------------------------------------------------------------------------
DR3 -0.00 dB -5.91 dB 2:45 01 - Stars [None]
DR4 -0.00 dB -7.93 dB 3:20 02 - No More (Bottai Edit) [None]
DR5 -0.00 dB -8.01 dB 2:54 03 - Post Malone [None]
DR6 -0.00 dB -7.58 dB 2:56 04 - No More (Original Radio) [None]
DR4 -0.00 dB -6.05 dB 3:06 05 - Light [None]
DR4 -0.00 dB -7.08 dB 2:29 06 - Rise Up (Radio Edit) [None]
DR6 -0.00 dB -8.79 dB 3:06 07 - I’m Calling You [None]
DR4 -0.00 dB -7.12 dB 2:49 08 - Shout (Radio Edit) [None]
DR3 -0.00 dB -5.60 dB 4:32 09 - Take Your Pain Away (Original Mix) [None]
DR5 -0.00 dB -6.64 dB 2:53 10 - Wait For You (feat. Maia Wright) [None]
DR6 -0.00 dB -8.35 dB 3:24 11 - Summer Love (Radio Edit) [None]
DR7 -0.00 dB -7.98 dB 2:43 12 - Lookin’ for a Boy (Radio Edit) [None]
DR8 -0.00 dB -10.11 dB 3:31 13 - Lie Machine (Radio Version) [None]
DR5 -0.00 dB -7.37 dB 3:53 14 - I’m Over You [None]
DR5 -0.00 dB -7.62 dB 3:33 15 - Surrender (Original Mix) [None]
DR4 -0.00 dB -5.95 dB 3:10 16 - Crazy Over You [None]
DR3 -0.00 dB -7.25 dB 2:49 17 - Samba De Rio (Radio Edit) [None]
DR4 -0.00 dB -6.91 dB 2:58 18 - Coming Back (Radio Edit) [None]
----------------------------------------------------------------------------------------------
Number of files:    18
Official DR value:  DR5

Sampling rate: 44100 Hz
Average bitrate: 357kbs
Bits per sample: 16 bit
YouTube Video:
Category:Music
Language:Aucune/N/D
Total Size:145.85 MB
Info Hash:26FE7C7C42F6992CC94F28B54C2F0119EDB9E3FA
Added By:was95was Verified UploaderMusic Lover
Date Added:2019-08-23 13:46:52
Torrent Status:Torrent Verified


Ratings:Not Yet Rated (Log in to rate it)


Tracker:
udp://tracker.piratepublic.com:1337/announce

This Torrent also has backup trackers
URLSeedersLeechersCompleted
udp://tracker.piratepublic.com:1337/announce000
udp://tracker.pirateparty.gr:6969/announce000
udp://tracker.coppersurfer.tk:6969/announce000
udp://tracker.leechers-paradise.org:6969/announce000
udp://9.rarbg.com:2710/announce000
http://p4p.arenabg.com:1337/announce000
http://explodie.org:6969/announce000
udp://tracker.opentrackr.org:1337/announce000
udp://exodus.desync.com:6969/announce000
udp://tracker.leechers-paradise.org:6969/announce000
udp://tracker.zer0day.to:1337/announce000
udp://open.demonii.si:1337/announce000
udp://exodus.desync.com:6969/announce000
udp://tracker.iamhansen.xyz:2000/announce000


File List: 





Comments
No comments still posted