Login
Username:
Password:
Remember Me:
[Signup]
[Recover Account]
Friends
BTScene
Friendly site

Ale Torrenty Team
Friendly site

Anime RG
Friendly site

KaranPC
Friendly site

P2PDL.com
Friendly site

Free Tutorials & Courses
Friendly site
Torrent Details For "The.Big.Wedding.2013.BluRay.810p.DTS.x264-PRoDJi"

The.Big.Wedding.2013.BluRay.810p.DTS.x264-PRoDJi

To download this torrent, you need a BitTorrent client: Vuze or BTGuard
Download this torrent
Download using Magnet Link

Direct Download - no client needed

Download Faster - High Speed Download

Health:
Seeds: 1
Leechers: 0
Completed:
Last Checked: 13-09-2017 15:09:10

Uploader Reputation points : 123802
External: Torrent




Write a Review for the Uploader:   60   Say Thanks with one good review:
Share on Facebook


Details
Name:The.Big.Wedding.2013.BluRay.810p.DTS.x264-PRoDJi
Description:
The.Big.Wedding.2013.BluRay.810p.DTS.x264-PRoDJi

ImDb: http://www.imdb.com/title/tt1931435



Complete name                            : The.Big.Wedding.2013.BluRay.810p.DTS.x264-PRoDJi.mkv
Format                                   : Matroska
Format version                           : Version 4 / Version 2
File size                                : 3.41 GiB
Duration                                 : 1 h 29 min
Overall bit rate                         : 5 446 kb/s
Encoded date                             : UTC 2017-09-13 12:48:12
Writing application                      : mkvmerge v7.2.0 ('On Every Street') 64bit built on Sep 13 2014 15:52:10
Writing library                          : libebml v1.3.0 + libmatroska v1.4.1

Video
ID                                       : 1
Format                                   : AVC
Format/Info                              : Advanced Video Codec
Format profile                           : [email protected]
Format settings, CABAC                   : Yes
Format settings, ReFrames                : 9 frames
Codec ID                                 : V_MPEG4/ISO/AVC
Duration                                 : 1 h 29 min
Bit rate                                 : 3 731 kb/s
Width                                    : 1 440 pixels
Height                                   : 600 pixels
Display aspect ratio                     : 2.40:1
Frame rate mode                          : Constant
Frame rate                               : 23.976 (24000/1001) FPS
Color space                              : YUV
Chroma subsampling                       : 4:2:0
Bit depth                                : 8 bits
Scan type                                : Progressive
Bits/(Pixel*Frame)                       : 0.180
Stream size                              : 2.27 GiB (67%)
Title                                    : @3731Kbps High Profiles @L4.1
Writing library                          : x264 core 138 r2358 9e941d1
Encoding settings                        : cabac=1 / ref=9 / deblock=1:-2:-2 / analyse=0x3:0x113 / me=umh / subme=8 / psy=1 / psy_rd=1.00:0.00 / mixed_ref=1 / me_range=16 / chroma_me=1 / trellis=0 / 8x8dct=1 / cqm=2 / deadzone=21,11 / fast_pskip=1 / chroma_qp_offset=-2 / threads=4 / lookahead_threads=1 / sliced_threads=0 / nr=0 / decimate=0 / interlaced=0 / bluray_compat=0 / constrained_intra=0 / bframes=3 / b_pyramid=2 / b_adapt=1 / b_bias=0 / direct=1 / weightb=1 / open_gop=0 / weightp=2 / keyint=240 / keyint_min=23 / scenecut=40 / intra_refresh=0 / rc_lookahead=40 / rc=2pass / mbtree=1 / bitrate=3731 / ratetol=2.0 / qcomp=0.60 / qpmin=10 / qpmax=51 / qpstep=4 / cplxblur=20.0 / qblur=0.5 / vbv_maxrate=38000 / vbv_bufsize=30000 / nal_hrd=none / ip_ratio=1.40 / aq=1:1.00
Language                                 : English
Default                                  : Yes
Forced                                   : No

Audio #1
ID                                       : 2
Format                                   : DTS
Format/Info                              : Digital Theater Systems
Mode                                     : 16
Format settings, Endianness              : Big
Codec ID                                 : A_DTS
Duration                                 : 1 h 29 min
Bit rate mode                            : Constant
Bit rate                                 : 1 509 kb/s
Channel(s)                               : 6 channels
Channel positions                        : Front: L C R, Side: L R, LFE
Sampling rate                            : 48.0 kHz
Frame rate                               : 93.750 FPS (512 spf)
Bit depth                                : 24 bits
Compression mode                         : Lossy
Stream size                              : 967 MiB (28%)
Title                                    : [email protected] 6 chnls
Default                                  : Yes
Forced                                   : No

Audio #2
ID                                       : 3
Format                                   : AC-3
Format/Info                              : Audio Coding 3
Format settings, Endianness              : Big
Codec ID                                 : A_AC3
Duration                                 : 1 h 29 min
Bit rate mode                            : Constant
Bit rate                                 : 192 kb/s
Channel(s)                               : 2 channels
Channel positions                        : Front: L R
Sampling rate                            : 48.0 kHz
Frame rate                               : 31.250 FPS (1536 spf)
Bit depth                                : 16 bits
Compression mode                         : Lossy
Stream size                              : 123 MiB (4%)
Title                                    : [email protected] 2 chnls
Language                                 : Turkish
Service kind                             : Complete Main
Default                                  : No
Forced                                   : No

Text #1
ID                                       : 4
Format                                   : UTF-8
Codec ID                                 : S_TEXT/UTF8
Codec ID/Info                            : UTF-8 Plain Text
Language                                 : English
Default                                  : Yes
Forced                                   : No

Text #2
ID                                       : 5
Format                                   : UTF-8
Codec ID                                 : S_TEXT/UTF8
Codec ID/Info                            : UTF-8 Plain Text
Language                                 : Turkish
Default                                  : No
Forced                                   : No

Text #3
ID                                       : 6
Format                                   : UTF-8
Codec ID                                 : S_TEXT/UTF8
Codec ID/Info                            : UTF-8 Plain Text
Title                                    : Forced
Language                                 : Turkish
Default                                  : No
Forced                                   : No

Menu
00:00:00.000                             : en:Divorce Is a Sin
00:07:27.738                             : en:Wait For Love
00:12:42.887                             : en:Moved Out
00:20:57.214                             : en:Just Pretend
00:28:32.669                             : en:Confession
00:36:18.467                             : en:Your Blessing
00:43:38.365                             : en:Buenas Noches
00:51:07.981                             : en:What About Bebel
00:59:10.463                             : en:I Forgive You
01:08:03.245                             : en:Eloping
01:16:01.056                             : en:The Answer Is Yes
01:22:41.998                             : en:End Credits






Click To View Screenshot

Click To View Screenshot

Click To View Screenshot
YouTube Video:
Category:Movies
Language:English  English
Total Size:3.41 GB
Info Hash:B94010A46E02164CED305F251DFDB9084EE9ABA8
Added By:Simmoncelli VIPMovie Pirate
Date Added:13-09-2017 15:09:10
Torrent Status:Torrent Verified


Ratings:Not Yet Rated (Log in to rate it)


Tracker:
udp://tracker.coppersurfer.tk:6969/announce

This Torrent also has backup trackers
URLSeedersLeechersCompleted
udp://tracker.coppersurfer.tk:6969/announce000
udp://tracker.pirateparty.gr:6969/announce000
udp://shadowshq.yi.org:6969/announce000
udp://eddie4.nl:6969/announce000
udp://tracker.leechers-paradise.org:6969/announce000
udp://tracker.opentrackr.org:1337/announce000
udp://p4p.arenabg.ch:1337/announce000
udp://p4p.arenabg.com:1337/announce000
udp://9.rarbg.me:2710/announce000
udp://9.rarbg.to:2710/announce000
udp://ipv4.tracker.harry.lu:80/announce000
udp://tracker.grepler.com:6969/announce000
udp://public.popcorn-tracker.org:6969/announce000
udp://tracker.opentrackr.org:1337/announce000
udp://tracker.zer0day.to:1337/announce000


File List: 





Comments
No comments still posted