Download The Cabin Guard (2019) A hoichoi Film Bengali 720p WEB-DL 600 MB torrent - GloDLS
Torrent Details For "The Cabin Guard (2019) A hoichoi Film Bengali 720p WEB-DL 600 MB "

The Cabin Guard (2019) A hoichoi Film Bengali 720p WEB-DL 600 MB

To download this torrent, you need a BitTorrent client: Vuze or BTGuard
Download this torrent
Download using Magnet Link

Health:
Seeds: 297
Leechers: 106
Completed: 419 
Last Checked: 08-11-2019 09:42:20

Uploader Reputation points : 76
External: Torrent






Write a Review for the Uploader:   0   Say Thanks with one good review:
Share on Facebook


Details
Name:The Cabin Guard (2019) A hoichoi Film Bengali 720p WEB-DL 600 MB
Description:



The. Cabin. Guard (2019) A hoichoi Film  Bengali 720p. WEB-DL.x264 600 MB [Team Shadow ]









Movie Info



Name - The. Cabin. Guard (2019)

Duration : 1hr 25min

Storyline - This Bengali film that describes the journey of a man - from anger to murders. Where will the bloody journey end?

IMDB : n/a

Directors: Sudipto Roy

Stars :   eboprasad Halder, Preetam Ganguly, Madhurima Ghosh

Release date : Friday, 8 November 2019

File size : 900 MB

Encoded by Team Shàdów (Shàdów)




Credit goes to  - Team Shàdów (Shàdów)







General
Complete name                            : The. Cabin. Guard (2019) A hoichoi Film  Bengali 720p. WEB-DL. 600 MB – [Team Sahdow Exclusive – First on Net]
Format                                   : MPEG-4
Codec ID                                 : M4V  (isom/avc1/mp42)
File size                                : 558 MiB
Duration                                 : 1 h 25 min
Overall bit rate mode                    : Variable
Overall bit rate                         : 913 kb/s
Encoded date                             : UTC 2019-11-07 16:11:55
Tagged date                              : UTC 2019-11-07 16:11:55

Video
ID                                       : 1
Format                                   : AVC
Format/Info                              : Advanced Video Codec
Format profile                           : [email protected]
Format settings                          : CABAC / 3 Ref Frames
Format settings, CABAC                   : Yes
Format settings, Reference frames        : 3 frames
Codec ID                                 : avc1
Codec ID/Info                            : Advanced Video Coding
Duration                                 : 1 h 25 min
Bit rate mode                            : Variable
Bit rate                                 : 779 kb/s
Maximum bit rate                         : 1 200 kb/s
Width                                    : 1 280 pixels
Height                                   : 720 pixels
Display aspect ratio                     : 16:9
Frame rate mode                          : Constant
Frame rate                               : 24.000 FPS
Color space                              : YUV
Chroma subsampling                       : 4:2:0
Bit depth                                : 8 bits
Scan type                                : Progressive
Bits/(Pixel*Frame)                       : 0.035
Stream size                              : 476 MiB (85%)
Codec configuration box                  : avcC

Audio
ID                                       : 2
Format                                   : AAC LC
Format/Info                              : Advanced Audio Codec Low Complexity
Codec ID                                 : mp4a-40-2
Duration                                 : 1 h 25 min
Bit rate mode                            : Variable
Bit rate                                 : 128 kb/s
Maximum bit rate                         : 134 kb/s
Channel(s)                               : 2 channels
Channel layout                           : L R
Sampling rate                            : 48.0 kHz
Frame rate                               : 46.875 FPS (1024 SPF)
Compression mode                         : Lossy
Stream size                              : 78.2 MiB (14%)
Language                                 : Bengali











YouTube Video:
Category:Movies
Language:Bengali
Total Size:557.81 MB
Info Hash:4B5150398FF363EEB0DB447794C5D35AF2EFF0A1
Added By:trueHD
Date Added:2019-11-08 04:49:50
Torrent Status:Torrent Verified by Prom3th3uS Super Administrator on 8th November, 2019


Ratings:Not Yet Rated (Log in to rate it)


Tracker:
udp://tracker.coppersurfer.tk:6969/announce

This Torrent also has backup trackers
URLSeedersLeechersCompleted
udp://tracker.coppersurfer.tk:6969/announce231052
udp://9.rarbg.com:2710/announce000
udp://9.rarbg.me:2780/announce27868
udp://9.rarbg.to:2730/announce27868
udp://bt.firebit.co.uk:6969/announce22728
udp://ipv4.tracker.harry.lu:80/announce930
udp://open.stealth.si:80/announce21619
udp://tracker.pirateparty.gr:6969/announce231052
udp://tracker.cyberia.is:6969/announce311535
udp://tracker.openbittorrent.com:80/announce532
udp://denis.stalker.upeer.me:6969/announce301222
udp://explodie.org:6969/announce17414
udp://tracker.opentrackr.org:1337/announce21819
udp://exodus.desync.com:6969/announce19512
udp://tracker.leechers-paradise.org:6969/announce22728


File List: 





Comments
No comments still posted