Login
Username:
Password:
Remember Me:
[Signup]
[Recover Account]
Friends
BTScene
Friendly site

Ale Torrenty Team
Friendly site

Anime RG
Friendly site

KaranPC
Friendly site

P2PDL.com
Friendly site

Free Tutorials & Courses
Friendly site
Torrent Details For "The Core 2003 10bit dts hevc-d3g."

The Core 2003 10bit dts hevc-d3g.

To download this torrent, you need a BitTorrent client: Vuze or BTGuard
Download this torrent
Download using Magnet Link

Direct Download - no client needed

Download Faster - High Speed Download

Health:
Seeds: 0
Leechers: 0
Completed:
Last Checked: 13-10-2017 04:20:48

Uploader Reputation points : 123802
External: Torrent




Write a Review for the Uploader:   60   Say Thanks with one good review:
Share on Facebook


Details
Name:The Core 2003 10bit dts hevc-d3g.
Description:
The Core 2003 10bit dts hevc-d3g.

ImDb: http://www.imdb.com/title/tt0374864



Complete name                            : The Core 2003 BluRay 10Bit 1080p Dts-HD Ma5.1 H265-d3g.mkv
Format                                   : Matroska
Format version                           : Version 2
File size                                : 5.13 GiB
Duration                                 : 2 h 14 min
Overall bit rate                         : 5 438 kb/s
Movie name                               : The Core 2003 BluRay 10Bit 1080p DD5.1 H265-d3g
Encoded date                             : UTC 2017-10-08 20:10:04
Writing application                      : DVDFab 10.0.6.2
Writing library                          : libebml v1.3.4 + libmatroska v1.4.5

Video
ID                                       : 1
Format                                   : HEVC
Format/Info                              : High Efficiency Video Coding
Format profile                           : Main [email protected]@Main
Codec ID                                 : V_MPEGH/ISO/HEVC
Duration                                 : 2 h 14 min
Bit rate                                 : 2 609 kb/s
Width                                    : 1 920 pixels
Height                                   : 816 pixels
Display aspect ratio                     : 2.35:1
Frame rate mode                          : Constant
Frame rate                               : 23.976 (24000/1001) FPS
Color space                              : YUV
Chroma subsampling                       : 4:2:0
Bit depth                                : 10 bits
Bits/(Pixel*Frame)                       : 0.069
Stream size                              : 2.46 GiB (48%)
Default                                  : Yes
Forced                                   : No
Color range                              : Limited
Color primaries                          : BT.709
Transfer characteristics                 : BT.709
Matrix coefficients                      : BT.709

Audio
ID                                       : 2
Format                                   : DTS
Format/Info                              : Digital Theater Systems
Format profile                           : MA / Core
Mode                                     : 16
Format settings, Endianness              : Big
Codec ID                                 : A_DTS
Duration                                 : 2 h 14 min
Bit rate mode                            : Variable / Constant
Bit rate                                 : 2 806 kb/s / 1 509 kb/s
Channel(s)                               : 6 channels
Channel positions                        : Front: L C R, Side: L R, LFE
Sampling rate                            : 48.0 kHz
Frame rate                               : 93.750 FPS (512 spf)
Bit depth                                : 24 bits
Compression mode                         : Lossless / Lossy
Stream size                              : 2.65 GiB (52%)
Language                                 : English
Default                                  : Yes
Forced                                   : No

Text #1
ID                                       : 3
Format                                   : VobSub
Codec ID                                 : S_VOBSUB
Codec ID/Info                            : Picture based subtitle format used on DVDs
Duration                                 : 2 h 13 min
Bit rate                                 : 9 478 b/s
Count of elements                        : 1497
Stream size                              : 9.07 MiB (0%)
Language                                 : English
Default                                  : No
Forced                                   : No

Text #2
ID                                       : 4
Format                                   : VobSub
Codec ID                                 : S_VOBSUB
Codec ID/Info                            : Picture based subtitle format used on DVDs
Duration                                 : 2 h 14 min
Bit rate                                 : 10.4 kb/s
Count of elements                        : 1696
Stream size                              : 10.0 MiB (0%)
Language                                 : English
Default                                  : No
Forced                                   : No

Text #3
ID                                       : 5
Format                                   : VobSub
Codec ID                                 : S_VOBSUB
Codec ID/Info                            : Picture based subtitle format used on DVDs
Bit rate                                 : 0 b/s
Count of elements                        : 0
Stream size                              : 0.00 Byte (0%)
Language                                 : English
Default                                  : No
Forced                                   : No

Text #4
ID                                       : 6
Format                                   : VobSub
Codec ID                                 : S_VOBSUB
Codec ID/Info                            : Picture based subtitle format used on DVDs
Bit rate                                 : 0 b/s
Count of elements                        : 0
Stream size                              : 0.00 Byte (0%)
Language                                 : English
Default                                  : No
Forced                                   : No

Text #5
ID                                       : 7
Format                                   : VobSub
Codec ID                                 : S_VOBSUB
Codec ID/Info                            : Picture based subtitle format used on DVDs
Bit rate                                 : 0 b/s
Count of elements                        : 0
Stream size                              : 0.00 Byte (0%)
Language                                 : English
Default                                  : No
Forced                                   : No

Menu
00:00:00.000                             : en:(01)00:00:00:000
00:07:12.807                             : en:(02)00:07:12:807
00:11:09.001                             : en:(03)00:11:09:001
00:18:15.260                             : en:(04)00:18:15:260
00:27:57.342                             : en:(05)00:27:57:342
00:32:53.972                             : en:(06)00:32:53:972
00:35:58.489                             : en:(07)00:35:58:489
00:40:12.993                             : en:(08)00:40:12:993
00:47:26.760                             : en:(09)00:47:26:760
00:50:08.463                             : en:(10)00:50:08:463
01:01:19.592                             : en:(11)01:01:19:592
01:11:50.055                             : en:(12)01:11:50:055
01:22:25.899                             : en:(13)01:22:25:899
01:29:28.196                             : en:(14)01:29:28:196
01:33:43.034                             : en:(15)01:33:43:034
01:39:00.643                             : en:(16)01:39:00:643
01:44:38.355                             : en:(17)01:44:38:355
01:52:21.109                             : en:(18)01:52:21:109
01:58:07.246                             : en:(19)01:58:07:246
02:03:58.013                             : en:(20)02:03:58:013
02:14:57.506                             : en:(21)02:14:57:506






Click To View Screenshot

Click To View Screenshot

Click To View Screenshot
YouTube Video:
Category:Movies
Language:English  English
Total Size:5.13 GB
Info Hash:3C5F45219417A7D3EEDB104E68B5E5AE90A45AA7
Added By:Simmoncelli VIPMovie Pirate
Date Added:13-10-2017 04:20:48
Torrent Status:Torrent Verified


Ratings:Not Yet Rated (Log in to rate it)


Tracker:
udp://tracker.coppersurfer.tk:6969/announce

This Torrent also has backup trackers
URLSeedersLeechersCompleted
udp://tracker.coppersurfer.tk:6969/announce000
udp://tracker.pirateparty.gr:6969/announce000
udp://shadowshq.yi.org:6969/announce000
udp://eddie4.nl:6969/announce000
udp://tracker.leechers-paradise.org:6969/announce000
udp://tracker.opentrackr.org:1337/announce000
udp://p4p.arenabg.ch:1337/announce000
udp://p4p.arenabg.com:1337/announce000
udp://9.rarbg.me:2710/announce000
udp://9.rarbg.to:2710/announce000
udp://ipv4.tracker.harry.lu:80/announce000
udp://tracker.grepler.com:6969/announce000
udp://public.popcorn-tracker.org:6969/announce000
udp://tracker.opentrackr.org:1337/announce000
udp://tracker.zer0day.to:1337/announce000


File List: 





Comments
No comments still posted