Login
Username:
Password:
Remember Me:
[Signup]
[Recover Account]
Friends
BTScene
Friendly site

Ale Torrenty Team
Friendly site

Anime RG
Friendly site

KaranPC
Friendly site

P2PDL.com
Friendly site

Free Tutorials & Courses
Friendly site
Torrent Details For "The Last Scout 2017 1080p BluRay AC3 5 1 X264"

The Last Scout 2017 1080p BluRay AC3 5 1 X264

To download this torrent, you need a BitTorrent client: Vuze or BTGuard
Download this torrent
Download using Magnet Link

Direct Download - no client needed

Download Faster - High Speed Download

Health:
Seeds: 458
Leechers: 410
Completed: 782 
Last Checked: 12-02-2018 17:00:19

Uploader Reputation points : 1784
External: Torrent




Write a Review for the Uploader:   10   Say Thanks with one good review:
Share on Facebook


Details
Name:The Last Scout 2017 1080p BluRay AC3 5 1 X264
Description:



General
Format                      : Matroska
Format version              : Version 4 / Version 2
File size                   : 1.51 GiB
Duration                    : 1 h 47 min
Overall bit rate            : 2 015 kb/s

Video
ID                          : 1
Format                      : AVC
Format/Info                 : Advanced Video Codec
Format profile              : [email protected]
Format settings             : CABAC / 4 Ref Frames
Format settings, CABAC      : Yes
Format settings, ReFrames   : 4 frames
Codec ID                    : V_MPEG4/ISO/AVC
Duration                    : 1 h 47 min
Bit rate                    : 1 800 kb/s
Width                       : 1 920 pixels
Height                      : 800 pixels
Display aspect ratio        : 2.40:1
Frame rate mode             : Constant
Frame rate                  : 24.000 FPS
Color space                 : YUV
Chroma subsampling          : 4:2:0
Bit depth                   : 8 bits
Scan type                   : Progressive
Bits/(Pixel*Frame)          : 0.049
Stream size                 : 1.32 GiB (87%)
Writing library             : x264 core 148 r2708 86b7198
Default                     : Yes
Forced                      : No

Audio
ID                          : 2
Format                      : AC-3
Format/Info                 : Audio Coding 3
Codec ID                    : A_AC3
Duration                    : 1 h 47 min
Bit rate mode               : Constant
Bit rate                    : 256 kb/s
Channel(s)                  : 6 channels
Channel positions           : Front: L C R, Side: L R, LFE
Sampling rate               : 48.0 kHz
Frame rate                  : 31.250 FPS (1536 SPF)
Bit depth                   : 16 bits
Compression mode            : Lossy
Stream size                 : 197 MiB (13%)
Language                    : English
Service kind                : Complete Main
Default                     : Yes
Forced                      : No
















YouTube Video:
Category:Movies
Language:English  English
Total Size:1.51 GB
Info Hash:8C46F224AE81FE2780DA24817E5587DD11CE29C6
Added By:MovieFreak Verified UploaderMovie Pirate
Date Added:12-02-2018 10:27:03
Torrent Status:Torrent Verified


Ratings:Not Yet Rated (Log in to rate it)


Tracker:
udp://tracker.coppersurfer.tk:6969/announce

This Torrent also has backup trackers
URLSeedersLeechersCompleted
udp://tracker.coppersurfer.tk:6969/announce414170
udp://tracker.leechers-paradise.org:6969/announce393575
udp://inferno.demonoid.pw:3391/announce323047
udp://tracker.tntvillage.scambioetico.org:2710/announce000
udp://tracker.pirateparty.gr:6969/announce414170
udp://9.rarbg.com:2770/announce272390
udp://public.popcorn-tracker.org:6969/announce362951
udp://tracker.zer0day.to:1337/announce383157
http://bigfoot1942.sektori.org:6969/announce000
udp://ipv4.tracker.harry.lu:80/announce17180
udp://shadowshq.yi.org:6969/announce393575
udp://tracker.vanitycore.co:6969/announce342654
udp://tracker.opentrackr.org:1337/announce373561
udp://explodie.org:6969/announce000
udp://tracker.zer0day.to:1337/announce383157
udp://tracker.leechers-paradise.org:6969/announce393575
udp://coppersurfer.tk:6969/announce000


File List: 





Comments
No comments still posted