Login
Username:
Password:
Remember Me:
[Signup]
[Recover Account]
Friends
BTScene
Friendly site

Ale Torrenty Team
Friendly site

Anime RG
Friendly site

KaranPC
Friendly site

P2PDL.com
Friendly site

Free Tutorials & Courses
Friendly site
Torrent Details For "The Son of Bigfoot.2017.HDRip.XviD.AC3-EVO"

The Son of Bigfoot.2017.HDRip.XviD.AC3-EVO

To download this torrent, you need a BitTorrent client: Vuze or BTGuard
Download this torrent
Download using Magnet Link

Direct Download - no client needed

Download Faster - High Speed Download

Health:
Seeds: 12
Leechers: 57
Completed:
Last Checked: 14-11-2017 18:46:03

Uploader Reputation points : 123802
External: Torrent




Write a Review for the Uploader:   60   Say Thanks with one good review:
Share on Facebook


Details
Name:The Son of Bigfoot.2017.HDRip.XviD.AC3-EVO
Description:
The Son of Bigfoot.2017.HDRip.XviD.AC3-EVO

ImDb: http://www.imdb.com/title/tt5715410



Complete name                            : The Son of Bigfoot.2017.HDRip.XviD.AC3-EVO.avi
Format                                   : AVI
Format/Info                              : Audio Video Interleave
File size                                : 1.21 GiB
Duration                                 : 1 h 31 min
Overall bit rate                         : 1 891 kb/s
Writing library                          : VirtualDub build 32593/release

Video
ID                                       : 0
Format                                   : MPEG-4 Visual
Format profile                           : Advanced [email protected]
Format settings, BVOP                    : 2
Format settings, QPel                    : No
Format settings, GMC                     : No warppoints
Format settings, Matrix                  : Default (H.263)
Muxing mode                              : Packed bitstream
Codec ID                                 : XVID
Codec ID/Hint                            : XviD
Duration                                 : 1 h 31 min
Bit rate                                 : 1 498 kb/s
Width                                    : 720 pixels
Height                                   : 304 pixels
Display aspect ratio                     : 2.35:1
Frame rate                               : 23.976 (24000/1001) FPS
Color space                              : YUV
Chroma subsampling                       : 4:2:0
Bit depth                                : 8 bits
Scan type                                : Progressive
Compression mode                         : Lossy
Bits/(Pixel*Frame)                       : 0.285
Stream size                              : 983 MiB (79%)
Writing library                          : XviD 66

Audio
ID                                       : 1
Format                                   : AC-3
Format/Info                              : Audio Coding 3
Format settings, Endianness              : Big
Codec ID                                 : 2000
Duration                                 : 1 h 31 min
Bit rate mode                            : Constant
Bit rate                                 : 384 kb/s
Channel(s)                               : 6 channels
Channel positions                        : Front: L C R, Side: L R, LFE
Sampling rate                            : 48.0 kHz
Frame rate                               : 31.250 FPS (1536 spf)
Bit depth                                : 16 bits
Compression mode                         : Lossy
Stream size                              : 252 MiB (20%)
Alignment                                : Aligned on interleaves
Interleave, duration                     : 42  ms (1.00 video frame)
Interleave, preload duration             : 512  ms
Service kind                             : Complete Main






Click To View Screenshot

Click To View Screenshot

Click To View Screenshot
YouTube Video:
Category:Movies
Language:English  English
Total Size:1.22 GB
Info Hash:549291B820497CED3652523B382A9C435C4E96BE
Added By:Simmoncelli VIPMovie Pirate
Date Added:14-11-2017 18:36:41
Torrent Status:Torrent Verified


Ratings:Not Yet Rated (Log in to rate it)


Tracker:
udp://tracker.coppersurfer.tk:6969/announce

This Torrent also has backup trackers
URLSeedersLeechersCompleted
udp://tracker.coppersurfer.tk:6969/announce150
udp://tracker.pirateparty.gr:6969/announce150
udp://shadowshq.yi.org:6969/announce150
udp://eddie4.nl:6969/announce150
udp://tracker.leechers-paradise.org:6969/announce150
udp://tracker.opentrackr.org:1337/announce140
udp://p4p.arenabg.ch:1337/announce140
udp://p4p.arenabg.com:1337/announce140
udp://9.rarbg.me:2710/announce000
udp://9.rarbg.to:2710/announce160
udp://ipv4.tracker.harry.lu:80/announce000
udp://tracker.grepler.com:6969/announce000
udp://public.popcorn-tracker.org:6969/announce150
udp://tracker.opentrackr.org:1337/announce140
udp://tracker.zer0day.to:1337/announce150


File List: 





Comments
No comments still posted