Download The Umbrella Academy S02 Complete 720p NF WEB-DL [Hindi + English] ⭐4.1 GB⭐ 2CH ESub x264 - Shadow (BonsaiHD) torrent - GloDLS
Torrent Details For "The Umbrella Academy S02 Complete 720p NF WEB-DL [Hindi + English] ⭐4.1 GB⭐ 2CH E..."

The Umbrella Academy S02 Complete 720p NF WEB-DL [Hindi + English] ⭐4.1 GB⭐ 2CH E...

To download this torrent, you need a BitTorrent client: Vuze or BTGuard
Download this torrent
Download using Magnet Link

Health:
Seeds: 695
Leechers: 6,009
Completed: 496 
Last Checked: 31-07-2020 11:28:13

Uploader Reputation points : 972
External: Torrent






Write a Review for the Uploader:   5   Say Thanks with one good review:
Share on Facebook
TV Info

The Umbrella Academy

Reunited by their father's death, estranged siblings with extraordinary powers uncover shocking family secrets—and a looming threat to humanity.



Details
Name:The Umbrella Academy S02 Complete 720p NF WEB-DL [Hindi + English] ⭐4.1 GB⭐ 2CH E...
Description:
If You Need Best Quality in Low Size. Then This Is For You

Please Don't Stop Your Tourrent after download Complete. For seeding



Movie name :

The Umbrella Academy S02 Complete 720p NF WEB-DL [Hindi + English] ⭐4.1 GB⭐ 2CH ESub x264 - Shadow (BonsaiHD)


Quote:

Storyline : A family of former child heroes, now grown apart, must reunite to continue to protect the world.................

Release date : 31 July 2020 (India)

File size : 4.1 GB

Encoded by :- ⭐BonsaiHD⭐

Source :-⭐BonsaiHD⭐

[img]httpswww.imgshare.infoimages20190509b9eadb8e79211d053455994e0501d398.png[/img]








[url=httpswww.wikihow.comSeed-Files][img]httpswww.imgshare.infoimages201812068AgDYb.gif[/img][/url]

General
Unique ID                                : 37504765250855352216734963797067981377 (0x1C3727B10DE40971D86C0C75CE626241)
Complete name                            : The Umbrella Academy S02 Complete 720p NF WEB-DL [Hindi + English] - 4.1 GB - 2CH ESub x264 - Shadow (BonsaiHD)
Format                                   : Matroska
Format version                           : Version 4
File size                                : 483 MiB
Duration                                 : 47 min 1 s
Overall bit rate mode                    : Variable
Overall bit rate                         : 1 437 kb/s
Encoded date                             : UTC 2020-07-31 07:16:20 / UTC 2020-07-29 08:08:44
Writing application                      : mkvmerge v37.0.0 ('Leave It') 64-bit
Writing library                          : libebml v1.3.9 + libmatroska v1.5.2 / Lavf58.1.0

Video
ID                                       : 1
Format                                   : AVC
Format/Info                              : Advanced Video Codec
Format profile                           : [email protected]
Format settings                          : CABAC / 4 Ref Frames
Format settings, CABAC                   : Yes
Format settings, Reference frames        : 4 frames
Codec ID                                 : V_MPEG4/ISO/AVC
Duration                                 : 47 min 1 s
Bit rate mode                            : Variable
Bit rate                                 : 1 153 kb/s
Maximum bit rate                         : 14.0 Mb/s
Width                                    : 1 280 pixels
Height                                   : 720 pixels
Display aspect ratio                     : 16:9
Frame rate mode                          : Constant
Frame rate                               : 23.976 (24000/1001) FPS
Color space                              : YUV
Chroma subsampling                       : 4:2:0
Bit depth                                : 8 bits
Scan type                                : Progressive
Bits/(Pixel*Frame)                       : 0.052
Stream size                              : 388 MiB (80%)
Writing library                          : x264 core 148 r2722 1b0121b
Encoding settings                        : cabac=1 / ref=4 / deblock=1:0:0 / analyse=0x3:0x111 / me=umh / subme=10 / psy=1 / psy_rd=1.00:0.00 / mixed_ref=1 / me_range=120 / chroma_me=1 / trellis=2 / 8x8dct=1 / cqm=0 / deadzone=21,11 / fast_pskip=1 / chroma_qp_offset=-2 / threads=8 / lookahead_threads=2 / sliced_threads=0 / nr=0 / decimate=1 / interlaced=0 / bluray_compat=0 / stitchable=1 / constrained_intra=0 / bframes=16 / b_pyramid=2 / b_adapt=2 / b_bias=0 / direct=3 / weightb=1 / open_gop=0 / weightp=2 / keyint=240 / keyint_min=121 / scenecut=0 / intra_refresh=0 / rc_lookahead=240 / rc=crf / mbtree=1 / crf=21.0 / qcomp=0.50 / qpmin=6 / qpmax=51 / qpstep=4 / vbv_maxrate=14000 / vbv_bufsize=14000 / crf_max=0.0 / nal_hrd=vbr / filler=0 / ip_ratio=1.40 / aq=1:0.80
Default                                  : Yes
Forced                                   : No
Duration_Source                          : General_Duration

Audio #1
ID                                       : 2
Format                                   : E-AC-3
Format/Info                              : Enhanced AC-3
Commercial name                          : Dolby Digital Plus
Codec ID                                 : A_EAC3
Duration                                 : 47 min 1 s
Bit rate mode                            : Constant
Bit rate                                 : 128 kb/s
Channel(s)                               : 2 channels
Channel layout                           : L R
Sampling rate                            : 48.0 kHz
Frame rate                               : 31.250 FPS (1536 SPF)
Compression mode                         : Lossy
Stream size                              : 43.1 MiB (9%)
Language                                 : Hindi
Service kind                             : Complete Main
Default                                  : Yes
Forced                                   : No
Encoded date                             : UTC 2020-07-29 08:08:47
Duration_Source                          : General_Duration

Audio #2
ID                                       : 3
Format                                   : E-AC-3
Format/Info                              : Enhanced AC-3
Commercial name                          : Dolby Digital Plus
Codec ID                                 : A_EAC3
Duration                                 : 47 min 1 s
Bit rate mode                            : Constant
Bit rate                                 : 128 kb/s
Channel(s)                               : 2 channels
Channel layout                           : L R
Sampling rate                            : 48.0 kHz
Frame rate                               : 31.250 FPS (1536 SPF)
Compression mode                         : Lossy
Stream size                              : 43.1 MiB (9%)
Language                                 : English
Service kind                             : Complete Main
Default                                  : No
Forced                                   : No
Encoded date                             : UTC 2020-07-29 08:08:44
Duration_Source                          : General_Duration

Text #1
ID                                       : 4
Format                                   : UTF-8
Codec ID                                 : S_TEXT/UTF8
Codec ID/Info                            : UTF-8 Plain Text
Title                                    : English_Full
Language                                 : English
Default                                  : No
Forced                                   : No

Text #2
ID                                       : 5
Format                                   : UTF-8
Codec ID                                 : S_TEXT/UTF8
Codec ID/Info                            : UTF-8 Plain Text
Title                                    : English_Full
Language                                 : English
Default                                  : No
Forced                                   : No


YouTube Video:
Category:TV
Language:Dubs/Dual Audio
Total Size:4.08 GB
Info Hash:1DF0BFDDEBB3C5729ED540F60B6175A2F34FF480
Added By:trueHD Verified Uploader
Date Added:2020-07-31 15:55:55
Torrent Status:Torrent Verified


Ratings:Not Yet Rated (Log in to rate it)


Tracker:
udp://tracker.coppersurfer.tk:6969/announce

This Torrent also has backup trackers
URLSeedersLeechersCompleted
udp://tracker.coppersurfer.tk:6969/announce000
udp://tracker.leechers-paradise.org:6969/announce000
udp://tracker.cyberia.is:6969/announce3848343
http://tracker.nyap2p.com:8080/announce2051,31758
udp://p4p.arenabg.com:1337/announce4349546
udp://explodie.org:6969/announce242580
udp://tracker.opentrackr.org:1337/announce6955879
udp://tracker.tiny-vps.com:6969/announce7059068
udp://exodus.desync.com:6969/announce3636832
udp://tracker.torrent.eu.org:451/announce4448641
udp://tracker.moeking.me:6969/announce4446529
udp://ipv4.tracker.harry.lu:80/announce373120
udp://open.stealth.si:80/announce7056282
udp://9.rarbg.to:2710/announce000
udp://opentor.org:2710/announce1511518


File List: 





Comments

[Report] Posted: 31-07-2020 at 16:20:31
ernygirl

avatar

profile message
thanks so much =D