Login
Username:
Password:
Remember Me:
[Signup]
[Recover Account]
Friends
BTScene
Friendly site

Ale Torrenty Team
Friendly site

Anime RG
Friendly site

KaranPC
Friendly site

P2PDL.com
Friendly site

Free Tutorials & Courses
Friendly site
Torrent Details For "Nicky, Ricky, Dicky & Dawn S04E02 Wrestle-Mae-nia 1080p WEB-DL AAC2.0 H.264-LAZY"

Nicky, Ricky, Dicky & Dawn S04E02 Wrestle-Mae-nia 1080p WEB-DL AAC2.0 H.264-LAZY

To download this torrent, you need a BitTorrent client: Vuze or BTGuard
Download this torrent
Download using Magnet Link

Direct Download - no client needed

Download Faster - High Speed Download

Health:
Seeds: 6
Leechers: 0
Completed: 10 
Last Checked: 14-01-2018 16:21:15

Uploader Reputation points : 288
External: Torrent




Write a Review for the Uploader:   5   Say Thanks with one good review:
Share on Facebook
TV Info

Nicky, Ricky, Dicky & Dawn

Eleven-year-old Nicky, Ricky, Dicky and Dawn Harper's sibling rivalry is heightened all the more by the fact that they are quadruplets.



Details
Name:Nicky, Ricky, Dicky & Dawn S04E02 Wrestle-Mae-nia 1080p WEB-DL AAC2.0 H.264-LAZY
Description:
Nicky, Ricky, Dicky & Dawn:

Video
ID                                       : 2
Format                                   : AVC
Format/Info                              : Advanced Video Codec
Format profile                           : [email protected]
Format settings, CABAC                   : Yes
Format settings, RefFrames               : 4 frames
Codec ID                                 : V_MPEG4/ISO/AVC
Duration                                 : 22 min 42 s
Bit rate                                 : 5 173 kb/s
Width                                    : 1 916 pixels
Height                                   : 1 076 pixels
Display aspect ratio                     : 16:9
Frame rate mode                          : Constant
Frame rate                               : 23.976 (24000/1001) FPS
Color space                              : YUV
Chroma subsampling                       : 4:2:0
Bit depth                                : 8 bits
Scan type                                : Progressive
Bits/(Pixel*Frame)                       : 0.105
Stream size                              : 840 MiB (98%)
Language                                 : English
Default                                  : Yes
Forced                                   : No
Color range                              : Limited
Color primaries                          : BT.709
Transfer characteristics                 : BT.709
Matrix coefficients                      : BT.709

Audio
ID                                       : 1
Format                                   : AAC
Format/Info                              : Advanced Audio Codec
Format profile                           : LC
Codec ID                                 : A_AAC
Duration                                 : 22 min 42 s
Bit rate                                 : 125 kb/s
Channel(s)                               : 2 channels
Channel positions                        : Front: L R
Sampling rate                            : 48.0 kHz
Frame rate                               : 46.875 FPS (1024 SPF)
Compression mode                         : Lossy
Delay relative to video                  : -42 ms
Stream size                              : 20.4 MiB (2%)
Language                                 : English
Default                                  : Yes
Forced                                   : No

Text
ID                                       : 3
Format                                   : UTF-8
Codec ID                                 : S_TEXT/UTF8
Codec ID/Info                            : UTF-8 Plain Text
Duration                                 : 22 min 1 s
Bit rate                                 : 133 b/s
Count of elements                        : 516
Stream size                              : 21.6 KiB (0%)
Language                                 : English
Default                                  : Yes
Forced                                   : No

Screenshots:
YouTube Video:   
Category:TV
Language:English  English
Total Size:860.92 MB
Info Hash:1E7CB366C510D0A71F9251F53F2D875C54027412
Added By:LazyRips Verified Uploader
Date Added:14-01-2018 09:46:50
Torrent Status:Torrent Verified


Ratings:Not Yet Rated (Log in to rate it)


Tracker:
udp://tracker.opentrackr.org:1337/announce

This Torrent also has backup trackers
URLSeedersLeechersCompleted
udp://tracker.opentrackr.org:1337/announce204
udp://tracker.coppersurfer.tk:6969/announce203
udp://9.rarbg.me:2730/announce203
http://glotorrents.pw:80/announce000
udp://tracker.istole.it:80/announce000
udp://tracker4.piratux.com:6969/announce000
udp://tracker.publicbt.com:80/announce000
udp://coppersurfer.tk:6969/announce000
udp://open.demonii.com:1337/announce000
udp://tracker.openbittorrent.com:80/announce000


File List: 





Comments
No comments still posted