Login
Username:
Password:
Remember Me:
[Signup]
[Recover Account]
Friends
BTScene
Friendly site

Free Courses Online
Friendly site

Anime RG
Friendly site

KaranPC
Friendly site

P2PDL.com
Friendly site

Free Tutorials & Courses
Friendly site
Torrent Details For "Disney Mickey Mouse S04E11 Feed the Birds 1080p WEB-DL DD5.1 H.264-LAZY"

Disney Mickey Mouse S04E11 Feed the Birds 1080p WEB-DL DD5.1 H.264-LAZY

To download this torrent, you need a BitTorrent client: Vuze or BTGuard
Download this torrent
Download using Magnet Link

Direct Download - no client needed

Download Faster - High Speed Download

Health:
Seeds: 3
Leechers: 0
Completed: 10 
Last Checked: 14-01-2018 16:21:18

Uploader Reputation points : 432
External: Torrent




Write a Review for the Uploader:   5   Say Thanks with one good review:
Share on Facebook


Details
Name:Disney Mickey Mouse S04E11 Feed the Birds 1080p WEB-DL DD5.1 H.264-LAZY
Description:
Disney Mickey Mouse:

Video
ID                                       : 1
Format                                   : AVC
Format/Info                              : Advanced Video Codec
Format profile                           : [email protected]
Format settings, CABAC                   : Yes
Format settings, RefFrames               : 4 frames
Codec ID                                 : V_MPEG4/ISO/AVC
Duration                                 : 3 min 33 s
Bit rate                                 : 5 172 kb/s
Width                                    : 1 920 pixels
Height                                   : 1 080 pixels
Display aspect ratio                     : 16:9
Frame rate mode                          : Constant
Frame rate                               : 23.976 (24000/1001) FPS
Color space                              : YUV
Chroma subsampling                       : 4:2:0
Bit depth                                : 8 bits
Scan type                                : Progressive
Bits/(Pixel*Frame)                       : 0.104
Stream size                              : 132 MiB (93%)
Language                                 : English
Default                                  : Yes
Forced                                   : No
Color range                              : Limited
Color primaries                          : BT.709
Transfer characteristics                 : BT.709
Matrix coefficients                      : BT.709

Audio
ID                                       : 2
Format                                   : AC-3
Format/Info                              : Audio Coding 3
Format settings, Endianness              : Big
Codec ID                                 : A_AC3
Duration                                 : 3 min 33 s
Bit rate mode                            : Constant
Bit rate                                 : 384 kb/s
Channel(s)                               : 6 channels
Channel positions                        : Front: L C R, Side: L R, LFE
Sampling rate                            : 48.0 kHz
Frame rate                               : 31.250 FPS (1536 SPF)
Bit depth                                : 16 bits
Compression mode                         : Lossy
Delay relative to video                  : -42 ms
Stream size                              : 9.78 MiB (7%)
Language                                 : English
Service kind                             : Complete Main
Default                                  : Yes
Forced                                   : No

Text
ID                                       : 3
Format                                   : UTF-8
Codec ID                                 : S_TEXT/UTF8
Codec ID/Info                            : UTF-8 Plain Text
Duration                                 : 3 min 32 s
Bit rate                                 : 70 b/s
Count of elements                        : 65
Stream size                              : 1.83 KiB (0%)
Language                                 : English
Default                                  : Yes
Forced                                   : No

Screenshots:
YouTube Video:   
Category:TV
Language:English  English
Total Size:141.50 MB
Info Hash:22FEEAB6DAA179FDB7F923903FD10C6AB4CDD277
Added By:LazyRips Verified Uploader
Date Added:14-01-2018 11:53:45
Torrent Status:Torrent Verified


Ratings:Not Yet Rated (Log in to rate it)


Tracker:
udp://tracker.opentrackr.org:1337/announce

This Torrent also has backup trackers
URLSeedersLeechersCompleted
udp://tracker.opentrackr.org:1337/announce103
udp://tracker.coppersurfer.tk:6969/announce103
udp://9.rarbg.me:2730/announce104
http://glotorrents.pw:80/announce000
udp://tracker.istole.it:80/announce000
udp://tracker4.piratux.com:6969/announce000
udp://tracker.publicbt.com:80/announce000
udp://coppersurfer.tk:6969/announce000
udp://open.demonii.com:1337/announce000
udp://tracker.openbittorrent.com:80/announce000


File List: 





Comments
No comments still posted