Login
Username:
Password:
Remember Me:
[Signup]
[Recover Account]
Friends
BTScene
Friendly site

Free Courses Online
Friendly site

Anime RG
Friendly site

KaranPC
Friendly site

P2PDL.com
Friendly site

Free Tutorials & Courses
Friendly site
Torrent Details For "Dracula in Love (2018) 720p HDRip x264 AAC by Full4movies"

Dracula in Love (2018) 720p HDRip x264 AAC by Full4movies

To download this torrent, you need a BitTorrent client: Vuze or BTGuard
Download this torrent
Download using Magnet Link

Direct Download - no client needed

Download Faster - High Speed Download

Health:
Seeds: 18
Leechers: 147
Completed:
Last Checked: 12-07-2018 18:53:24

Uploader Reputation points : 1436
External: Torrent




Write a Review for the Uploader:   0   Say Thanks with one good review:
Share on Facebook


Details
Name:Dracula in Love (2018) 720p HDRip x264 AAC by Full4movies
Description:


General
Complete name                  : Dracula in Love (2018) 720p HDRip x264 AAC by Full4movies.mkv
Format                         : Matroska
Format version                 : Version 4 / Version 2
File size                      : 754 MiB
Duration                       : 1 h 23 min
Overall bit rate               : 1 266 kb/s
Movie name                     : www.Full4movies.co
Encoded date                   : UTC 2018-07-11 15:32:33
Writing application            : mkvmerge v8.1.0 ('Psychedelic Postcard') 32bit
Writing library                : libebml v1.3.1 + libmatroska v1.4.2

Video
ID                             : 1
Format                         : AVC
Format/Info                    : Advanced Video Codec
Format profile                 : [email protected]
Format settings, CABAC         : Yes
Format settings, RefFrames     : 4 frames
Codec ID                       : V_MPEG4/ISO/AVC
Duration                       : 1 h 23 min
Bit rate                       : 1 200 kb/s
Width                          : 1 280 pixels
Height                         : 528 pixels
Display aspect ratio           : 2.40:1
Frame rate mode                : Variable
Frame rate                     : 23.976 FPS
Color space                    : YUV
Chroma subsampling             : 4:2:0
Bit depth                      : 8 bits
Scan type                      : Progressive
Bits/(Pixel*Frame)             : 0.074
Stream size                    : 714 MiB (95%)
Writing library                : x264 core 155 r2901 7d0ff22
Default                        : Yes
Forced                         : No
Color range                    : Limited
Color primaries                : BT.601 NTSC
Transfer characteristics       : BT.709
Matrix coefficients            : BT.601

Audio
ID                             : 2
Format                         : AAC
Format/Info                    : Advanced Audio Codec
Format profile                 : LC
Codec ID                       : A_AAC
Duration                       : 1 h 23 min
Bit rate                       : 64.3 kb/s
Channel(s)                     : 2 channels
Channel positions              : Front: L R
Sampling rate                  : 48.0 kHz
Frame rate                     : 46.875 FPS (1024 SPF)
Compression mode               : Lossy
Delay relative to video        : -21 ms
Stream size                    : 38.3 MiB (5%)
Language                       : English
Default                        : Yes
Forced                         : No

Screen Shoots
YouTube Video:   
Category:Movies
Language:English  English
Total Size:753.62 MB
Info Hash:AFB516F7CD17D2D7D6501CE295F45859275811DE
Added By:india4movie Verified Uploader
Date Added:12-07-2018 17:56:46
Torrent Status:Torrent Verified


Ratings:Not Yet Rated (Log in to rate it)


Tracker:
udp://tracker.coppersurfer.tk:6969/announce

This Torrent also has backup trackers
URLSeedersLeechersCompleted
udp://tracker.coppersurfer.tk:6969/announce1130
udp://tracker.opentrackr.org:1337/announce1120
udp://9.rarbg.me:2710/announce290
udp://tracker.torrent.eu.org:451/announce2100
udp://open.stealth.si:80/announce2120
udp://public.popcorn-tracker.org:6969/announce2110
udp://p4p.arenabg.ch:1337/announce000
udp://tracker.zer0day.to:1337/announce000
udp://tracker.pirateparty.gr:6969/announce1130
udp://tracker.leechers-paradise.org:6969/announce1120
udp://tracker.tiny-vps.com:6969/announce1120
udp://bt.firebit.co.uk:6969/announce1120
udp://inferno.demonoid.pw:3397/announce1100
udp://shadowshq.yi.org:6969/announce1120
udp://9.rarbg.to:2780/announce290


File List: 





Comments
No comments still posted