Login
Username:
Password:
Remember Me:
[Signup]
[Recover Account]
Friends
BTScene
Friendly site

Free Courses Online
Friendly site

Anime RG
Friendly site

KaranPC
Friendly site

P2PDL.com
Friendly site

Free Tutorials & Courses
Friendly site
Torrent Details For "Angrezi Mein Kehte Hain (2018) HDRip x264 AAC by Full4movies"

Angrezi Mein Kehte Hain (2018) HDRip x264 AAC by Full4movies

To download this torrent, you need a BitTorrent client: Vuze or BTGuard
Download this torrent
Download using Magnet Link

Direct Download - no client needed

Download Faster - High Speed Download

Health:
Seeds: 159
Leechers: 276
Completed: 490 
Last Checked: 13-07-2018 18:05:19

Uploader Reputation points : 1436
External: Torrent




Write a Review for the Uploader:   0   Say Thanks with one good review:
Share on Facebook


Details
Name:Angrezi Mein Kehte Hain (2018) HDRip x264 AAC by Full4movies
Description:


General
Complete name                  : Angrezi Mein Kehte Hain (2018) HDRip x264 AAC by Full4movies.mkv
Format                         : Matroska
Format version                 : Version 4 / Version 2
File size                      : 449 MiB
Duration                       : 1 h 48 min
Overall bit rate               : 580 kb/s
Movie name                     : www.Full4movies.co
Encoded date                   : UTC 2018-07-12 08:46:09
Writing application            : mkvmerge v8.1.0 ('Psychedelic Postcard') 32bit
Writing library                : libebml v1.3.1 + libmatroska v1.4.2

Video
ID                             : 1
Format                         : AVC
Format/Info                    : Advanced Video Codec
Format profile                 : [email protected]
Format settings, CABAC         : Yes
Format settings, RefFrames     : 5 frames
Codec ID                       : V_MPEG4/ISO/AVC
Duration                       : 1 h 48 min
Bit rate                       : 512 kb/s
Width                          : 720 pixels
Height                         : 304 pixels
Display aspect ratio           : 2.35:1
Frame rate mode                : Constant
Frame rate                     : 23.976 (23976/1000) FPS
Color space                    : YUV
Chroma subsampling             : 4:2:0
Bit depth                      : 8 bits
Scan type                      : Progressive
Bits/(Pixel*Frame)             : 0.098
Stream size                    : 397 MiB (89%)
Writing library                : x264 core 148 r2643 5c65704
Default                        : Yes
Forced                         : No

Audio
ID                             : 2
Format                         : AAC
Format/Info                    : Advanced Audio Codec
Format profile                 : LC
Codec ID                       : A_AAC
Duration                       : 1 h 48 min
Bit rate                       : 64.2 kb/s
Channel(s)                     : 2 channels
Channel positions              : Front: L R
Sampling rate                  : 48.0 kHz
Frame rate                     : 46.875 FPS (1024 SPF)
Compression mode               : Lossy
Stream size                    : 49.7 MiB (11%)
Language                       : Hindi
Default                        : Yes
Forced                         : No

Screen Shooter

YouTube Video:   
Category:Movies
Language:English  English
Total Size:448.79 MB
Info Hash:764CC1B7E1AD1BA4CACC1A7C0A07B9D91A25FEAB
Added By:india4movie Verified Uploader
Date Added:12-07-2018 18:30:22
Torrent Status:Torrent Verified


Ratings:Not Yet Rated (Log in to rate it)


Tracker:
udp://tracker.coppersurfer.tk:6969/announce

This Torrent also has backup trackers
URLSeedersLeechersCompleted
udp://tracker.coppersurfer.tk:6969/announce183279
udp://tracker.opentrackr.org:1337/announce000
udp://9.rarbg.me:2710/announce142333
udp://tracker.torrent.eu.org:451/announce142116
udp://open.stealth.si:80/announce112118
udp://public.popcorn-tracker.org:6969/announce111916
udp://p4p.arenabg.ch:1337/announce000
udp://tracker.zer0day.to:1337/announce000
udp://tracker.pirateparty.gr:6969/announce183179
udp://tracker.leechers-paradise.org:6969/announce112053
udp://tracker.tiny-vps.com:6969/announce122324
udp://bt.firebit.co.uk:6969/announce112053
udp://inferno.demonoid.pw:3397/announce142333
udp://shadowshq.yi.org:6969/announce112053
udp://9.rarbg.to:2780/announce142333


File List: 





Comments
No comments still posted