Login
Username:
Password:
Remember Me:
[Signup]
[Recover Account]
Friends
BTScene
Friendly site

Free Courses Online
Friendly site

Anime RG
Friendly site

KaranPC
Friendly site

P2PDL.com
Friendly site

Free Tutorials & Courses
Friendly site
Torrent Details For "How It Ends (2018) 720p HDRip x264 AAC by Full4movies"

How It Ends (2018) 720p HDRip x264 AAC by Full4movies

To download this torrent, you need a BitTorrent client: Vuze or BTGuard
Download this torrent
Download using Magnet Link

Direct Download - no client needed

Download Faster - High Speed Download

Health:
Seeds: 147
Leechers: 153
Completed: 369 
Last Checked: 15-07-2018 09:13:00

Uploader Reputation points : 1694
External: Torrent



BTGuard - BitTorrent Anonymously


Write a Review for the Uploader:   0   Say Thanks with one good review:
Share on Facebook


Details
Name:How It Ends (2018) 720p HDRip x264 AAC by Full4movies
Description:


General
Complete name                  : How It Ends (2018) 720p HDRip x264 AAC by Full4movies.mkv
Format                         : Matroska
Format version                 : Version 4 / Version 2
File size                      : 955 MiB
Duration                       : 1 h 53 min
Overall bit rate               : 1 180 kb/s
Movie name                     : www.Full4movies.co
Encoded date                   : UTC 2018-07-13 11:41:12
Writing application            : mkvmerge v8.1.0 ('Psychedelic Postcard') 32bit
Writing library                : libebml v1.3.1 + libmatroska v1.4.2

Video
ID                             : 1
Format                         : AVC
Format/Info                    : Advanced Video Codec
Format profile                 : [email protected]
Format settings, CABAC         : Yes
Format settings, RefFrames     : 5 frames
Codec ID                       : V_MPEG4/ISO/AVC
Duration                       : 1 h 53 min
Bit rate                       : 1 049 kb/s
Width                          : 1 280 pixels
Height                         : 536 pixels
Display aspect ratio           : 2.40:1
Frame rate mode                : Variable
Frame rate                     : 23.976 (24000/1001) FPS
Color space                    : YUV
Chroma subsampling             : 4:2:0
Bit depth                      : 8 bits
Scan type                      : Progressive
Bits/(Pixel*Frame)             : 0.064
Stream size                    : 849 MiB (89%)
Writing library                : x264 core 155 r2893 b00bcaf
Default                        : Yes
Forced                         : No
Color range                    : Limited
Color primaries                : BT.709
Transfer characteristics       : BT.709
Matrix coefficients            : BT.709

Audio
ID                             : 2
Format                         : AAC
Format/Info                    : Advanced Audio Codec
Format profile                 : LC
Codec ID                       : A_AAC
Duration                       : 1 h 52 min
Bit rate                       : 129 kb/s
Channel(s)                     : 2 channels
Channel positions              : Front: L R
Sampling rate                  : 48.0 kHz
Frame rate                     : 46.875 FPS (1024 SPF)
Compression mode               : Lossy
Delay relative to video        : 9 ms
Stream size                    : 104 MiB (11%)
Language                       : English
Default                        : Yes
Forced                         : No

Screen Shoots
YouTube Video:   
Category:Movies
Language:English  English
Total Size:955.24 MB
Info Hash:129CE54E50B402E609155CD3F1F917405A854602
Added By:india4movie Verified Uploader
Date Added:14-07-2018 10:33:49
Torrent Status:Torrent Verified


Ratings:Not Yet Rated (Log in to rate it)


Tracker:
udp://tracker.coppersurfer.tk:6969/announce

This Torrent also has backup trackers
URLSeedersLeechersCompleted
udp://tracker.coppersurfer.tk:6969/announce131550
udp://tracker.opentrackr.org:1337/announce171539
udp://9.rarbg.me:2710/announce101136
udp://tracker.torrent.eu.org:451/announce111018
udp://open.stealth.si:80/announce121319
udp://public.popcorn-tracker.org:6969/announce111215
udp://p4p.arenabg.ch:1337/announce000
udp://tracker.zer0day.to:1337/announce000
udp://tracker.pirateparty.gr:6969/announce131550
udp://tracker.leechers-paradise.org:6969/announce121336
udp://tracker.tiny-vps.com:6969/announce121216
udp://bt.firebit.co.uk:6969/announce121336
udp://inferno.demonoid.pw:3397/announce121118
udp://shadowshq.yi.org:6969/announce121336
udp://9.rarbg.to:2780/announce000


File List: 





Comments
No comments still posted