Login
Username:
Password:
Remember Me:
[Signup]
[Recover Account]
Friends
BTScene
Friendly site

Free Courses Online
Friendly site

Anime RG
Friendly site

KaranPC
Friendly site

P2PDL.com
Friendly site

Free Tutorials & Courses
Friendly site
Torrent Details For "National Treasure 2 Book of Secrets (2007) 720p [Hindi Dubbed + English] HDRip x264 A..."

National Treasure 2 Book of Secrets (2007) 720p [Hindi Dubbed + English] HDRip x264 A...

To download this torrent, you need a BitTorrent client: Vuze or BTGuard
Download this torrent
Download using Magnet Link

Direct Download - no client needed

Download Faster - High Speed Download

Health:
Seeds: 378
Leechers: 507
Completed: 632 
Last Checked: 15-07-2018 09:12:59

Uploader Reputation points : 1694
External: Torrent



BTGuard - BitTorrent Anonymously


Write a Review for the Uploader:   0   Say Thanks with one good review:
Share on Facebook


Details
Name:National Treasure 2 Book of Secrets (2007) 720p [Hindi Dubbed + English] HDRip x264 A...
Description:


General
Complete name                  : National Treasure 2 Book of Secrets (2007) 720p [Hindi Dubbed + English] HDRip x264 AAC ESub by Full4movies.mkv
Format                         : Matroska
Format version                 : Version 4 / Version 2
File size                      : 1.31 GiB
Duration                       : 2 h 5 min
Overall bit rate               : 1 498 kb/s
Movie name                     : www.Full4movies.co
Encoded date                   : UTC 2018-07-12 18:11:22
Writing application            : mkvmerge v8.1.0 ('Psychedelic Postcard') 32bit
Writing library                : libebml v1.3.1 + libmatroska v1.4.2

Video
ID                             : 1
Format                         : AVC
Format/Info                    : Advanced Video Codec
Format profile                 : [email protected]
Format settings, CABAC         : Yes
Format settings, RefFrames     : 8 frames
Codec ID                       : V_MPEG4/ISO/AVC
Duration                       : 2 h 4 min
Bit rate                       : 1 031 kb/s
Width                          : 1 280 pixels
Height                         : 528 pixels
Display aspect ratio           : 2.40:1
Frame rate mode                : Constant
Frame rate                     : 23.976 (24000/1001) FPS
Color space                    : YUV
Chroma subsampling             : 4:2:0
Bit depth                      : 8 bits
Scan type                      : Progressive
Bits/(Pixel*Frame)             : 0.064
Stream size                    : 918 MiB (68%)
Writing library                : x264 core 152 r2851 ba24899
Language                       : English
Default                        : Yes
Forced                         : Yes

Audio #1
ID                             : 2
Format                         : AC-3
Format/Info                    : Audio Coding 3
Format settings, Endianness    : Big
Codec ID                       : A_AC3
Duration                       : 2 h 5 min
Bit rate mode                  : Constant
Bit rate                       : 384 kb/s
Channel(s)                     : 6 channels
Channel positions              : Front: L C R, Side: L R, LFE
Sampling rate                  : 48.0 kHz
Frame rate                     : 31.250 FPS (1536 SPF)
Bit depth                      : 16 bits
Compression mode               : Lossy
Stream size                    : 344 MiB (26%)
Language                       : Hindi
Service kind                   : Complete Main
Default                        : Yes
Forced                         : Yes

Audio #2
ID                             : 3
Format                         : AAC
Format/Info                    : Advanced Audio Codec
Format profile                 : LC
Codec ID                       : A_AAC
Duration                       : 2 h 4 min
Bit rate                       : 86.1 kb/s
Channel(s)                     : 2 channels
Channel positions              : Front: L R
Sampling rate                  : 48.0 kHz
Frame rate                     : 46.875 FPS (1024 SPF)
Compression mode               : Lossy
Delay relative to video        : 9 ms
Stream size                    : 76.7 MiB (6%)
Language                       : English
Default                        : No
Forced                         : No

Text
ID                             : 4
Format                         : UTF-8
Codec ID                       : S_TEXT/UTF8
Codec ID/Info                  : UTF-8 Plain Text
Duration                       : 10 s 0 ms
Bit rate                       : 47 b/s
Count of elements              : 2
Stream size                    : 59.0 Bytes (0%)
Default                        : Yes
Forced                         : Yes

Screen Shoots
YouTube Video:   
Category:Movies
Language:Hindi  Hindi
Total Size:1.31 GB
Info Hash:180FAC8AFD66CABD1308CEBE180C3E7A54373A02
Added By:india4movie Verified Uploader
Date Added:14-07-2018 10:51:02
Torrent Status:Torrent Verified


Ratings:Not Yet Rated (Log in to rate it)


Tracker:
udp://tracker.coppersurfer.tk:6969/announce

This Torrent also has backup trackers
URLSeedersLeechersCompleted
udp://tracker.coppersurfer.tk:6969/announce315586
udp://tracker.opentrackr.org:1337/announce293850
udp://9.rarbg.me:2710/announce274344
udp://tracker.torrent.eu.org:451/announce374344
udp://open.stealth.si:80/announce283829
udp://public.popcorn-tracker.org:6969/announce253527
udp://p4p.arenabg.ch:1337/announce000
udp://tracker.zer0day.to:1337/announce000
udp://tracker.pirateparty.gr:6969/announce315586
udp://tracker.leechers-paradise.org:6969/announce284158
udp://tracker.tiny-vps.com:6969/announce403739
udp://bt.firebit.co.uk:6969/announce284158
udp://inferno.demonoid.pw:3397/announce464053
udp://shadowshq.yi.org:6969/announce284158
udp://9.rarbg.to:2780/announce000


File List: 





Comments
No comments still posted