Download Shakuntala Devi (2020) Hindi 720p AMZN WEBRip ⭐1 GB⭐ AAC 5.1 ESub x264 - Shadow (BonsaiHD) torrent - GloDLS
Torrent Details For "Shakuntala Devi (2020) Hindi 720p AMZN WEBRip ⭐1 GB⭐ AAC 5.1 ESub x264 - Shadow (..."

Shakuntala Devi (2020) Hindi 720p AMZN WEBRip ⭐1 GB⭐ AAC 5.1 ESub x264 - Shadow (...

To download this torrent, you need a BitTorrent client: Vuze or BTGuard
Download this torrent
Download using Magnet Link

Health:
Seeds: 10,308
Leechers: 7,806
Completed: 31,392 
Last Checked: 01-08-2020 15:33:30

Uploader Reputation points : 972
External: Torrent






Write a Review for the Uploader:   5   Say Thanks with one good review:
Share on Facebook


Details
Name:Shakuntala Devi (2020) Hindi 720p AMZN WEBRip ⭐1 GB⭐ AAC 5.1 ESub x264 - Shadow (...
Description:
If You Need Best Quality in Low Size. Then This Is For You

Please Don't Stop Your Tourrent after download Complete. For seeding



Movie name :

Shakuntala Devi (2020) Hindi 720p AMZN WEBRip ⭐1 GB⭐ AAC 5.1 ESub x264 - Shadow (BonsaiHD)


Quote:

Storyline : The extraordinary story of Shakuntala Devi, the world-renowned mathematician who lived her life on her own terms. While the film pays tribute to her genius as a mathematician

Release date : 18 June 2020 (India)

File size : 1 GB

Encoded by :- ⭐BonsaiHD⭐

Source :-⭐BonsaiHD⭐











General
Unique ID                                : 178300881333979897595157805173123160753 (0x8623802A69CA309E9AC5B4CDDEC59AB1)
Complete name                            : Shakuntala.Devi.2020.720p.AMZN.WEBRip.6CH.ESub.x264.BonsaiHD.mkv
Format                                   : Matroska
Format version                           : Version 4
File size                                : 1 009 MiB
Duration                                 : 2 h 7 min
Overall bit rate                         : 1 110 kb/s
Movie name                               : Shadow (BonsaiHD.Online)
Encoded date                             : UTC 2020-07-30 17:56:00
Writing application                      : mkvmerge v48.0.0 ('Fortress Around Your Heart') 64-bit
Writing library                          : libebml v1.4.0 + libmatroska v1.6.0

Video
ID                                       : 1
Format                                   : AVC
Format/Info                              : Advanced Video Codec
Format profile                           : [email protected]
Format settings                          : CABAC / 3 Ref Frames
Format settings, CABAC                   : Yes
Format settings, Reference frames        : 3 frames
Codec ID                                 : V_MPEG4/ISO/AVC
Duration                                 : 2 h 7 min
Bit rate                                 : 919 kb/s
Width                                    : 1 280 pixels
Height                                   : 544 pixels
Display aspect ratio                     : 2.35:1
Original display aspect ratio            : 2.35:1
Frame rate mode                          : Constant
Frame rate                               : 24.000 FPS
Color space                              : YUV
Chroma subsampling                       : 4:2:0
Bit depth                                : 8 bits
Scan type                                : Progressive
Bits/(Pixel*Frame)                       : 0.055
Stream size                              : 835 MiB (83%)
Title                                    : Shadow (BonsaiHD.Online)
Default                                  : Yes
Forced                                   : No

Audio
ID                                       : 3
Format                                   : AAC LC
Format/Info                              : Advanced Audio Codec Low Complexity
Codec ID                                 : A_AAC-2
Duration                                 : 2 h 7 min
Bit rate                                 : 192 kb/s
Channel(s)                               : 6 channels
Channel layout                           : C L R Ls Rs LFE
Sampling rate                            : 48.0 kHz
Frame rate                               : 46.875 FPS (1024 SPF)
Compression mode                         : Lossy
Stream size                              : 172 MiB (17%)
Title                                    : Shadow (BonsaiHD.Online)
Language                                 : Hindi
Default                                  : Yes
Forced                                   : No

Text
ID                                       : 2
Format                                   : UTF-8
Codec ID                                 : S_TEXT/UTF8
Codec ID/Info                            : UTF-8 Plain Text
Duration                                 : 2 h 3 min
Bit rate                                 : 60 b/s
Count of elements                        : 1834
Stream size                              : 54.6 KiB (0%)
Title                                    : Shadow (BonsaiHD.Online)
Language                                 : English
Default                                  : Yes
Forced                                   : No


YouTube Video:
Category:Movies
Language:Hindi  Hindi
Total Size:1,008.82 MB
Info Hash:E49E84FCC785510C0A4303E2067E0727E53D18A4
Added By:trueHD Verified Uploader
Date Added:2020-07-31 02:06:38
Torrent Status:Torrent Verified


Ratings:Not Yet Rated (Log in to rate it)


Tracker:
udp://tracker.coppersurfer.tk:6969/announce

This Torrent also has backup trackers
URLSeedersLeechersCompleted
udp://tracker.coppersurfer.tk:6969/announce000
udp://tracker.leechers-paradise.org:6969/announce9017376,043
udp://tracker.cyberia.is:6969/announce7225043,250
http://tracker.nyap2p.com:8080/announce2,7012,6015,544
udp://p4p.arenabg.com:1337/announce7235112,212
udp://explodie.org:6969/announce2082310
udp://tracker.opentrackr.org:1337/announce7185342,594
udp://tracker.tiny-vps.com:6969/announce9175352,914
udp://exodus.desync.com:6969/announce5843761,649
udp://tracker.torrent.eu.org:451/announce9885132,756
udp://tracker.moeking.me:6969/announce8294581,488
udp://ipv4.tracker.harry.lu:80/announce2012510
udp://open.stealth.si:80/announce7414892,661
udp://9.rarbg.to:2710/announce000
udp://opentor.org:2710/announce7566281


File List: 





Comments

[Report] Posted: 01-08-2020 at 04:49:06
Portos

avatar

profile message
Ty