Login
Username:
Password:
Remember Me:
[Signup]
[Recover Account]
Friends
BTScene
Friendly site

Ale Torrenty Team
Friendly site

Anime RG
Friendly site

KaranPC
Friendly site

P2PDL.com
Friendly site

Free Tutorials & Courses
Friendly site
Torrent Details For "Transformers.The.Last.Knight.2017.720p.WEB-DL.DD5.1.x264-iFT"

Transformers.The.Last.Knight.2017.720p.WEB-DL.DD5.1.x264-iFT

To download this torrent, you need a BitTorrent client: Vuze or BTGuard
Download this torrent
Download using Magnet Link

Direct Download - no client needed

Download Faster - High Speed Download

Health:
Seeds: 1
Leechers: 0
Completed:
Last Checked: 13-09-2017 05:34:56

Uploader Reputation points : 113772
External: Torrent




Write a Review for the Uploader:   55   Say Thanks with one good review:
Share on Facebook


Details
Name:Transformers.The.Last.Knight.2017.720p.WEB-DL.DD5.1.x264-iFT
Description:
Transformers.The.Last.Knight.2017.720p.WEB-DL.DD5.1.x264-iFT

ImDb: http://www.imdb.com/title/tt3371366



Complete name                            : Transformers.The.Last.Knight.2017.720p.WEB-DL.DD5.1.x264-iFT.mkv
Format                                   : Matroska
Format version                           : Version 4 / Version 2
File size                                : 3.52 GiB
Duration                                 : 2 h 34 min
Overall bit rate                         : 3 258 kb/s
Movie name                               : Transformers.The.Last.Knight.2017.720p.WEB-DL.DD5.1.x264-iFT
Encoded date                             : UTC 2017-09-13 04:12:06
Writing application                      : mkvmerge v8.9.0 ('Father Daughter') 64bit
Writing library                          : libebml v1.3.3 + libmatroska v1.4.4

Video
ID                                       : 1
Format                                   : AVC
Format/Info                              : Advanced Video Codec
Format profile                           : [email protected]
Format settings, CABAC                   : Yes
Format settings, ReFrames                : 9 frames
Codec ID                                 : V_MPEG4/ISO/AVC
Duration                                 : 2 h 34 min
Bit rate                                 : 2 872 kb/s
Width                                    : 1 280 pixels
Height                                   : 672 pixels
Display aspect ratio                     : 1.905
Frame rate mode                          : Constant
Frame rate                               : 23.976 (24000/1001) FPS
Color space                              : YUV
Chroma subsampling                       : 4:2:0
Bit depth                                : 8 bits
Scan type                                : Progressive
Bits/(Pixel*Frame)                       : 0.139
Stream size                              : 3.10 GiB (88%)
Title                                    : Transformers.The.Last.Knight.2017.720p.WEB-DL.DD5.1.x264-iFT
Writing library                          : x264 core 142 r2431+42 c69a006 tMod [[email protected] X86_64]
Encoding settings                        : cabac=1 / ref=9 / deblock=1:-3:-3 / analyse=0x3:0x133 / me=umh / subme=7 / psy=1 / fade_compensate=0.00 / psy_rd=1.00:0.15 / mixed_ref=1 / me_range=48 / chroma_me=1 / trellis=2 / 8x8dct=1 / cqm=0 / deadzone=21,11 / fast_pskip=1 / chroma_qp_offset=-3 / threads=16 / lookahead_threads=5 / sliced_threads=0 / nr=0 / decimate=1 / interlaced=0 / bluray_compat=0 / constrained_intra=0 / fgo=0 / bframes=7 / b_pyramid=2 / b_adapt=2 / b_bias=0 / direct=3 / weightb=1 / open_gop=0 / weightp=2 / keyint=240 / keyint_min=23 / scenecut=40 / intra_refresh=0 / rc_lookahead=60 / rc=crf / mbtree=1 / crf=21.5000 / qcomp=0.60 / qpmin=0:0:0 / qpmax=69:69:69 / qpstep=4 / vbv_maxrate=50000 / vbv_bufsize=62500 / crf_max=0.0 / nal_hrd=none / filler=0 / ip_ratio=1.40 / aq=1:1.00 / aq-sensitivity=10.00 / aq-factor=1.00:1.00:1.00 / aq2=0 / aq3=0
Default                                  : Yes
Forced                                   : No
Color range                              : Limited
Color primaries                          : BT.709
Transfer characteristics                 : BT.709
Matrix coefficients                      : BT.709

Audio
ID                                       : 2
Format                                   : AC-3
Format/Info                              : Audio Coding 3
Format settings, Endianness              : Big
Codec ID                                 : A_AC3
Duration                                 : 2 h 34 min
Bit rate mode                            : Constant
Bit rate                                 : 384 kb/s
Channel(s)                               : 6 channels
Channel positions                        : Front: L C R, Side: L R, LFE
Sampling rate                            : 48.0 kHz
Frame rate                               : 31.250 FPS (1536 spf)
Bit depth                                : 16 bits
Compression mode                         : Lossy
Stream size                              : 424 MiB (12%)
Language                                 : English
Service kind                             : Complete Main
Default                                  : Yes
Forced                                   : No

Text
ID                                       : 3
Format                                   : UTF-8
Codec ID                                 : S_TEXT/UTF8
Codec ID/Info                            : UTF-8 Plain Text
Duration                                 : 2 h 24 min
Bit rate                                 : 66 b/s
Count of elements                        : 2216
Stream size                              : 70.5 KiB (0%)
Language                                 : English
Default                                  : Yes
Forced                                   : No

Menu
00:00:00.000                             : en:1
00:06:34.000                             : en:2
00:14:01.000                             : en:3
00:21:43.000                             : en:4
00:27:50.000                             : en:5
00:33:36.000                             : en:6
00:39:58.000                             : en:7
00:46:48.000                             : en:8
00:53:14.000                             : en:9
01:01:51.000                             : en:10
01:08:35.000                             : en:11
01:14:25.000                             : en:12
01:19:57.000                             : en:13
01:29:00.000                             : en:14
01:37:45.000                             : en:15
01:44:43.000                             : en:16
01:51:01.000                             : en:17
01:57:44.000                             : en:18
02:05:54.000                             : en:19
02:10:38.000                             : en:20
02:15:45.000                             : en:21
02:21:26.000                             : en:22
02:25:00.000                             : en:23






Click To View Screenshot

Click To View Screenshot

Click To View Screenshot
YouTube Video:
Category:Movies
Language:English  English
Total Size:3.55 GB
Info Hash:5C213CF45C2F7C743FBFAC0700EC226BA65B2176
Added By:Simmoncelli VIPMovie Pirate
Date Added:13-09-2017 05:34:56
Torrent Status:Torrent Verified


Ratings:Not Yet Rated (Log in to rate it)


Tracker:
udp://tracker.coppersurfer.tk:6969/announce

This Torrent also has backup trackers
URLSeedersLeechersCompleted
udp://tracker.coppersurfer.tk:6969/announce000
udp://tracker.pirateparty.gr:6969/announce000
udp://shadowshq.yi.org:6969/announce000
udp://eddie4.nl:6969/announce000
udp://tracker.leechers-paradise.org:6969/announce000
udp://tracker.opentrackr.org:1337/announce000
udp://p4p.arenabg.ch:1337/announce000
udp://p4p.arenabg.com:1337/announce000
udp://9.rarbg.me:2710/announce000
udp://9.rarbg.to:2710/announce000
udp://ipv4.tracker.harry.lu:80/announce000
udp://tracker.grepler.com:6969/announce000
udp://public.popcorn-tracker.org:6969/announce000
udp://tracker.opentrackr.org:1337/announce000
udp://tracker.zer0day.to:1337/announce000


File List: 





Comments
No comments still posted