Download Various Artists - Vocal Trance Legends - Vol 2 (2019) MP3-was95 torrent - GloDLS
Torrent Details For "Various Artists - Vocal Trance Legends - Vol 2 (2019) MP3-was95"

Various Artists - Vocal Trance Legends - Vol 2 (2019) MP3-was95

To download this torrent, you need a BitTorrent client: Vuze or BTGuard
Download this torrent
Download using Magnet Link

Health:
Seeds: 44
Leechers: 12
Completed: 1,279 
Last Checked: 13-09-2019 11:34:09

Uploader Reputation points : 618
External: Torrent






Write a Review for the Uploader:   5   Say Thanks with one good review:
Share on Facebook


Details
Name:Various Artists - Vocal Trance Legends - Vol 2 (2019) MP3-was95
Description:


Quality-MP3 - 320kb
Release-2019
Duration-00:55:22
File Size-948.8 MB
Genre-Trance
Cover Size-1200px

?----------------------------------------------------------------------------------------------
Analyzed: Vocal Trance Legends - Vol 2 /  Artist: Various Artists
----------------------------------------------------------------------------------------------
DR Peak RMS Duration Title [codec]
----------------------------------------------------------------------------------------------
DR5 -0.00 dB -7.22 dB 4:12 01 - Only Summer Knows (Radio Edit) [mp3]
DR4 -0.00 dB -7.14 dB 3:49 02 - Angry Skies (James Dymond Remix) [mp3]
DR4 -0.00 dB -6.79 dB 3:20 03 - Old Flame [mp3]
DR4 -0.00 dB -6.77 dB 3:49 04 - Daylight (Amir Hussain Remix) [mp3]
DR3 -0.00 dB -6.44 dB 3:23 05 - Meteorite [mp3]
DR5 -0.00 dB -8.80 dB 3:43 06 - Letting Me Go (Radio Edit) [mp3]
DR5 -0.00 dB -7.20 dB 3:37 07 - A Hundred Ways (Temple One Radio Edit) [mp3]
DR6 -0.00 dB -8.07 dB 3:35 08 - Ask Me Anything (Robert Nickson Remix) [mp3]
DR5 -0.00 dB -6.80 dB 3:25 09 - Gone (Steve Allen Remix) [mp3]
DR7 -0.00 dB -9.29 dB 3:41 10 - Endless Sleep (Radio Edit) [mp3]
DR4 -0.00 dB -5.69 dB 3:46 11 - Letting Go (Ikerya Project Remix) [mp3]
DR4 -0.00 dB -6.99 dB 4:08 12 - Sail The Stormy Waters [mp3]
DR3 -0.00 dB -5.89 dB 3:14 13 - The Gift of Giving [mp3]
DR5 -0.00 dB -6.47 dB 3:37 14 - Time Travel Away (Radio Edit) [mp3]
DR5 -0.00 dB -7.99 dB 3:49 15 - In My Heart (Radio Edit) [mp3]
----------------------------------------------------------------------------------------------
Number of files:    15
Official DR value:  DR5

Sampling rate: 44100 Hz
Average bitrate: 328kbs
Bits per sample: 16 bit
YouTube Video:
Category:Music
Language:Aucune/N/D
Total Size:130.07 MB
Info Hash:817FED6510E7630A5D26F9C1A9105AE60C973DBE
Added By:was95was Verified UploaderMusic Lover
Date Added:2019-08-16 00:40:43
Torrent Status:Torrent Verified


Ratings:Not Yet Rated (Log in to rate it)


Tracker:
udp://tracker.piratepublic.com:1337/announce

This Torrent also has backup trackers
URLSeedersLeechersCompleted
udp://tracker.piratepublic.com:1337/announce000
udp://tracker.pirateparty.gr:6969/announce52211
udp://tracker.coppersurfer.tk:6969/announce52211
udp://tracker.leechers-paradise.org:6969/announce5130
udp://9.rarbg.com:2710/announce204
http://p4p.arenabg.com:1337/announce000
http://explodie.org:6969/announce31116
udp://tracker.opentrackr.org:1337/announce51150
udp://exodus.desync.com:6969/announce31130
udp://tracker.leechers-paradise.org:6969/announce5130
udp://tracker.zer0day.to:1337/announce000
udp://open.demonii.si:1337/announce41155
udp://exodus.desync.com:6969/announce31130
udp://tracker.iamhansen.xyz:2000/announce41112


File List: 





Comments
No comments still posted