Download Ardaas Karaan (2019) 720p Punjabi WEB-HDRip x264 AAC DD 2 0 ESub By Full4Movies mkv torrent - GloDLS
Login
Username:
Password:
Remember Me:
[Signup]
[Recover Account]
Friends
Angie Torrents
Friendly Site

Pirateiro
Friendly site

Free Courses Online
Friendly site

ETTV
Friendly site

ProStyleX
Friendly site

KaranPC
Friendly site

P2PDL.com
Friendly site

OneHack
Friendly site

IGGGames
Friendly site

HTML tutorial
Torrent Details For "Ardaas Karaan (2019) 720p Punjabi WEB-HDRip x264 AAC DD 2 0 ESub By Full4Movies mkv"

Ardaas Karaan (2019) 720p Punjabi WEB-HDRip x264 AAC DD 2 0 ESub By Full4Movies mkv

To download this torrent, you need a BitTorrent client: Vuze or BTGuard
Download this torrent
Download using Magnet Link

Health:
Seeds: 17
Leechers: 29
Completed: 13 
Last Checked: 14-10-2021 05:56:55

Uploader Reputation points : 6790





Write a Review for the Uploader:   5   Say Thanks with one good review:
Share on Facebook


Details
Name:Ardaas Karaan (2019) 720p Punjabi WEB-HDRip x264 AAC DD 2 0 ESub By Full4Movies mkv
Description:


Visit Us = https://www.full4movies.site/




General
Complete name                  : Ardaas Karaan (2019) 720p Punjabi WEB-HDRip x264 AAC DD 2.0 ESub By Full4Movies.mkv
Format                         : Matroska
Format version                 : Version 4
File size                      : 1.11 GiB
Duration                       : 2 h 19 min
Overall bit rate               : 1 133 kb/s
Encoded date                   : UTC 2021-10-12 18:21:31
Writing application            : mkvmerge v8.3.0 ('Over the Horizon') 64bit
Writing library                : libebml v1.3.1 + libmatroska v1.4.2
Attachments                    : +Full4Movies.jpg

Video
ID                             : 1
Format                         : AVC
Format/Info                    : Advanced Video Codec
Format profile                 : [email protected]
Format settings                : CABAC / 4 Ref Frames
Format settings, CABAC         : Yes
Format settings, Reference fra : 4 frames
Codec ID                       : V_MPEG4/ISO/AVC
Duration                       : 2 h 19 min
Bit rate                       : 1 000 kb/s
Width                          : 1 280 pixels
Height                         : 530 pixels
Display aspect ratio           : 2.40:1
Frame rate mode                : Constant
Frame rate                     : 23.976 (24000/1001) FPS
Color space                    : YUV
Chroma subsampling             : 4:2:0
Bit depth                      : 8 bits
Scan type                      : Progressive
Bits/(Pixel*Frame)             : 0.061
Stream size                    : 1 003 MiB (88%)
Writing library                : x264 core 142 r2479 dd79a61
Default                        : Yes
Forced                         : No
Color range                    : Limited
Color primaries                : BT.709
Transfer characteristics       : BT.709
Matrix coefficients            : BT.709

Audio
ID                             : 2
Format                         : AAC LC
Format/Info                    : Advanced Audio Codec Low Complexity
Codec ID                       : A_AAC-2
Duration                       : 2 h 19 min
Bit rate                       : 128 kb/s
Channel(s)                     : 2 channels
Channel layout                 : L R
Sampling rate                  : 48.0 kHz
Frame rate                     : 46.875 FPS (1024 SPF)
Compression mode               : Lossy
Delay relative to video        : -21 ms
Stream size                    : 128 MiB (11%)
Language                       : Panjabi
Default                        : Yes
Forced                         : No

Text #1
ID                             : 3
Format                         : ASS
Codec ID                       : S_TEXT/ASS
Codec ID/Info                  : Advanced Sub Station Alpha
Duration                       : 2 h 18 min
Bit rate                       : 123 b/s
Count of elements              : 2138
Compression mode               : Lossless
Stream size                    : 126 KiB (0%)
Language                       : English
Default                        : No
Forced                         : No

Text #2
ID                             : 4
Format                         : ASS
Codec ID                       : S_TEXT/ASS
Codec ID/Info                  : Advanced Sub Station Alpha
Duration                       : 2 h 18 min
Bit rate                       : 123 b/s
Count of elements              : 2134
Compression mode               : Lossless
Stream size                    : 126 KiB (0%)
Language                       : English
Default                        : No
Forced                         : No

Screen Shoots
YouTube Video:
Category:Movies
Language:Aucune/N/D
Total Size:1.11 GB
Info Hash:911D4992C7F19BE920CCB12E7404C6424A654388
Added By:india4movie Verified Uploader
Date Added:2021-10-14 10:25:29
Torrent Status:Torrent Verified


Ratings:Not Yet Rated (Log in to rate it)


Tracker:
udp://tracker.opentrackr.org:1337/announce

This Torrent also has backup trackers
URLSeedersLeechersCompleted
udp://tracker.opentrackr.org:1337/announce495
udp://9.rarbg.me:2790/announce241
udp://9.rarbg.to:2800/announce241
http://tracker.dler.org:6969/announce000
udp://tracker.internetwarriors.net:1337/announce000
udp://open.stealth.si:80/announce342
udp://fasttracker.foreverpirates.co:6969/announce000
udp://tracker.uw0.xyz:6969/announce000
udp://tracker.dler.org:6969/announce000
udp://opentor.org:2710/announce342
udp://open.stealth.si:80/announce342
udp://9.rarbg.me:2980/announce000
udp://tracker.openbittorrent.com:80/announce000


File List: 





Comments
No comments still posted