Download City of Dreams (2019) HEVC 720p WEB-HDRip Hindi ORG S01 (EP 01 TO 10) x264 AAC DD 2 0 By Full4Movies torrent - GloDLS
HTML tutorial
Torrent Details For "City of Dreams (2019) HEVC 720p WEB-HDRip Hindi ORG S01 (EP 01 TO 10) x264 AAC DD 2 0..."

City of Dreams (2019) HEVC 720p WEB-HDRip Hindi ORG S01 (EP 01 TO 10) x264 AAC DD 2 0...

To download this torrent, you need a BitTorrent client: Vuze or BTGuard
Download this torrent
Download using Magnet Link

Health:
Seeds: 35
Leechers: 5
Completed: 1,222 
Last Checked: 19-08-2021 00:19:14

Uploader Reputation points : 6388





Write a Review for the Uploader:   5   Say Thanks with one good review:
Share on Facebook


Details
Name:City of Dreams (2019) HEVC 720p WEB-HDRip Hindi ORG S01 (EP 01 TO 10) x264 AAC DD 2 0...
Description:


Visit Us = https://www.full4movies.org/



General
Complete name                  : City of Dreams (2019) HEVC 720p WEB-HDRip Hindi ORG S01 (EP 01 TO 10) x264 AAC DD 2.0 By Full4Movies
Format                         : Matroska
Format version                 : Version 4 / Version 2
File size                      : 961 MiB
Duration                       : 3 h 14 min
Overall bit rate               : 689 kb/s
Encoded date                   : UTC 2021-08-01 07:50:21
Writing application            : mkvmerge v8.3.0 ('Over the Horizon') 64bit
Writing library                : libebml v1.3.1 + libmatroska v1.4.2
Attachments                    : 383845052472320.jpg

Video
ID                             : 1
Format                         : HEVC
Format/Info                    : High Efficiency Video Coding
Format profile                 : [email protected]@Main
Codec ID                       : V_MPEGH/ISO/HEVC
Duration                       : 3 h 14 min
Bit rate                       : 623 kb/s
Width                          : 1 280 pixels
Height                         : 720 pixels
Display aspect ratio           : 16:9
Frame rate mode                : Constant
Frame rate                     : 25.000 FPS
Color space                    : YUV
Chroma subsampling             : 4:2:0
Bit depth                      : 8 bits
Bits/(Pixel*Frame)             : 0.027
Stream size                    : 868 MiB (90%)
Writing library                : x265 2.1:[Windows][GCC 5.3.1][64 bit] 8bit
Default                        : Yes
Forced                         : No
Color range                    : Limited
Color primaries                : BT.709
Transfer characteristics       : BT.709
Matrix coefficients            : BT.709

Audio
ID                             : 2
Format                         : AAC
Format/Info                    : Advanced Audio Codec
Format profile                 : HE-AAC / LC
Codec ID                       : A_AAC
Duration                       : 3 h 14 min
Bit rate                       : 64.4 kb/s
Channel(s)                     : 2 channels
Channel positions              : Front: L R
Sampling rate                  : 96.0 kHz / 48.0 kHz
Frame rate                     : 46.875 FPS (1024 SPF)
Compression mode               : Lossy
Stream size                    : 89.7 MiB (9%)
Language                       : Hindi
Default                        : Yes
Forced                         : No

Text #1
ID                             : 3
Format                         : UTF-8
Codec ID                       : S_TEXT/UTF8
Codec ID/Info                  : UTF-8 Plain Text
Duration                       : 3 h 12 min
Bit rate                       : 50 b/s
Count of elements              : 2209
Stream size                    : 70.8 KiB (0%)
Title                          : ESub
Language                       : English
Default                        : No
Forced                         : No

Screen Shoots







YouTube Video:
Category:TV
Language:Hindi  Hindi
Total Size:2.05 GB
Info Hash:C4F5D9496A09A87B6629ADF4191B7FCE54192169
Added By:india4movie Verified Uploader
Date Added:2021-08-01 18:32:42
Torrent Status:Torrent Verified


Ratings:Not Yet Rated (Log in to rate it)


Tracker:
udp://tracker.opentrackr.org:1337/announce

This Torrent also has backup trackers
URLSeedersLeechersCompleted
udp://tracker.opentrackr.org:1337/announce94494
udp://tracker.cyberia.is:6969/announce000
udp://9.rarbg.me:2980/announce6010
udp://open.stealth.si:80/announce40147
udp://exodus.desync.com:6969/announce20111
udp://tracker.moeking.me:6969/announce30115
udp://explodie.org:6969/announce000
udp://tracker.openbittorrent.com:80/announce3110
udp://inferno.demonoid.is:3391/announce001
udp://tracker.torrent.eu.org:451/announce30137
udp://ipv4.tracker.harry.lu:80/announce000
udp://tracker.uw0.xyz:6969/announce3086
udp://tracker.coppersurfer.tk:6969/announce000
udp://exodus.desync.com:6969/announce20111
udp://tracker.tiny-vps.com:6969/announce000


File List: 





Comments
No comments still posted