Download Defying Chase (2018) 480p WEB-HDRip Dual Audio [Hindi ORG DD 2 0 + Chinese] x264 AAC By Full4Movies mkv torrent - GloDLS
Login
Username:
Password:
Remember Me:
[Signup]
[Recover Account]
Friends
Angie Torrents
Friendly Site

Pirateiro
Friendly site

Free Courses Online
Friendly site

ETTV
Friendly site

ProStyleX
Friendly site

KaranPC
Friendly site

P2PDL.com
Friendly site

OneHack
Friendly site

IGGGames
Friendly site

HTML tutorial
Torrent Details For "Defying Chase (2018) 480p WEB-HDRip Dual Audio [Hindi ORG DD 2 0 + Chinese] x264 AAC ..."

Defying Chase (2018) 480p WEB-HDRip Dual Audio [Hindi ORG DD 2 0 + Chinese] x264 AAC ...

To download this torrent, you need a BitTorrent client: Vuze or BTGuard
Download this torrent
Download using Magnet Link

Health:
Seeds: 1
Leechers: 0
Completed:
Last Checked: 14-10-2021 02:25:52

Uploader Reputation points : 6790





Write a Review for the Uploader:   5   Say Thanks with one good review:
Share on Facebook


Details
Name:Defying Chase (2018) 480p WEB-HDRip Dual Audio [Hindi ORG DD 2 0 + Chinese] x264 AAC ...
Description:


Visit Us = https://www.full4movies.site/



General
Complete name                  : Defying Chase (2018) 480p WEB-HDRip Dual Audio [Hindi ORG DD 2.0 + Chinese] x264 AAC  By Full4Movies.mkv
Format                         : Matroska
Format version                 : Version 4
File size                      : 305 MiB
Duration                       : 1 h 26 min
Overall bit rate               : 490 kb/s
Encoded date                   : UTC 2021-10-12 11:03:44
Writing application            : mkvmerge v8.3.0 ('Over the Horizon') 64bit
Writing library                : libebml v1.3.1 + libmatroska v1.4.2
Attachments                    : +Full4Movies.jpg

Video
ID                             : 1
Format                         : AVC
Format/Info                    : Advanced Video Codec
Format profile                 : [email protected]
Format settings                : CABAC / 8 Ref Frames
Format settings, CABAC         : Yes
Format settings, Reference fra : 8 frames
Codec ID                       : V_MPEG4/ISO/AVC
Duration                       : 1 h 26 min
Bit rate                       : 400 kb/s
Width                          : 720 pixels
Height                         : 310 pixels
Display aspect ratio           : 2.35:1
Original display aspect ratio  : 2.35:1
Frame rate mode                : Constant
Frame rate                     : 24.000 FPS
Color space                    : YUV
Chroma subsampling             : 4:2:0
Bit depth                      : 8 bits
Scan type                      : Progressive
Bits/(Pixel*Frame)             : 0.075
Stream size                    : 249 MiB (82%)
Writing library                : x264 core 148 r2708 86b7198
Default                        : Yes
Forced                         : No
Color range                    : Limited
Color primaries                : BT.709
Transfer characteristics       : BT.709
Matrix coefficients            : BT.709

Audio #1
ID                             : 2
Format                         : AAC LC SBR
Format/Info                    : Advanced Audio Codec Low Complexity with Spectral Band Replication
Commercial name                : HE-AAC
Format settings                : NBC
Codec ID                       : A_AAC-5
Duration                       : 1 h 26 min
Bit rate                       : 56.0 kb/s
Channel(s)                     : 2 channels
Channel layout                 : L R
Sampling rate                  : 48.0 kHz
Frame rate                     : 23.438 FPS (2048 SPF)
Compression mode               : Lossy
Stream size                    : 34.8 MiB (11%)
Language                       : Hindi
Default                        : Yes
Forced                         : Yes

Audio #2
ID                             : 3
Format                         : AAC LC SBR
Format/Info                    : Advanced Audio Codec Low Complexity with Spectral Band Replication
Commercial name                : HE-AAC
Format settings                : NBC
Codec ID                       : A_AAC-5
Duration                       : 1 h 26 min
Bit rate                       : 32.0 kb/s
Channel(s)                     : 2 channels
Channel layout                 : L R
Sampling rate                  : 48.0 kHz
Frame rate                     : 23.438 FPS (2048 SPF)
Compression mode               : Lossy
Stream size                    : 19.9 MiB (7%)
Default                        : No
Forced                         : No

Screen Shoots
YouTube Video:
Category:Movies
Language:Dubs/Dual Audio
Total Size:304.71 MB
Info Hash:84B88341D620806C7E407D7F7BE0B227C92E13AF
Added By:india4movie Verified Uploader
Date Added:2021-10-14 09:25:51
Torrent Status:Torrent Verified


Ratings:Not Yet Rated (Log in to rate it)


Tracker:
udp://tracker.opentrackr.org:1337/announce

This Torrent also has backup trackers
URLSeedersLeechersCompleted
udp://tracker.opentrackr.org:1337/announce000
udp://9.rarbg.me:2790/announce000
udp://9.rarbg.to:2800/announce000
http://tracker.dler.org:6969/announce000
udp://tracker.internetwarriors.net:1337/announce000
udp://open.stealth.si:80/announce000
udp://fasttracker.foreverpirates.co:6969/announce000
udp://tracker.uw0.xyz:6969/announce000
udp://tracker.dler.org:6969/announce000
udp://opentor.org:2710/announce000
udp://open.stealth.si:80/announce000
udp://9.rarbg.me:2980/announce000
udp://tracker.openbittorrent.com:80/announce000


File List: 





Comments
No comments still posted