Download Hellboy (2019) 1080p BluRay Dual Audio [Hindi ORG DD 5 1 + English] x264 AAC ESub By Full4Movies mkv torrent - GloDLS
HTML tutorial
Torrent Details For "Hellboy (2019) 1080p BluRay Dual Audio [Hindi ORG DD 5 1 + English] x264 AAC ESub By ..."

Hellboy (2019) 1080p BluRay Dual Audio [Hindi ORG DD 5 1 + English] x264 AAC ESub By ...

To download this torrent, you need a BitTorrent client: Vuze or BTGuard
Download this torrent
Download using Magnet Link

Health:
Seeds: 3
Leechers: 0
Completed:
Last Checked: 14-10-2021 04:03:07

Uploader Reputation points : 6790





Write a Review for the Uploader:   5   Say Thanks with one good review:
Share on Facebook


Details
Name:Hellboy (2019) 1080p BluRay Dual Audio [Hindi ORG DD 5 1 + English] x264 AAC ESub By ...
Description:


Visit Us = https://www.full4movies.site/




General
Complete name                  : Hellboy (2019) 1080p BluRay Dual Audio [Hindi ORG DD 5.1 + English] x264 AAC ESub By Full4Movies.mkv
Format                         : Matroska
Format version                 : Version 4
File size                      : 2.05 GiB
Duration                       : 2 h 1 min
Overall bit rate               : 2 427 kb/s
Encoded date                   : UTC 2021-10-13 09:47:40
Writing application            : mkvmerge v8.3.0 ('Over the Horizon') 64bit
Writing library                : libebml v1.3.1 + libmatroska v1.4.2
Attachments                    : +Full4Movies.jpg

Video
ID                             : 1
Format                         : AVC
Format/Info                    : Advanced Video Codec
Format profile                 : [email protected]
Format settings                : CABAC / 4 Ref Frames
Format settings, CABAC         : Yes
Format settings, Reference fra : 4 frames
Codec ID                       : V_MPEG4/ISO/AVC
Duration                       : 2 h 1 min
Bit rate                       : 2 200 kb/s
Width                          : 1 920 pixels
Height                         : 800 pixels
Display aspect ratio           : 2.40:1
Frame rate mode                : Constant
Frame rate                     : 23.976 (24000/1001) FPS
Color space                    : YUV
Chroma subsampling             : 4:2:0
Bit depth                      : 8 bits
Scan type                      : Progressive
Bits/(Pixel*Frame)             : 0.060
Stream size                    : 1.86 GiB (91%)
Writing library                : x264 core 142 r2479 dd79a61
Default                        : Yes
Forced                         : No
Color range                    : Limited
Color primaries                : BT.709
Transfer characteristics       : BT.709
Matrix coefficients            : BT.709

Audio #1
ID                             : 2
Format                         : AAC LC SBR
Format/Info                    : Advanced Audio Codec Low Complexity with Spectral Band Replication
Commercial name                : HE-AAC
Format settings                : NBC
Codec ID                       : A_AAC-5
Duration                       : 2 h 1 min
Bit rate                       : 128 kb/s
Channel(s)                     : 6 channels
Channel layout                 : C L R Ls Rs LFE
Sampling rate                  : 48.0 kHz
Frame rate                     : 23.438 FPS (2048 SPF)
Compression mode               : Lossy
Delay relative to video        : -83 ms
Stream size                    : 111 MiB (5%)
Language                       : Hindi
Default                        : Yes
Forced                         : No

Audio #2
ID                             : 3
Format                         : AAC LC SBR
Format/Info                    : Advanced Audio Codec Low Complexity with Spectral Band Replication
Commercial name                : HE-AAC
Format settings                : NBC
Codec ID                       : A_AAC-5
Duration                       : 2 h 1 min
Bit rate                       : 80.0 kb/s
Channel(s)                     : 2 channels
Channel layout                 : L R
Sampling rate                  : 48.0 kHz
Frame rate                     : 23.438 FPS (2048 SPF)
Compression mode               : Lossy
Delay relative to video        : -83 ms
Stream size                    : 69.3 MiB (3%)
Language                       : English
Default                        : No
Forced                         : No

Text
ID                             : 4
Format                         : PGS
Muxing mode                    : zlib
Codec ID                       : S_HDMV/PGS
Codec ID/Info                  : Picture based subtitle format used on BDs/HD-DVDs
Duration                       : 2 h 0 min
Bit rate                       : 17.4 kb/s
Count of elements              : 2726
Stream size                    : 15.0 MiB (1%)
Language                       : English
Default                        : No
Forced                         : No

Screen Shoots
YouTube Video:
Category:Movies
Language:Hindi  Hindi
Total Size:2.05 GB
Info Hash:6D266FF7046F40FD999B45B4915138061F39B22D
Added By:india4movie Verified Uploader
Date Added:2021-10-14 11:03:05
Torrent Status:Torrent Verified


Ratings:Not Yet Rated (Log in to rate it)


Tracker:
udp://tracker.opentrackr.org:1337/announce

This Torrent also has backup trackers
URLSeedersLeechersCompleted
udp://tracker.opentrackr.org:1337/announce000
udp://9.rarbg.me:2790/announce000
udp://9.rarbg.to:2800/announce000
http://tracker.dler.org:6969/announce000
udp://tracker.internetwarriors.net:1337/announce000
udp://open.stealth.si:80/announce000
udp://fasttracker.foreverpirates.co:6969/announce000
udp://tracker.uw0.xyz:6969/announce000
udp://tracker.dler.org:6969/announce000
udp://opentor.org:2710/announce000
udp://open.stealth.si:80/announce000
udp://9.rarbg.me:2980/announce000
udp://tracker.openbittorrent.com:80/announce000


File List: 





Comments
No comments still posted