GloDLS.to - Download Movies, TV, Games and Other Torrents Free RSS 2.0enGloDLS.to - Download Movies, TV, Games and Other Torrents FreeGloDLS.to - Download Movies, TV, Games and Other Torrents Free RSS Feedhttp://glodls.toCopyright GloDLS.to - Download Movies, TV, Games and Other Torrents FreeSun, 28 May 2017 19:21:50 +0100 [MyFirstSexTeacher/NaughtyAmerica]Alura Jenson - Busty Blonde Sexuality Teacher http://glodls.to/torrent.php?id=2539703 http://glodls.to/torrent.php?id=2539703 Sun, 28 May 2017 18:20:58 +0100 Adult XXX [center][URL=http://damimage.com/img-592b137035eb4.html][IMG]http://damimage.com/upload/small/2017/05/28/592b137035e7a.jpg[/IMG][/URL]
[size=4]
Alura Jenson - Busty Blonde Sexuality Teacher
Category: 69, Big Ass, Big Dick, Big Fake Tits, Blow Job, Caucasian, Curvy Woman, Deepthroating, High Heels, Innie Pussy, Mature
File size: 417 MB
Duration:25 mins

[b]SCREENS:[/b]

[url]http://imgclick.net/46bupy6rrhg8/Alura_Jenson_v2.jpg.html[/url]
[url]http://damimage.com/img-592b137d65709.html[/url]

[b]SHOOT:[/b]
[url]http://imageteam.org/img-592b14a2d0156.html[/url]
[/size]
[/center] ]]>
LeosJanacekJealousyTarasBulbaGlagoliticMass http://glodls.to/torrent.php?id=2539702 http://glodls.to/torrent.php?id=2539702 Sun, 28 May 2017 18:19:14 +0100 Music

Actors: Czech Philharmonic Orchestra, Charles Mackerras, Prague Philharmonic Choir
Format: Multiple Formats, Classical, NTSC
Language: English, German, French
Region: All Regions
Aspect Ratio: 1.33:1
Number of discs: 1
Studio: Supraphon DVD
DVD Release Date: September 6, 2005


.: Tracklist :.


Sir Charles Mackerras is respected throughout the world as a Janácek authority, propagator, publisher and above all, conductor. He is celebrating his 80th birthday in November with a year full of impressive musical activity.
- He has displayed his deep, lifelong knowledge of Janácek's music countless times both in the great concert halls and opera houses of the world, as well as on numerous recordings.
- Mackerras has received numerous awards, notably in recent years, the 2001 Gramophone Award and two nominations for the 2002 Grammy awards for his recording of Janácek's first opera Sárka.
- His Janácek recordings are also among the highlights of the Supraphon catalogue.
- Supraphon's January 2004 double album of Janácek's complete orchestral works performed by Mackerras and the Czech Philharmonic is now joined by a DVD of the monumental Glagolitic Mass. The DVD also features the overture Jealousy and the orchestral rhapsody Taras Bulba.


Title content:

1. Glagolitic Mass for soloists, chorus, orchestra and organ after an old Slavonic text, 1st version 00:45:27
1. Intrada 00:01:50
2. Introduction / Introitus 00:03:50
3. Gospodi pomiluj / Kyrie eleison 00:04:50
4. Slava / Gloria 00:06:30
5. Veruju / Credo 00:11:20
6. Svet / Sanctus 00:05:50
7. Agnece Bozij / Agnus Dei 00:04:20
8. Postludium 00:04:20
9. Intrada 00:02:20
2. Taras Bulba. Rhapsody for Orchestra 00:25:43
1. The Death of Andri 00:10:20
2. The Death of Ostap 00:04:30
3. The Prophecy and Death of Taras Bulba 00:10:10
3. Jealousy /Original Overture to the Opera Jenufa/ 00:06:13


.: Other Files :.

log+cue+m3u+cover


]]>
TheWhiteBoxxx 17 05 28 Eveline Dellai XXX 480p MP4-TK http://glodls.to/torrent.php?id=2539701 http://glodls.to/torrent.php?id=2539701 Sun, 28 May 2017 18:18:23 +0100 Adult XXX
[b]Screenshots:[/b]

[url]http://imgking.co/imgs-592b1471199d0.html[/url]

[url]http://imgking.co/imgs-592b147110dbf.html[/url]

[url]http://imgking.co/imgs-592b147109c1a.html[/url]

[url]http://imgking.co/imgs-592b14665aabb.html[/url]

File Size : 150 MiB
Duration : 18mn 7s
Video : h264, yuv420p, 854x480p, 1024 Kbps
Audio : aac , 2 ch, stereo , 128 Kbps ]]>
AVG Internet Security 2017 17 1 3006 (x86x64) Multilingual + License Keys http://glodls.to/torrent.php?id=2539700 http://glodls.to/torrent.php?id=2539700 Sun, 28 May 2017 18:17:17 +0100 Apps
AVG Internet Security 2017 - the latest version of an integrated antivirus AVG 2015, available for download and testing. addition to further improve the security features and performance solutions, also added a new feature that allows you to securely and permanently delete files from your hard disk. The functionality available in the context menu of supported file formats and folders. Since this new version brings a variety of changes and improvements to the whole anti-virus solutions, developers offer you to install and test the new anti-virus AVG Internet Security 2014 to test its functioning.

The main components:
- Antivirus and antispyware
- Anti-Rootkit
- Web protection Surf-Shield
- Web Scanner Online Shield
- Privacy statement
- Identity Alert
- Email Scanner
- Anti-spam
- Personal firewall
- PC Analyzer
- The data warehouse
- Additional components
- Great easy to use protection everyone needs
- Permanently delete your most sensitive information
- Encrypt and store your files for added privacy
- The basic tools you must have to control who is able to see and use what you do online
- Ultimate protection for credit card numbers, bank details or other personal information you enter online
- Faster scanning and a faster PC, because antivirus should never slow you down.
- For the ultimate video-viewing experienc
• Refreshed interface – new clean, simple user interface makes it easier than ever to monitor all your layers of protection
• Scan Computer – new scan now quickly looks for malware, unwanted toolbars and browser extensions, and PC performance problems in a single click
• Deep Scan – this new option lets you specifically target hidden threats with a longer, more intensive scan of your entire computer
• Improved identification of never-before-seen threats – by sending potential malware to our servers for deeper analysis, we quickly analyse it, create a fix and push it out to our millions of users to ensure they are protected
• Performance Scan – users get a free scan feature to check how their PC is running. They have the option to purchase AVG TuneUp separately if they find any issues

[img]https://extraimage.net/images/2017/02/19/40b6b8d31aad28e48f757a95ef748706.png[/img] ]]>
Avast! Pro Antivirus, Internet Security & Premier 2017 Final v17 3 2290 0 + Serials http://glodls.to/torrent.php?id=2539699 http://glodls.to/torrent.php?id=2539699 Sun, 28 May 2017 18:15:33 +0100 Apps

The Most Trusted Security – 220 million people choose AVAST to keep them safe online – more than any security company. avast! is the most trusted name in the antivirus industry, actively protecting more than 220 million people around the world. We’ve been protecting devices and data for over 25 years, in over 40 languages, on every populated continent.


[img]https://i2.wp.com/softhound.com/wp-content/uploads/2017/02/avpremier2017.1.png[/img] ]]>
[TheArtPorn] Rebecca Rainbow - Ideas for a Perfect First Date (28 05 2017) rq mp4 http://glodls.to/torrent.php?id=2539698 http://glodls.to/torrent.php?id=2539698 Sun, 28 May 2017 18:14:48 +0100 Adult XXX Audio: aac, 44100 Hz, mono, s16, 64 kb/s (und)
Video: h264, yuv420p, 768x432, 421 kb/s, 25,00 fps(r) (und)

https://imgdrive.net/img-592b132a2d7fb.html

]]>
Advanced SystemCare Pro 10 0 3 620 Multilingual + License Keys http://glodls.to/torrent.php?id=2539697 http://glodls.to/torrent.php?id=2539697 Sun, 28 May 2017 18:14:16 +0100 Apps
Advanced SystemCare 9 PRO provides an always-on, automated, the all-in-one PC optimization utility, specializes in ONE-Click solutions to detect, clean, repair, speed up and eventually protect PC. To better protect users online privacy with Advanced SystemCare 9, Protect tab is newly added, which is designed to provide quick access to protect browsing frombeing tracked by automatically cleaning privacy traces once browser closed and detect and resist the attack of malicious plugin/toolbar by Browser Anti-Tracking and Plugin/Toolbar Cleaner in this tab. Advanced SystemCare 9 is a PC maintenance program that’s incredibly easy to use, the World’s Top System Utility for Superior PC Health! With the novel system technology, Advanced SystemCare empowers you to run your computer faster, more stably and more efficiently than with any other system utilities.

Advanced SystemCare Pro 9 Features:
• Keeps your PC running at peak performance. Fully optimizes Windows for ultimate system performance and top Internet speed by unleashing the built-in power of your system, based on how you use your PC and your network configuration. It turns your PC into a business PC, a productive workstation, an entertainment center, a game machine, or a scientific computing PC.
• Defends PC security with extra protection. Detects and analyzes Windows security environment. Scans and removes spyware and adware using up-to-date definition files in order to prevent spyware, hackers and hijackers from installing malicious programs on your computer. Erases and updates your PC’s activity histories.
• One click to solve as many as 10 common PC problems. Advanced SystemCare inherits the ease-of-use from previous versions, with more powerful capabilities. With one click, it scans and repairs ten PC problems and protects your PC from hidden security threats.
• Real-time optimization with ActiveBoost function. ActiveBoost, technology that actively runs in the background intelligently managing system resources in real-time, constantly detects inactive resources and optimizes CPU and RAM usage.
• More than 20 dedicated smart tools for everyday PC maintenance. Advanced SystemCare integrates IObit’s latest Toolbox, with more than 20 dedicated smart tools for everyday PC maintenance as well as advanced needs. The Toolbox feature has tools for system cleaning, optimizing and repairing, tools for security enhancement, and tools for full control over the PC system.
• Cloud technology to keep database up-to-date. The new “Cloud” technology ensures the database is kept updated at all times so that you can benefit from the latest definitions and configurations.
• Boost your PC for working and gaming. You now have two Turbo Boost options, Work Mode and Game Mode. In addition, you can now adjust the configuration of each mode from the main screen.
• Next-generation registry deep clean and optimizer. Safely cleans registry junk, compacts registry bloats and defragments the whole registry for maximum performance. Finds and fixes the registry errors that other utilities miss with “Deep Scan” technology.
• Automatically works in the background. This powerful utility works continuously, automatically and quietly in the background on your PC. You can set the program on a regular schedule or just let it work automatically when your PC is idle.
• New UI technology for quicker start and less resource usage! With the new UI technology, Advanced SystemCare will start up faster using fewer system resources.
• New architecture and re-written source codes for 32bit/64bit system! These improvements will make your PC work more efficiently and steadily, stabilizing even older systems.
• Improved Care module with more powerful clean and optimization functions. The new developments in the “Care” module include features such as “Start-up Optimization”, which will scan and clean your PC much more effectively.
• Powerful hard drive defragmentation. Fast, powerfully and incredibly effective Disk Defrag function to defragment hard drives – up to 10 times faster than other defragmentation tools.

Whats New :
+ New FaceID - Automatically catches intruders who are secretly accessing your PC and prying into your privacy with new facial recognition technology.
+ No Annoying Ads and Safer Surfing - Removes various online ads and blocks more malicious websites with the larger online database, supporting Google Chrome, Mozilla Firefox, and Internet Explorer.
+ Faster Startup - Optimizes startup items to shorten boot time with new Startup Optimization in Clean & Optimize.
+ Smoother PC - New Resource Manager in Performance Monitor provides an easy way to check the processes taking high RAM/CPU/disk usage in real-time.
+ No Malicious Modification - Redesigned Homepage Protection shields homepage and search engine against malicious modifications.
+ No Privacy Leak - Enhanced Privacy Sweep supports cleaning more programs and Windows apps and secures your privacy.
+ Improved Junk Files Clean - Added cleaning for installed driver packages to free up more disk space.
+ Always Up-to-date Software - Enhanced Software Updater supports to update more popular programs.
+ More Powerful Uninstall - Supported uninstalling more stubborn programs & browser toolbars and removing more malicious & ad-based plug-ins with new IObit Uninstaller 6.
+ Larger Database - Expanded database of Spyware Removal, Real-time Protector, and Registry Fix for a more secure PC.
+ Better Experience - Brand new intuitive UI and decent support for high DPI displays & high resolution screens.
* Supported 36 languages.
* And more can be discovered by you.

[img]https://extraimago.com/images/2016/10/25/05bbafb8dbe9ab31cc646279e1953acc.jpg[/img] ]]>
Viking.Legacy.2016.BRRip.XviD.AC3-iFT http://glodls.to/torrent.php?id=2539696 http://glodls.to/torrent.php?id=2539696 Sun, 28 May 2017 18:12:12 +0100 Movies [color=red][b]
Viking.Legacy.2016.BRRip.XviD.AC3-iFT

[/b][/color]


IMDb: http://www.imdb.com/title/tt5555554/





[url=https://boltimg.com/image/t52z][img]https://boltimg.com/images/t52z.png[/img][/url]



[color=green][b]
General

(Duration): 1h 23mn
(FileSize): 1.37 GiB



Audio

(Format): AC-3 - Audio Coding 3
(Codec): AC3



Video

(Format): MPEG-4 Visual -
(Media): video/MP4V-ES
(Format): XviD
(Resolution): 720x304 px
(AspectRatio): 2.35:1
(FrameRate): 23.976 fps




[/b][/color]


[url=https://boltimg.com/image/tzTE][img]https://boltimg.com/images/tzTE.png[/img][/url]



[color=purple][b](Click to enlarge)[/b][/color]

[url=https://boltimg.com/image/MiKUz][img]https://boltimg.com/images/MiKUz.th.jpg[/img][/url] [url=https://boltimg.com/image/MiPPM][img]https://boltimg.com/images/MiPPM.th.jpg[/img][/url] [url=https://boltimg.com/image/MigiZ][img]https://boltimg.com/images/MigiZ.th.jpg[/img][/url] [url=https://boltimg.com/image/Miw9l][img]https://boltimg.com/images/Miw9l.th.jpg[/img][/url] [url=https://boltimg.com/image/MiMbP][img]https://boltimg.com/images/MiMbP.th.jpg[/img][/url] [url=https://boltimg.com/image/MiQ7e][img]https://boltimg.com/images/MiQ7e.th.jpg[/img][/url]

[/center]
]]>
Acronis True Image 2017 20 0 Build 8053 Multilingual + Activator http://glodls.to/torrent.php?id=2539695 http://glodls.to/torrent.php?id=2539695 Sun, 28 May 2017 18:11:50 +0100 Apps

Acronis True Image 2017 20.0 Build 8053 Multilingual Incl Activator + BootCD

Protect everything with full image backup on Windows and Mac: the operating system, programs, settings, files, and boot information. Back up to external drives, NAS devices, network shares, and cloud with just two clicks. Back up phones and tablets: iPhone, iPad and Android devices. Back up Facebook. Remotely back up for others anywhere in the world. Manage from a touch-friendly online dashboard. And much more!

The Most Complete Personal Backup Software
- Windows, Mac, iOS, Android, & Facebook
- Image backup – local and cloud
- File and folder backup
- Cloud storage and remote access
- File Sync and Share
- Mobile device backup to local computers
- Archive to offload files and free up local disk space
- Touch-enabled UI for computer application and web portal

System Requirements:
- Windows XP SP3 32-bit
- Windows 7 SP1 (all editions)
- Windows 8 (all editions)
- Windows 8.1 (all editions)
- Windows Home Server 2011
- Windows 10 (including Anniversary Update) ]]>
[Pawg/BangBros]Brandi Love - White milf has a huge ass http://glodls.to/torrent.php?id=2539694 http://glodls.to/torrent.php?id=2539694 Sun, 28 May 2017 18:09:47 +0100 Adult XXX [center][URL=https://img.yt/img-592b119c5a5f7.html][IMG]https://img.yt/upload/small/2017/05/28/592b119c5a5b9.jpeg[/IMG][/URL]
[size=4]

Brandi Love - White milf has a huge ass
Category: Ass Licking, Big Ass, Big Tits, Blonde, Landing Strip, Milf, Outtie Pussy, White
File size: 501 MB
Duration:00:44:01

[b]SCREENS:[/b]

[url]https://img.yt/img-592b11aa5cd64.html[/url]
[url]http://imagedecode.com/img-592b1180241fd.html[/url]

[b]SHOOT:[/b]
[url]https://xeimg.yt/img-592b11dadea18.html[/url]
[/size]
[/center] ]]>
Viking.Legacy.2016.BRRip.XviD.AC3-iFT[PRiME] http://glodls.to/torrent.php?id=2539693 http://glodls.to/torrent.php?id=2539693 Sun, 28 May 2017 18:05:50 +0100 Movies Viking.Legacy.2016.BRRip.XviD.AC3-iFT[PRiME]

ImDb: [URL]http://www.imdb.com/title/tt5555554[/URL]

[url=https://www.sparrowpics.com/image/LwB][img]https://www.sparrowpics.com/images/2015/12/10/Info.png[/img][/url]

[color=green]Complete name : Viking.Legacy.2016.BRRip.XviD.AC3-iFT[PRiME].avi
Format : AVI
Format/Info : Audio Video Interleave
Format profile : OpenDML
Format settings : rec
File size : 1.37 GiB
Duration : 1 h 23 min
Overall bit rate : 2 354 kb/s
Writing application : AVI-Mux GUI 1.17.8.3, Feb 16 201019:42:50

Video
ID : 0
Format : MPEG-4 Visual
Format profile : Advanced Simple@L5
Format settings, BVOP : 2
Format settings, QPel : No
Format settings, GMC : No warppoints
Format settings, Matrix : Default (H.263)
Muxing mode : Packed bitstream
Codec ID : XVID
Codec ID/Hint : XviD
Duration : 1 h 23 min
Bit rate : 1 901 kb/s
Width : 720 pixels
Height : 304 pixels
Display aspect ratio : 2.35:1
Frame rate : 23.976 (23976/1000) FPS
Color space : YUV
Chroma subsampling : 4:2:0
Bit depth : 8 bits
Scan type : Progressive
Compression mode : Lossy
Bits/(Pixel*Frame) : 0.362
Stream size : 1.11 GiB (81%)
Writing library : XviD 73

Audio
ID : 1
Format : AC-3
Format/Info : Audio Coding 3
Mode extension : CM (complete main)
Format settings, Endianness : Big
Codec ID : 2000
Duration : 1 h 23 min
Bit rate mode : Constant
Bit rate : 448 kb/s
Channel(s) : 6 channels
Channel positions : Front: L C R, Side: L R, LFE
Sampling rate : 48.0 kHz
Frame rate : 31.250 FPS (1536 spf)
Compression mode : Lossy
Stream size : 267 MiB (19%)
Alignment : Aligned on interleaves
Interleave, duration : 64 ms (1.53 video frames)
Interleave, preload duration : 192 ms
Title : ac3[/color]

[url=https://www.sparrowpics.com/image/UYe][img]https://www.sparrowpics.com/images/2015/12/10/Screens.png[/img][/url]

[color=red]Click Image To View Full Size[/color]

[URL=https://www.sparrowpics.com/image/KF3rx][IMG]https://www.sparrowpics.com/images/2017/05/28/KF3rx.th.jpg[/IMG][/URL]
[URL=https://www.sparrowpics.com/image/KFI7N][b]Click To View Screenshot[/b][/URL]
[URL=https://www.sparrowpics.com/image/KFRMY][b]Click To View Screenshot[/b][/URL]
[URL=https://www.sparrowpics.com/image/KFYd9][b]Click To View Screenshot[/b][/URL]

[/center] ]]>
[NewSensations]Natalia Starr - Stellar Tits http://glodls.to/torrent.php?id=2539692 http://glodls.to/torrent.php?id=2539692 Sun, 28 May 2017 18:04:02 +0100 Adult XXX [size=4]
Natalia Starr - Stellar Tits
Category: Gonzo, Big Boobs, Naturally Busty
File size: 294 MB
Duration: 00:32:18

[b]SCREENS:[/b]

[url]http://imageteam.org/img-592b0fdea2b97.html[/url]
[url]https://xeimg.yt/img-592b0fd7485a4.html[/url]

[b]SHOOT:[/b]
[url]https://img.yt/img-592b1093c933e.html[/url]
[/size]
[/center] ]]>
XXXShades.17.05.28.Mary.Kalisy.XXX.1080p.MP4-KTR[N1C] http://glodls.to/torrent.php?id=2539638 http://glodls.to/torrent.php?id=2539638 Sun, 28 May 2017 17:58:05 +0100 Adult XXX XXXShades.17.05.28.Mary.Kalisy.XXX.1080p.MP4-KTR


[Format]: MPEG-4
[Duration]: 23mn 58s
[Resolution]: 1 920 x 1 080 pixels
[Display aspect ratio]: 16:9
[Frame rate mode]: Constant
[Frame rate]: 29.970 fps


[color=green][b]#N1C -> To avoid fakes, ALWAYS check that the torrent was added by NO1CARES[/b][/color]




[color=green][b]Help us by donating with Bitcoin: 1Pgwp16gmLHmPzgjJLxZnMw7YeqiUekUoe[/b][/color]

[b]Screens...[/b]
[url]http://HotImage.uk/img-592b0f5a53a19.html[/url]
[url]http://HotImage.uk/img-592b0f5a650b0.html[/url]
[url]http://HotImage.uk/img-592b0f5a71e3a.html[/url]
[url]http://HotImage.uk/img-592b0f5a7d0aa.html[/url] ]]>
TheWhiteBoxxx.17.05.28.Eveline.Dellai.XXX.1080p.MP4-KTR[N1C] http://glodls.to/torrent.php?id=2539637 http://glodls.to/torrent.php?id=2539637 Sun, 28 May 2017 17:57:42 +0100 Adult XXX TheWhiteBoxxx.17.05.28.Eveline.Dellai.XXX.1080p.MP4-KTR


[Format]: MPEG-4
[Duration]: 18mn 7s
[Resolution]: 1 920 x 1 080 pixels
[Display aspect ratio]: 16:9
[Frame rate mode]: Constant
[Frame rate]: 29.970 fps


[color=green][b]#N1C -> To avoid fakes, ALWAYS check that the torrent was added by NO1CARES[/b][/color]




[color=green][b]Help us by donating with Bitcoin: 1Pgwp16gmLHmPzgjJLxZnMw7YeqiUekUoe[/b][/color]

[b]Screens...[/b]
[url]http://HotImage.uk/img-592b0f449c557.html[/url]
[url]http://HotImage.uk/img-592b0f44abcf4.html[/url]
[url]http://HotImage.uk/img-592b0f44b5e34.html[/url]
[url]http://HotImage.uk/img-592b0f44bfba0.html[/url] ]]>
Avast! Internet Security + Premier Antivirus 17 3 2291 0 Incl Key http://glodls.to/torrent.php?id=2539635 http://glodls.to/torrent.php?id=2539635 Sun, 28 May 2017 17:51:13 +0100 Apps

Our most advanced security suite adds military-grade data shredding and automatic software updates in addition to antivirus, firewall, and Home Network Security. avast! is only the most trusted name in antivirus, actively protecting more than 200 million PCs, Macs and Androids.

What's new:
- Firewall: Fixed internet connectivity not working after update (until restart) on Win XP, Vista and 7 - should now always work immediately
- Wifi Inspector: Fixed incorrectly displayed vulnerabilities - vulnerability info is now correct
- Web Shield: Fixed SSL scanning issue on some sites - sites now load correctly
- Issues with login to roaming profile after update
- Passwords: Fixed issues with self-authorization and import from Easy Pass
- Issue with installation on Braswell CPUs
- Network problems after update on Vista
- Issue with playing HTML5 videos in SafeZone browser
- Improved compatibility with Windows 10 Creators Update
- Issue with disabling components, which require restart
- Problems with never-ending Cleanup optimization
+
- Fixes crash in installer ]]>
The Haven s Kitchen Cooking School (2017) (Epub) Gooner http://glodls.to/torrent.php?id=2539634 http://glodls.to/torrent.php?id=2539634 Sun, 28 May 2017 17:33:12 +0100 Books
[b]Publisher: Artisan (1 May 2017)
Author: Alison Cayne
Language: English
ISBN-10: 1579656730
ISBN-13: 9781579656737
ASIN: B01L83TT04

The Must-Have Book That Will Teach You How to Cook

Learning to cook has never been simpler-or more delicious-thanks to The Haven's Kitchen Cooking School. Each of the book's nine chapters centers on a key lesson: in the eggs chapter, readers will learn about timing and temperature while poaching, frying, and scrambling; in the soups chapter, they will learn to layer flavors through recipes like Green Curry with Chicken.

The rigorously tested recipes-including wholesome lunches, dinner-party showstoppers, and delectable desserts-will become part of readers' daily repertoires. Beautiful photographs show both the finished dishes and the how-to techniques, and helpful illustrations offer further guidance.[/b][/center] ]]>
Topless Pictures Of Hot And Sexy Girls {Pack-53} [Spy1984] http://glodls.to/torrent.php?id=2539633 http://glodls.to/torrent.php?id=2539633 Sun, 28 May 2017 17:22:26 +0100 Adult XXX
[b][url=http://8kwallpapers.in/Girls/Girl-Hat-8K-Wallpaper.html]PREVIEW 1[/url][/b]

[b][url=http://8kwallpapers.in/Girls/Girl-Long-Hair-8K-Ultra-HD-Wallpaper.html]PREVIEW 2[/url][/b]

[b][url=http://8kwallpapers.in/Girls/Girl-Long-Hair-Blue-Eyes-8K-Ultra-HD-Wallpaper.html]PREVIEW 3[/url][/b]

[b][url=http://8kwallpapers.in/Wallpapers/Blonde-in-natural-light-4k.html]PREVIEW 4[/url][/b]

[b][url=http://8kwallpapers.in/Wallpapers/Gorgeous-brunette-4k-wallpaper.html]PREVIEW 5[/url][/b][/size] ]]>
[Blacked] Nicole Aniston (Work Hard- Play Hard - 25 05 2017) http://glodls.to/torrent.php?id=2539632 http://glodls.to/torrent.php?id=2539632 Sun, 28 May 2017 17:07:00 +0100 Adult XXX
Genre :- Gonzo, IR, All Sex, 480p]

Screenshot :-

[url=http://imgtorrnt.in/view.php?id=2LZgMbH][color=green] View Screen 1 [/color] [/url]

[url=http://imgtorrnt.in/view.php?id=f90foim][color=green] View Screen 2 [/color] [/url]

[img]http://i.imgur.com/2LZgMbH.jpg[/img]

]]>
[BangBrosClips - BangBros] Katie Kayne- Britney Phoenix- Valentina (Story Time - bbc13286 - 25 05 2017) http://glodls.to/torrent.php?id=2539631 http://glodls.to/torrent.php?id=2539631 Sun, 28 May 2017 17:03:57 +0100 Adult XXX
Genre :- [Amateur, Big Tits, Blonde, Blowjob, Brunette, Busty, Cow Girl, Cum Shot, Hardcore, Riding, Shaved, White, Young] 480p

Screenshot :-

[url=http://imgtorrnt.in/view.php?id=k9CLo0q][color=green] View Screen 1 [/color] [/url]

[url=http://imgtorrnt.in/view.php?id=cNeUsWp][color=green] View Screen 2 [/color] [/url]

[img]http://i.imgur.com/k9CLo0q.jpg[/img]

]]>
[Nubiles-Porn - NubilesNetwork] Kristen Scott- Sierra Nicole (Snow Bunnies 3 - 25 05 2017) http://glodls.to/torrent.php?id=2539630 http://glodls.to/torrent.php?id=2539630 Sun, 28 May 2017 17:00:56 +0100 Adult XXX
Genre :- [Shaved Pussy, Blonde, Bras, Panties, Lingerie, Hardcore, Lesbian, Outdoors, Petite, Blowjob, Handjob, POV, Deep Throat, Anal Play, Snow Bunnies] 360p

Screenshot :-

[url=http://imgtorrnt.in/view.php?id=XoiyVSm][color=green] View Screen 1 [/color] [/url]

[url=http://imgtorrnt.in/view.php?id=srvHxcH][color=green] View Screen 2 [/color] [/url]

[img]http://i.imgur.com/XoiyVSm.jpg[/img]

]]>
Beekeeper s Lab - 52 Family-Friendly Activities (2017) (Epub) Gooner http://glodls.to/torrent.php?id=2539629 http://glodls.to/torrent.php?id=2539629 Sun, 28 May 2017 17:00:28 +0100 Books
[b]Publisher: Quarry Books (4 May 2017)
Author: Kim Lehman
Language: English
ISBN-10: 1631592688
ISBN-13: 9781631592683
ASIN: B06XPSM8B7

Fill the year ahead with weekly activities from around and about the hive, including art projects, recipes, experiments, garden activities, and more!

If you keep bees or are interested in keeping bees, Beekeeper'sLab is the book for you. Filled with 52 beekeeping and hive-inspired projects to keep you involved with your bees and hive all year long. The tutorials are brief, accomplishable, and rewarding. Try a new technique each week with how-tos and sidebars with tips that are perfect for including the whole family.wo decades! Beekeeping a fun and educational for the whole family to enjoy and is a highly impressive skill to possess![/b][/center] ]]>
BBC Sharon Osbourne Presents Rock n Rolls Dodgiest Deals 720p HDTV x264 AAC mp4 http://glodls.to/torrent.php?id=2539586 http://glodls.to/torrent.php?id=2539586 Sun, 28 May 2017 17:00:05 +0100 TV http://www.tvrage.com/schedule.php?show_yesterday=1. ]]> Mountain Monsters S05E08 720p WEB x264-TBS http://glodls.to/torrent.php?id=2539585 http://glodls.to/torrent.php?id=2539585 Sun, 28 May 2017 17:00:03 +0100 TV http://www.tvrage.com/schedule.php?show_yesterday=1. ]]> Mountain Monsters S05E08 WEB x264-TBS http://glodls.to/torrent.php?id=2539584 http://glodls.to/torrent.php?id=2539584 Sun, 28 May 2017 17:00:02 +0100 TV http://www.tvrage.com/schedule.php?show_yesterday=1. ]]> The.Vagrant.1992.BDRip.x264-RedBlade[PRiME] http://glodls.to/torrent.php?id=2539583 http://glodls.to/torrent.php?id=2539583 Sun, 28 May 2017 16:59:46 +0100 Movies The.Vagrant.1992.BDRip.x264-RedBlade[PRiME]

ImDb: [URL]http://www.imdb.com/title/tt0105719[/URL]

[url=https://www.sparrowpics.com/image/LwB][img]https://www.sparrowpics.com/images/2015/12/10/Info.png[/img][/url]

[color=green]Complete name : The.Vagrant.1992.BDRip.x264-RedBlade[PRiME].mkv
Format : Matroska
Format version : Version 2
File size : 671 MiB
Duration : 1 h 31 min
Overall bit rate : 1 027 kb/s
Encoded date : UTC 2017-05-28 05:31:53
Writing application : mkvmerge v10.0.0 ('To Drown In You') 64bit
Writing library : libebml v1.3.4 + libmatroska v1.4.5

Video
ID : 1
Format : AVC
Format/Info : Advanced Video Codec
Format profile : High@L3.1
Format settings, CABAC : Yes
Format settings, ReFrames : 5 frames
Codec ID : V_MPEG4/ISO/AVC
Duration : 1 h 31 min
Bit rate : 909 kb/s
Width : 720 pixels
Height : 390 pixels
Display aspect ratio : 1.85:1
Frame rate mode : Constant
Frame rate : 23.976 (24000/1001) FPS
Color space : YUV
Chroma subsampling : 4:2:0
Bit depth : 8 bits
Scan type : Progressive
Bits/(Pixel*Frame) : 0.135
Stream size : 594 MiB (88%)
Writing library : x264 core 150 r2829 d1fe6fd
Encoding settings : cabac=1 / ref=5 / deblock=1:0:0 / analyse=0x3:0x113 / me=hex / subme=8 / psy=1 / psy_rd=1.00:0.00 / mixed_ref=1 / me_range=16 / chroma_me=1 / trellis=2 / 8x8dct=1 / cqm=0 / deadzone=21,11 / fast_pskip=1 / chroma_qp_offset=-2 / threads=12 / lookahead_threads=2 / sliced_threads=0 / nr=0 / decimate=1 / interlaced=0 / bluray_compat=0 / constrained_intra=0 / bframes=3 / b_pyramid=2 / b_adapt=1 / b_bias=0 / direct=3 / weightb=1 / open_gop=0 / weightp=2 / keyint=230 / keyint_min=23 / scenecut=40 / intra_refresh=0 / rc_lookahead=50 / rc=crf / mbtree=1 / crf=19.0 / qcomp=0.60 / qpmin=0 / qpmax=69 / qpstep=4 / ip_ratio=1.40 / aq=1:1.00
Language : English
Default : Yes
Forced : No
Color range : Limited
Matrix coefficients : BT.709

Audio
ID : 2
Format : AAC
Format/Info : Advanced Audio Codec
Format profile : LC
Codec ID : A_AAC
Duration : 1 h 31 min
Bit rate : 116 kb/s
Channel(s) : 2 channels
Channel positions : Front: L R
Sampling rate : 48.0 kHz
Frame rate : 46.875 FPS (1024 spf)
Compression mode : Lossy
Delay relative to video : 9 ms
Stream size : 75.7 MiB (11%)
Language : English
Default : Yes
Forced : No

Text #1
ID : 3
Format : UTF-8
Codec ID : S_TEXT/UTF8
Codec ID/Info : UTF-8 Plain Text
Duration : 1 h 23 min
Bit rate : 44 b/s
Count of elements : 1018
Stream size : 27.4 KiB (0%)
Title : English
Language : English
Default : No
Forced : No

Text #2
ID : 4
Format : UTF-8
Codec ID : S_TEXT/UTF8
Codec ID/Info : UTF-8 Plain Text
Duration : 1 h 27 min
Bit rate : 52 b/s
Count of elements : 1310
Stream size : 33.6 KiB (0%)
Title : English SDH
Language : English
Default : No
Forced : No

Menu
00:00:00.000 : en:00:00:00.000
00:07:34.204 : en:00:07:34.204
00:16:32.158 : en:00:16:32.158
00:25:21.353 : en:00:25:21.353
00:32:15.642 : en:00:32:15.642
00:40:17.874 : en:00:40:17.874
00:46:45.261 : en:00:46:45.261
00:54:35.939 : en:00:54:35.939
01:03:56.416 : en:01:03:56.416
01:12:38.729 : en:01:12:38.729
01:19:54.707 : en:01:19:54.707
01:28:19.419 : en:01:28:19.419[/color]

[url=https://www.sparrowpics.com/image/UYe][img]https://www.sparrowpics.com/images/2015/12/10/Screens.png[/img][/url]

[color=red]Click Image To View Full Size[/color]

[URL=https://www.sparrowpics.com/image/KFLZ6][IMG]https://www.sparrowpics.com/images/2017/05/28/KFLZ6.th.jpg[/IMG][/URL]
[URL=https://www.sparrowpics.com/image/KFMNh][b]Click To View Screenshot[/b][/URL]
[URL=https://www.sparrowpics.com/image/KFUQt][b]Click To View Screenshot[/b][/URL]
[URL=https://www.sparrowpics.com/image/KFgPZ][b]Click To View Screenshot[/b][/URL]

[/center] ]]>
Viking.Legacy.2016.1080p.BluRay.x264-RUSTED[PRiME] http://glodls.to/torrent.php?id=2539582 http://glodls.to/torrent.php?id=2539582 Sun, 28 May 2017 16:58:29 +0100 Movies Viking.Legacy.2016.1080p.BluRay.x264-RUSTED[PRiME]

ImDb: [URL]http://www.imdb.com/title/tt5555554[/URL]

[url=https://www.sparrowpics.com/image/LwB][img]https://www.sparrowpics.com/images/2015/12/10/Info.png[/img][/url]

[color=green]Complete name : viking.legacy.2016.1080p.bluray.x264-rusted[PRiME].mkv
Format : Matroska
Format version : Version 4 / Version 2
File size : 6.55 GiB
Duration : 1 h 23 min
Overall bit rate : 11.3 Mb/s
Encoded date : UTC 2017-05-25 19:01:44
Writing application : mkvmerge v8.5.0 ('Vanishing Act') 64bit
Writing library : libebml v1.3.1 + libmatroska v1.4.2

Video
ID : 1
Format : AVC
Format/Info : Advanced Video Codec
Format profile : High@L4.1
Format settings, CABAC : Yes
Format settings, ReFrames : 5 frames
Codec ID : V_MPEG4/ISO/AVC
Duration : 1 h 23 min
Bit rate : 9 756 kb/s
Width : 1 920 pixels
Height : 800 pixels
Display aspect ratio : 2.40:1
Frame rate mode : Constant
Frame rate : 23.976 (24000/1001) FPS
Color space : YUV
Chroma subsampling : 4:2:0
Bit depth : 8 bits
Scan type : Progressive
Bits/(Pixel*Frame) : 0.265
Stream size : 5.67 GiB (87%)
Writing library : x264 core 148 r2762 90a61ec
Encoding settings : cabac=1 / ref=5 / deblock=1:-1:-1 / analyse=0x3:0x133 / me=umh / subme=8 / psy=1 / psy_rd=1.00:0.15 / mixed_ref=1 / me_range=16 / chroma_me=1 / trellis=1 / 8x8dct=1 / cqm=0 / deadzone=21,11 / fast_pskip=0 / chroma_qp_offset=-4 / threads=24 / lookahead_threads=4 / sliced_threads=0 / nr=0 / decimate=1 / interlaced=0 / bluray_compat=0 / constrained_intra=0 / bframes=3 / b_pyramid=2 / b_adapt=2 / b_bias=0 / direct=3 / weightb=1 / open_gop=0 / weightp=2 / keyint=240 / keyint_min=23 / scenecut=40 / intra_refresh=0 / rc_lookahead=50 / rc=2pass / mbtree=1 / bitrate=9756 / ratetol=1.0 / qcomp=0.60 / qpmin=10 / qpmax=69 / qpstep=4 / cplxblur=20.0 / qblur=0.5 / ip_ratio=1.40 / aq=1:1.00
Language : English
Default : Yes
Forced : No

Audio
ID : 2
Format : DTS
Format/Info : Digital Theater Systems
Mode : 16
Format settings, Endianness : Big
Codec ID : A_DTS
Duration : 1 h 23 min
Bit rate mode : Constant
Bit rate : 1 509 kb/s
Channel(s) : 6 channels
Channel positions : Front: L C R, Side: L R, LFE
Sampling rate : 48.0 kHz
Frame rate : 93.750 FPS (512 spf)
Bit depth : 24 bits
Compression mode : Lossy
Stream size : 899 MiB (13%)
Language : English
Default : Yes
Forced : No

Menu
00:00:00.000 : en:00:00:00.000
00:07:21.566 : en:00:07:21.566
00:13:59.797 : en:00:13:59.797
00:20:54.462 : en:00:20:54.462
00:28:59.905 : en:00:28:59.905
00:34:24.437 : en:00:34:24.437
00:41:06.297 : en:00:41:06.297
00:48:22.483 : en:00:48:22.483
00:54:02.406 : en:00:54:02.406
01:00:15.028 : en:01:00:15.028
01:07:10.026 : en:01:07:10.026
01:18:12.187 : en:01:18:12.187[/color]

[url=https://www.sparrowpics.com/image/UYe][img]https://www.sparrowpics.com/images/2015/12/10/Screens.png[/img][/url]

[color=red]Click Image To View Full Size[/color]

[URL=https://www.sparrowpics.com/image/K1hLn][IMG]https://www.sparrowpics.com/images/2017/05/28/K1hLn.th.jpg[/IMG][/URL]
[URL=https://www.sparrowpics.com/image/K1qdy][b]Click To View Screenshot[/b][/URL]
[URL=https://www.sparrowpics.com/image/KF1GJ][b]Click To View Screenshot[/b][/URL]
[URL=https://www.sparrowpics.com/image/KFFCc][b]Click To View Screenshot[/b][/URL]

[/center] ]]>
[ShareMyBF - Mofos] Jade Amber- Kelsi Monroe (Sorority Chicks Hazing Fun - 29 05 2017) http://glodls.to/torrent.php?id=2539581 http://glodls.to/torrent.php?id=2539581 Sun, 28 May 2017 16:57:41 +0100 Adult XXX
Genre :- [Threesome, FFM, Lesbian, Couples Fantasies, All Sex, Handjob, Masturbation, Deep Throat] 480p

Screenshot :-

[url=http://imgtorrnt.in/view.php?id=U2U0q4g][color=green] View Screen 1 [/color] [/url]

[url=http://imgtorrnt.in/view.php?id=dwiMBu7][color=green] View Screen 2 [/color] [/url]

[img]http://i.imgur.com/U2U0q4g.jpg[/img]

]]>
The.Vagrant.1992.BDRip.x264-RedBlade http://glodls.to/torrent.php?id=2539580 http://glodls.to/torrent.php?id=2539580 Sun, 28 May 2017 16:56:05 +0100 Movies [color=red][b]
The.Vagrant.1992.BDRip.x264-RedBlade

[/b][/color]


IMDb: http://www.imdb.com/title/tt0105719/





[url=https://boltimg.com/image/t52z][img]https://boltimg.com/images/t52z.png[/img][/url]



[color=green][b]
General

(Duration): 1h 31mn
(FileSize): 671 MiB



Audio

(Format): AAC - Advanced Audio Codec
(Codec): AAC LC



Video

(Format): AVC - Advanced Video Codec
(Media): video/H264
(Format): x264
(Resolution): 720x390 px
(AspectRatio): 1.85:1
(FrameRate): 23.976 fps




[/b][/color]


[url=https://boltimg.com/image/tzTE][img]https://boltimg.com/images/tzTE.png[/img][/url]



[color=purple][b](Click to enlarge)[/b][/color]

[url=https://boltimg.com/image/MiLOX][img]https://boltimg.com/images/MiLOX.th.jpg[/img][/url] [url=https://boltimg.com/image/MiZHw][img]https://boltimg.com/images/MiZHw.th.jpg[/img][/url] [url=https://boltimg.com/image/MirWL][img]https://boltimg.com/images/MirWL.th.jpg[/img][/url] [url=https://boltimg.com/image/MixXp][img]https://boltimg.com/images/MixXp.th.jpg[/img][/url] [url=https://boltimg.com/image/MiEUC][img]https://boltimg.com/images/MiEUC.th.jpg[/img][/url] [url=https://boltimg.com/image/MiHKG][img]https://boltimg.com/images/MiHKG.th.jpg[/img][/url]

[/center]
]]>
[FirstTimeAuditions - RealityKings] Vanessa Sky (Candid On Camera - 25 05 2017) http://glodls.to/torrent.php?id=2539579 http://glodls.to/torrent.php?id=2539579 Sun, 28 May 2017 16:54:30 +0100 Adult XXX
Genre :- [Amateur, Outside, Indoors, Blowjob, All Sex, Finger Banging, Cum Shot, Masturbation, Pussy Licking, Doggystyle, Clean-up, Facial, Twerking, 1 on 1] 432p

Screenshot :-

[url=http://imgtorrnt.in/view.php?id=hjdkeZn][color=green] View Screen 1 [/color] [/url]

[url=http://imgtorrnt.in/view.php?id=nx0SweT][color=green] View Screen 2 [/color] [/url]

[img]http://i.imgur.com/hjdkeZn.jpg[/img]

]]>
BigWetButts - Bella Bellz - Bring On Bella http://glodls.to/torrent.php?id=2539578 http://glodls.to/torrent.php?id=2539578 Sun, 28 May 2017 16:52:05 +0100 Adult XXX http://www.pixsense.net/site/v/1867355#443&1867355
http://imguniversal.com/7toy9oiqrpgd
https://img.yt/img-592b0009eefe3.html
]]>
[RKPrime - RealityKings] Onix Babe- Irina Vega (Rock N Roll Pussies - 25 05 2017) http://glodls.to/torrent.php?id=2539577 http://glodls.to/torrent.php?id=2539577 Sun, 28 May 2017 16:51:21 +0100 Adult XXX
Genre :- [Threesome (2 Females), Toys, Blowjob, Finger Banging, Squirting, Masturbation, Scissors, Anal Play, 69, Doggystyle, Fetish, Rimjob, Lesbian, Vibrator] 432p

Screenshot :-

[url=http://imgtorrnt.in/view.php?id=qipQumg][color=green] View Screen 1 [/color] [/url]

[url=http://imgtorrnt.in/view.php?id=mHltKue][color=green] View Screen 2 [/color] [/url]

[img]http://i.imgur.com/qipQumg.jpg[/img]

]]>
[MySistersHotFriend - NaughtyAmerica] Andi Rye (22753 - 25 05 2017) http://glodls.to/torrent.php?id=2539576 http://glodls.to/torrent.php?id=2539576 Sun, 28 May 2017 16:48:10 +0100 Adult XXX
Genre :- [Creampie, 69, Blow Job, Brunette, Cum on pussy, Deepthroating, Hand Job, High Heels, Innie Pussy, Natural Tits, Shaved, Straight, Swallowing, Young] 360p

Screenshot :-

[url=http://imgtorrnt.in/view.php?id=4c7apiT][color=green] View Screen 1 [/color] [/url]

[url=http://imgtorrnt.in/view.php?id=PD4QT4z][color=green] View Screen 2 [/color] [/url]

[img]http://i.imgur.com/4c7apiT.jpg[/img]

]]>
[MyDadsHotGirlfriend - NaughtyAmerica] Keisha Grey (22749 - 25 05 2017) http://glodls.to/torrent.php?id=2539575 http://glodls.to/torrent.php?id=2539575 Sun, 28 May 2017 16:45:03 +0100 Adult XXX
Genre :- [Anal, All Sex, Ball licking, Big Ass, Big Dick, Big Tits, Blow Job, Brunette, Bubble Butt, Cum on Ass, Cum on pussy, Deepthroating, Hairy bush, Natural Tits, Young] 360p

Screenshot :-

[url=http://imgtorrnt.in/view.php?id=eBqD7AL][color=green] View Screen 1 [/color] [/url]

[url=http://imgtorrnt.in/view.php?id=M2KeOiL][color=green] View Screen 2 [/color] [/url]

[img]http://i.imgur.com/eBqD7AL.jpg[/img]

]]>
Viking.Legacy.2016.720p.BluRay.x264-RUSTED[PRiME] http://glodls.to/torrent.php?id=2539574 http://glodls.to/torrent.php?id=2539574 Sun, 28 May 2017 16:45:01 +0100 Movies Viking.Legacy.2016.720p.BluRay.x264-RUSTED[PRiME]

ImDb: [URL]http://www.imdb.com/title/tt5555554[/URL]

[url=https://www.sparrowpics.com/image/LwB][img]https://www.sparrowpics.com/images/2015/12/10/Info.png[/img][/url]

[color=green]Complete name : viking.legacy.2016.720p.bluray.x264-rusted[PRiME].mkv
Format : Matroska
Format version : Version 4 / Version 2
File size : 3.28 GiB
Duration : 1 h 23 min
Overall bit rate : 5 630 kb/s
Encoded date : UTC 2017-05-25 19:04:19
Writing application : mkvmerge v8.5.0 ('Vanishing Act') 64bit
Writing library : libebml v1.3.1 + libmatroska v1.4.2

Video
ID : 1
Format : AVC
Format/Info : Advanced Video Codec
Format profile : High@L4.1
Format settings, CABAC : Yes
Format settings, ReFrames : 5 frames
Codec ID : V_MPEG4/ISO/AVC
Duration : 1 h 23 min
Bit rate : 4 120 kb/s
Width : 1 280 pixels
Height : 536 pixels
Display aspect ratio : 2.40:1
Frame rate mode : Constant
Frame rate : 23.976 (24000/1001) FPS
Color space : YUV
Chroma subsampling : 4:2:0
Bit depth : 8 bits
Scan type : Progressive
Bits/(Pixel*Frame) : 0.250
Stream size : 2.40 GiB (73%)
Writing library : x264 core 148 r2762 90a61ec
Encoding settings : cabac=1 / ref=5 / deblock=1:-1:-1 / analyse=0x3:0x133 / me=umh / subme=8 / psy=1 / psy_rd=1.00:0.15 / mixed_ref=1 / me_range=16 / chroma_me=1 / trellis=1 / 8x8dct=1 / cqm=0 / deadzone=21,11 / fast_pskip=0 / chroma_qp_offset=-4 / threads=17 / lookahead_threads=2 / sliced_threads=0 / nr=0 / decimate=1 / interlaced=0 / bluray_compat=0 / constrained_intra=0 / bframes=3 / b_pyramid=2 / b_adapt=2 / b_bias=0 / direct=3 / weightb=1 / open_gop=0 / weightp=2 / keyint=240 / keyint_min=23 / scenecut=40 / intra_refresh=0 / rc_lookahead=50 / rc=2pass / mbtree=1 / bitrate=4120 / ratetol=1.0 / qcomp=0.60 / qpmin=10 / qpmax=69 / qpstep=4 / cplxblur=20.0 / qblur=0.5 / ip_ratio=1.40 / aq=1:1.00
Language : English
Default : Yes
Forced : No

Audio
ID : 2
Format : DTS
Format/Info : Digital Theater Systems
Mode : 16
Format settings, Endianness : Big
Codec ID : A_DTS
Duration : 1 h 23 min
Bit rate mode : Constant
Bit rate : 1 509 kb/s
Channel(s) : 6 channels
Channel positions : Front: L C R, Side: L R, LFE
Sampling rate : 48.0 kHz
Frame rate : 93.750 FPS (512 spf)
Bit depth : 24 bits
Compression mode : Lossy
Stream size : 899 MiB (27%)
Language : English
Default : Yes
Forced : No

Menu
00:00:00.000 : en:00:00:00.000
00:07:21.566 : en:00:07:21.566
00:13:59.797 : en:00:13:59.797
00:20:54.462 : en:00:20:54.462
00:28:59.905 : en:00:28:59.905
00:34:24.437 : en:00:34:24.437
00:41:06.297 : en:00:41:06.297
00:48:22.483 : en:00:48:22.483
00:54:02.406 : en:00:54:02.406
01:00:15.028 : en:01:00:15.028
01:07:10.026 : en:01:07:10.026
01:18:12.187 : en:01:18:12.187[/color]

[url=https://www.sparrowpics.com/image/UYe][img]https://www.sparrowpics.com/images/2015/12/10/Screens.png[/img][/url]

[color=red]Click Image To View Full Size[/color]

[URL=https://www.sparrowpics.com/image/K1fQP][IMG]https://www.sparrowpics.com/images/2017/05/28/K1fQP.th.jpg[/IMG][/URL]
[URL=https://www.sparrowpics.com/image/K1xIm][b]Click To View Screenshot[/b][/URL]
[URL=https://www.sparrowpics.com/image/K12rr][b]Click To View Screenshot[/b][/URL]
[URL=https://www.sparrowpics.com/image/K1B7W][b]Click To View Screenshot[/b][/URL]

[/center] ]]>
[NubileFilms - NubilesNetwork] Elsa Jean- Sydney Cole (Ante Up - 25 05 2017) http://glodls.to/torrent.php?id=2539573 http://glodls.to/torrent.php?id=2539573 Sun, 28 May 2017 16:41:56 +0100 Adult XXX
Genre :- [Girl-Girl-Boy, Medium Boobs, Shaved Pussy, Blonde, Wet, Lesbian, Petite, Blowjob, Girl Orgasm, Deep Throat, Big Dick, Pussy Licking, 540p]

Screenshot :-

[url=http://imgtorrnt.in/view.php?id=dexdKFC][color=green] View Screen 1 [/color] [/url]

[url=http://imgtorrnt.in/view.php?id=pTgGihu][color=green] View Screen 2 [/color] [/url]

[img]http://i.imgur.com/dexdKFC.jpg[/img]

]]>
[DirtyMasseur - Brazzers] Giselle Palmer (Rub The Bosss Daughter - 25 05 2017) http://glodls.to/torrent.php?id=2539572 http://glodls.to/torrent.php?id=2539572 Sun, 28 May 2017 16:38:49 +0100 Adult XXX
Genre :- [Big Tits, All Sex] 480p

Screenshot :-

[url=http://imgtorrnt.in/view.php?id=afw3eAO][color=green] View Screen 1 [/color] [/url]

[url=http://imgtorrnt.in/view.php?id=5PGyK1B][color=green] View Screen 2 [/color] [/url]

[img]http://i.imgur.com/afw3eAO.jpg[/img]

]]>
The.Pass.2016.DVDRip.x264-RedBlade[PRiME] http://glodls.to/torrent.php?id=2539571 http://glodls.to/torrent.php?id=2539571 Sun, 28 May 2017 16:27:43 +0100 Movies The.Pass.2016.DVDRip.x264-RedBlade[PRiME]

ImDb: [URL]http://www.imdb.com/title/tt5160154[/URL]

[url=https://www.sparrowpics.com/image/LwB][img]https://www.sparrowpics.com/images/2015/12/10/Info.png[/img][/url]

[color=green]Complete name : The.Pass.2016.DVDRip.x264-RedBlade[PRiME].mkv
Format : Matroska
Format version : Version 2
File size : 407 MiB
Duration : 1 h 23 min
Overall bit rate : 683 kb/s
Encoded date : UTC 2017-05-27 21:00:47
Writing application : mkvmerge v12.0.0 ('Trust / Lust') 64bit
Writing library : libebml v1.3.4 + libmatroska v1.4.5

Video
ID : 1
Format : AVC
Format/Info : Advanced Video Codec
Format profile : High@L3.1
Format settings, CABAC : Yes
Format settings, ReFrames : 5 frames
Codec ID : V_MPEG4/ISO/AVC
Duration : 1 h 23 min
Bit rate : 573 kb/s
Width : 718 pixels
Height : 388 pixels
Display aspect ratio : 1.85:1
Frame rate mode : Constant
Frame rate : 25.000 FPS
Color space : YUV
Chroma subsampling : 4:2:0
Bit depth : 8 bits
Scan type : Progressive
Bits/(Pixel*Frame) : 0.082
Stream size : 341 MiB (84%)
Writing library : x264 core 150 r2829 d1fe6fd
Encoding settings : cabac=1 / ref=5 / deblock=1:0:0 / analyse=0x3:0x113 / me=hex / subme=8 / psy=1 / psy_rd=1.00:0.00 / mixed_ref=1 / me_range=16 / chroma_me=1 / trellis=2 / 8x8dct=1 / cqm=0 / deadzone=21,11 / fast_pskip=1 / chroma_qp_offset=-2 / threads=6 / lookahead_threads=1 / sliced_threads=0 / nr=0 / decimate=1 / interlaced=0 / bluray_compat=0 / constrained_intra=0 / bframes=3 / b_pyramid=2 / b_adapt=1 / b_bias=0 / direct=3 / weightb=1 / open_gop=0 / weightp=2 / keyint=250 / keyint_min=25 / scenecut=40 / intra_refresh=0 / rc_lookahead=50 / rc=crf / mbtree=1 / crf=19.0 / qcomp=0.60 / qpmin=10 / qpmax=51 / qpstep=4 / vbv_maxrate=17500 / vbv_bufsize=17500 / crf_max=0.0 / nal_hrd=none / filler=0 / ip_ratio=1.40 / aq=1:1.00
Language : English
Default : Yes
Forced : No

Audio
ID : 2
Format : AAC
Format/Info : Advanced Audio Codec
Format profile : LC
Codec ID : A_AAC
Duration : 1 h 23 min
Bit rate : 108 kb/s
Channel(s) : 2 channels
Channel positions : Front: L R
Sampling rate : 48.0 kHz
Frame rate : 46.875 FPS (1024 spf)
Compression mode : Lossy
Delay relative to video : 9 ms
Stream size : 64.1 MiB (16%)
Language : English
Default : Yes
Forced : No[/color]

[url=https://www.sparrowpics.com/image/UYe][img]https://www.sparrowpics.com/images/2015/12/10/Screens.png[/img][/url]

[color=red]Click Image To View Full Size[/color]

[URL=https://www.sparrowpics.com/image/K1kHe][IMG]https://www.sparrowpics.com/images/2017/05/28/K1kHe.th.jpg[/IMG][/URL]
[URL=https://www.sparrowpics.com/image/K1mCs][b]Click To View Screenshot[/b][/URL]
[URL=https://www.sparrowpics.com/image/K19uf][b]Click To View Screenshot[/b][/URL]
[URL=https://www.sparrowpics.com/image/K1QN5][b]Click To View Screenshot[/b][/URL]

[/center] ]]>
The.Pass.2016.DVDRip.x264-RedBlade http://glodls.to/torrent.php?id=2539570 http://glodls.to/torrent.php?id=2539570 Sun, 28 May 2017 16:24:07 +0100 Movies [color=red][b]
The.Pass.2016.DVDRip.x264-RedBlade

[/b][/color]


IMDb: http://www.imdb.com/title/tt5160154/





[url=https://boltimg.com/image/t52z][img]https://boltimg.com/images/t52z.png[/img][/url]



[color=green][b]
General

(Duration): 1h 23mn
(FileSize): 407 MiB



Audio

(Format): AAC - Advanced Audio Codec
(Codec): AAC LC



Video

(Format): AVC - Advanced Video Codec
(Media): video/H264
(Format): x264
(Resolution): 718x388 px
(AspectRatio): 1.85:1
(FrameRate): 25.000 fps




[/b][/color]


[url=https://boltimg.com/image/tzTE][img]https://boltimg.com/images/tzTE.png[/img][/url]



[color=purple][b](Click to enlarge)[/b][/color]

[url=https://boltimg.com/image/MciQE][img]https://boltimg.com/images/MciQE.th.jpg[/img][/url] [url=https://boltimg.com/image/Mcp8z][img]https://boltimg.com/images/Mcp8z.th.jpg[/img][/url] [url=https://boltimg.com/image/MclLM][img]https://boltimg.com/images/MclLM.th.jpg[/img][/url] [url=https://boltimg.com/image/Mc8KZ][img]https://boltimg.com/images/Mc8KZ.th.jpg[/img][/url] [url=https://boltimg.com/image/McXVl][img]https://boltimg.com/images/McXVl.th.jpg[/img][/url] [url=https://boltimg.com/image/Mct3P][img]https://boltimg.com/images/Mct3P.th.jpg[/img][/url]

[/center]
]]>
FemaleFakeTaxi 17 05 28 Blanche Bradburry XXX 480p MP4-TK http://glodls.to/torrent.php?id=2539569 http://glodls.to/torrent.php?id=2539569 Sun, 28 May 2017 16:22:55 +0100 Adult XXX
[b]Screenshots:[/b]

[url]http://imgking.co/imgs-592af96150119.html[/url]

[url]http://imgking.co/imgs-592af96149978.html[/url]

[url]http://imgking.co/imgs-592af9614254b.html[/url]

[url]http://imgking.co/imgs-592af952b63ee.html[/url]

File Size : 313 MiB
Duration : 37mn 50s
Video : h264, yuv420p, 854x480p, 1024 Kbps
Audio : aac , 2 ch, stereo , 128 Kbps ]]>
Salt.And.Fire.2016.DVDRip.x264-RedBlade[PRiME] http://glodls.to/torrent.php?id=2539568 http://glodls.to/torrent.php?id=2539568 Sun, 28 May 2017 16:22:13 +0100 Movies Salt.And.Fire.2016.DVDRip.x264-RedBlade[PRiME]

ImDb: [URL]http://www.imdb.com/title/tt4441150[/URL]

[url=https://www.sparrowpics.com/image/LwB][img]https://www.sparrowpics.com/images/2015/12/10/Info.png[/img][/url]

[color=green]Complete name : Salt.And.Fire.2016.DVDRip.x264-RedBlade[PRiME].mkv
Format : Matroska
Format version : Version 2
File size : 515 MiB
Duration : 1 h 33 min
Overall bit rate : 768 kb/s
Encoded date : UTC 2017-05-27 21:00:45
Writing application : mkvmerge v12.0.0 ('Trust / Lust') 64bit
Writing library : libebml v1.3.4 + libmatroska v1.4.5

Video
ID : 1
Format : AVC
Format/Info : Advanced Video Codec
Format profile : High@L3.1
Format settings, CABAC : Yes
Format settings, ReFrames : 5 frames
Codec ID : V_MPEG4/ISO/AVC
Duration : 1 h 33 min
Bit rate : 645 kb/s
Width : 720 pixels
Height : 300 pixels
Display aspect ratio : 2.40:1
Frame rate mode : Constant
Frame rate : 25.000 FPS
Color space : YUV
Chroma subsampling : 4:2:0
Bit depth : 8 bits
Scan type : Progressive
Bits/(Pixel*Frame) : 0.119
Stream size : 432 MiB (84%)
Writing library : x264 core 150 r2829 d1fe6fd
Encoding settings : cabac=1 / ref=5 / deblock=1:0:0 / analyse=0x3:0x113 / me=hex / subme=8 / psy=1 / psy_rd=1.00:0.00 / mixed_ref=1 / me_range=16 / chroma_me=1 / trellis=2 / 8x8dct=1 / cqm=0 / deadzone=21,11 / fast_pskip=1 / chroma_qp_offset=-2 / threads=6 / lookahead_threads=1 / sliced_threads=0 / nr=0 / decimate=1 / interlaced=0 / bluray_compat=0 / constrained_intra=0 / bframes=3 / b_pyramid=2 / b_adapt=1 / b_bias=0 / direct=3 / weightb=1 / open_gop=0 / weightp=2 / keyint=250 / keyint_min=25 / scenecut=40 / intra_refresh=0 / rc_lookahead=50 / rc=crf / mbtree=1 / crf=19.0 / qcomp=0.60 / qpmin=10 / qpmax=51 / qpstep=4 / vbv_maxrate=17500 / vbv_bufsize=17500 / crf_max=0.0 / nal_hrd=none / filler=0 / ip_ratio=1.40 / aq=1:1.00
Language : English
Default : Yes
Forced : No

Audio
ID : 2
Format : AAC
Format/Info : Advanced Audio Codec
Format profile : LC
Codec ID : A_AAC
Duration : 1 h 33 min
Bit rate : 121 kb/s
Channel(s) : 2 channels
Channel positions : Front: L R
Sampling rate : 48.0 kHz
Frame rate : 46.875 FPS (1024 spf)
Compression mode : Lossy
Delay relative to video : 9 ms
Stream size : 81.0 MiB (16%)
Language : English
Default : Yes
Forced : No[/color]

[url=https://www.sparrowpics.com/image/UYe][img]https://www.sparrowpics.com/images/2015/12/10/Screens.png[/img][/url]

[color=red]Click Image To View Full Size[/color]

[URL=https://www.sparrowpics.com/image/K1Vr1][IMG]https://www.sparrowpics.com/images/2017/05/28/K1Vr1.th.jpg[/IMG][/URL]
[URL=https://www.sparrowpics.com/image/K1jnH][b]Click To View Screenshot[/b][/URL]
[URL=https://www.sparrowpics.com/image/K17LT][b]Click To View Screenshot[/b][/URL]
[URL=https://www.sparrowpics.com/image/K1KAB][b]Click To View Screenshot[/b][/URL]

[/center] ]]>
Lost.In.France.2016.DVDRip.x264-RedBlade[PRiME] http://glodls.to/torrent.php?id=2539567 http://glodls.to/torrent.php?id=2539567 Sun, 28 May 2017 16:22:08 +0100 Movies Lost.In.France.2016.DVDRip.x264-RedBlade[PRiME]

ImDb: [URL]http://www.imdb.com/title/tt5747466[/URL]

[url=https://www.sparrowpics.com/image/LwB][img]https://www.sparrowpics.com/images/2015/12/10/Info.png[/img][/url]

[color=green]Complete name : Lost.In.France.2016.DVDRip.x264-RedBlade[PRiME].mkv
Format : Matroska
Format version : Version 2
File size : 773 MiB
Duration : 1 h 36 min
Overall bit rate : 1 122 kb/s
Encoded date : UTC 2017-05-27 21:00:50
Writing application : mkvmerge v12.0.0 ('Trust / Lust') 64bit
Writing library : libebml v1.3.4 + libmatroska v1.4.5

Video
ID : 1
Format : AVC
Format/Info : Advanced Video Codec
Format profile : High@L3.1
Format settings, CABAC : Yes
Format settings, ReFrames : 5 frames
Codec ID : V_MPEG4/ISO/AVC
Duration : 1 h 36 min
Bit rate : 1 011 kb/s
Width : 720 pixels
Height : 400 pixels
Display aspect ratio : 16:9
Frame rate mode : Constant
Frame rate : 25.000 FPS
Color space : YUV
Chroma subsampling : 4:2:0
Bit depth : 8 bits
Scan type : Progressive
Bits/(Pixel*Frame) : 0.140
Stream size : 697 MiB (90%)
Writing library : x264 core 150 r2829 d1fe6fd
Encoding settings : cabac=1 / ref=5 / deblock=1:0:0 / analyse=0x3:0x113 / me=hex / subme=8 / psy=1 / psy_rd=1.00:0.00 / mixed_ref=1 / me_range=16 / chroma_me=1 / trellis=2 / 8x8dct=1 / cqm=0 / deadzone=21,11 / fast_pskip=1 / chroma_qp_offset=-2 / threads=6 / lookahead_threads=1 / sliced_threads=0 / nr=0 / decimate=1 / interlaced=0 / bluray_compat=0 / constrained_intra=0 / bframes=3 / b_pyramid=2 / b_adapt=1 / b_bias=0 / direct=3 / weightb=1 / open_gop=0 / weightp=2 / keyint=250 / keyint_min=25 / scenecut=40 / intra_refresh=0 / rc_lookahead=50 / rc=crf / mbtree=1 / crf=19.0 / qcomp=0.60 / qpmin=10 / qpmax=51 / qpstep=4 / vbv_maxrate=17500 / vbv_bufsize=17500 / crf_max=0.0 / nal_hrd=none / filler=0 / ip_ratio=1.40 / aq=1:1.00
Language : English
Default : Yes
Forced : No

Audio
ID : 2
Format : AAC
Format/Info : Advanced Audio Codec
Format profile : LC
Codec ID : A_AAC
Duration : 1 h 36 min
Bit rate : 108 kb/s
Channel(s) : 2 channels
Channel positions : Front: L R
Sampling rate : 48.0 kHz
Frame rate : 46.875 FPS (1024 spf)
Compression mode : Lossy
Delay relative to video : 9 ms
Stream size : 74.6 MiB (10%)
Language : English
Default : Yes
Forced : No[/color]

[url=https://www.sparrowpics.com/image/UYe][img]https://www.sparrowpics.com/images/2015/12/10/Screens.png[/img][/url]

[color=red]Click Image To View Full Size[/color]

[URL=https://www.sparrowpics.com/image/K18uX][IMG]https://www.sparrowpics.com/images/2017/05/28/K18uX.th.jpg[/IMG][/URL]
[URL=https://www.sparrowpics.com/image/K1HNM][b]Click To View Screenshot[/b][/URL]
[URL=https://www.sparrowpics.com/image/K1G9V][b]Click To View Screenshot[/b][/URL]
[URL=https://www.sparrowpics.com/image/K1DId][b]Click To View Screenshot[/b][/URL]

[/center] ]]>
Bloody.Sunday.(2002)720p.WebRip.x264.Multi.Subs.AC3.Plex http://glodls.to/torrent.php?id=2539566 http://glodls.to/torrent.php?id=2539566 Sun, 28 May 2017 16:14:49 +0100 Movies [color=red][b]
Bloody.Sunday.(2002)720p.WebRip.x264.Multi.Subs.AC3.Plex

[/b][/color]


IMDb: http://www.imdb.com/title/tt0280491





[url=https://boltimg.com/image/t52z][img]https://boltimg.com/images/t52z.png[/img][/url]



[color=green][b]
General

(Duration): 1h 50mn
(FileSize): 4.32 GiB



Audio

(Format): AC-3 - Audio Coding 3
(Codec): AC3



Video

(Format): AVC - Advanced Video Codec
(Media): video/H264
(Format): x264
(Resolution): 1280x720 px
(AspectRatio): 16:9
(FrameRate): 23.976 fps




[/b][/color]


[url=https://boltimg.com/image/tzTE][img]https://boltimg.com/images/tzTE.png[/img][/url]



[color=purple][b](Click to enlarge)[/b][/color]

[url=https://boltimg.com/image/Mc7TN][img]https://boltimg.com/images/Mc7TN.th.jpg[/img][/url] [url=https://boltimg.com/image/McnA7][img]https://boltimg.com/images/McnA7.th.jpg[/img][/url] [url=https://boltimg.com/image/Mcs1f][img]https://boltimg.com/images/Mcs1f.th.jpg[/img][/url] [url=https://boltimg.com/image/McFDO][img]https://boltimg.com/images/McFDO.th.jpg[/img][/url] [url=https://boltimg.com/image/MccES][img]https://boltimg.com/images/MccES.th.jpg[/img][/url]

[/center]
]]>
Eva - Eva, 38ans, lheure du changement ! http://glodls.to/torrent.php?id=2539565 http://glodls.to/torrent.php?id=2539565 Sun, 28 May 2017 16:12:45 +0100 Adult XXX
[b]Date[/b]: 2017
[b]Genre[/b]: Cougar, Debutante, Sodomie
[b]Name[/b]: Eva, 38ans, lheure du changement !


[b]Video[/b]: AVC, 1280x720, 59.940 FPS, 2250 kb/s
[b]Audio[/b]: AAC LC, 44.1 kHz, 2 channels, 160 kb/s
[b]Format[/b]: mp4
[b]Duration[/b]: 00:41:25
]]>
EuroSexParties 17 05 28 Cecilia Scott And Rina Ellis One Hot Foursome XXX 480p MP4-TK http://glodls.to/torrent.php?id=2539564 http://glodls.to/torrent.php?id=2539564 Sun, 28 May 2017 16:12:43 +0100 Adult XXX
[b]Screenshots:[/b]

[url]http://imgking.co/imgs-592af6fc9b78c.html[/url]

[url]http://imgking.co/imgs-592af6fc95269.html[/url]

[url]http://imgking.co/imgs-592af6fc8e7e0.html[/url]

[url]http://imgking.co/imgs-592af6ee3a58e.html[/url]

File Size : 406 MiB
Duration : 49mn 8s
Video : h264, yuv420p, 854x480p, 1024 Kbps
Audio : aac , 2 ch, stereo , 128 Kbps ]]>
The.World's.Fastest.Indian.(2005)720p.WebRip.x264.Multi.Subs.AAC.Plex http://glodls.to/torrent.php?id=2539563 http://glodls.to/torrent.php?id=2539563 Sun, 28 May 2017 16:12:19 +0100 Movies [color=red][b]
The.World's.Fastest.Indian.(2005)720p.WebRip.x264.Multi.Subs.AAC.Plex

[/b][/color]








[url=https://boltimg.com/image/t52z][img]https://boltimg.com/images/t52z.png[/img][/url]



[color=green][b]
General

(Duration): 2h 6mn
(FileSize): 3.62 GiB



Audio

(Format): AAC - Advanced Audio Codec
(Codec): AAC LC



Video

(Format): AVC - Advanced Video Codec
(Media): video/H264
(Format): x264
(Resolution): 1280x544 px
(AspectRatio): 2.35:1
(FrameRate): 24.000 fps




[/b][/color]


[url=https://boltimg.com/image/tzTE][img]https://boltimg.com/images/tzTE.png[/img][/url]



[color=purple][b](Click to enlarge)[/b][/color]

[url=https://boltimg.com/image/McQEL][img]https://boltimg.com/images/McQEL.th.jpg[/img][/url] [url=https://boltimg.com/image/McWMp][img]https://boltimg.com/images/McWMp.th.jpg[/img][/url] [url=https://boltimg.com/image/Mcy8C][img]https://boltimg.com/images/Mcy8C.th.jpg[/img][/url] [url=https://boltimg.com/image/McShG][img]https://boltimg.com/images/McShG.th.jpg[/img][/url] [url=https://boltimg.com/image/McmCF][img]https://boltimg.com/images/McmCF.th.jpg[/img][/url] [url=https://boltimg.com/image/Mc1Vb][img]https://boltimg.com/images/Mc1Vb.th.jpg[/img][/url]

[/center]
]]>
FakeTaxi 17 05 28 Karol Lilien XXX 480p MP4-TK http://glodls.to/torrent.php?id=2539562 http://glodls.to/torrent.php?id=2539562 Sun, 28 May 2017 16:11:30 +0100 Adult XXX
[b]Screenshots:[/b]

[url]http://imgking.co/imgs-592af6b3d7d9a.html[/url]

[url]http://imgking.co/imgs-592af6b3cf6c2.html[/url]

[url]http://imgking.co/imgs-592af6b3c80ff.html[/url]

[url]http://imgking.co/imgs-592af6a73f180.html[/url]

File Size : 226 MiB
Duration : 27mn 40s
Video : h264, yuv420p, 854x480p, 1024 Kbps
Audio : aac , 2 ch, stereo , 128 Kbps ]]>
Feast Of Feet XXX 480p WEBRip MP4-TK http://glodls.to/torrent.php?id=2539561 http://glodls.to/torrent.php?id=2539561 Sun, 28 May 2017 16:11:01 +0100 Adult XXX
[b]Screenshots:[/b]

[url]http://imgking.co/imgs-592af696eab92.html[/url]

[url]http://imgking.co/imgs-592af696e420a.html[/url]

[url]http://imgking.co/imgs-592af696dd997.html[/url]

[url]http://imgking.co/imgs-592af68f817b4.html[/url]

File Size : 1.19 GiB
Duration : 2h 27mn
Video : h264, yuv420p, 854x480p, 1024 Kbps
Audio : aac , 2 ch, stereo , 128 Kbps ]]>
8thStreetLatinas - Goldie Ortiz - Package For Goldie http://glodls.to/torrent.php?id=2539560 http://glodls.to/torrent.php?id=2539560 Sun, 28 May 2017 16:10:07 +0100 Adult XXX http://www.pixsense.net/site/v/1866934#443&1866934
http://imguniversal.com/d7106ohlyhdc
https://img.yt/img-592af56cccb20.html
]]>
Fairy Houses - How to Create Whimsical Homes for Fairy Folk (2017) (Epub) Gooner http://glodls.to/torrent.php?id=2539559 http://glodls.to/torrent.php?id=2539559 Sun, 28 May 2017 16:04:25 +0100 Books
[b]Publisher: Cool Springs Press (5 Jan. 2017)
Author: Sally J. Smith
Language: English
ISBN-10: 1591866723
ISBN-13: 9781591866725
ASIN: B01NAQB0SN

Create the ultimate fairy houses, made with natural materials - just the way real fairies build their homes!

Have you ever seen a real fairy house? Not the ceramic ones you purchase, but a real fairy house made from natural elements? Well, now you can build your own miniature magical abode - the perfect addition to your garden. Step-by-step instructions for constructing exquisite fairy houses are revealed in Fairy Houses, explained by master fairy house architect Sally Smith.

Smith has been creating one-of-a-kind DIY fairy houses out of natural artifacts for years, now she passes her miniature construction knowledge to you. Imagine, a fairy garden with homes that have butterfly wings as stained-glass windows, twigs for window frames, birch bark for walls, dried mushrooms for shingles.

Begin by flipping through an inspiration gallery, find which elements appeal to you, and how they fit together. From there, you’ll learn about building materials (found and natural), on-site fairy house construction, and how to light a fairy house.

With this book, fairy houses move beyond "cute" and into beautiful, nature-woven works of art.[/b][/center] ]]>
[BangBrosClips - BangBros] Jillian Janson aka Jillian Brookes Jillian Janson Does Anal For BangBros (bbc15951 - 27 05 2017) http://glodls.to/torrent.php?id=2539558 http://glodls.to/torrent.php?id=2539558 Sun, 28 May 2017 16:02:55 +0100 Adult XXX
Genre :- [Anal, Amateur, Blonde, Blowjob, Cum In Mouth, Cum Shot, Doggystyle, Hardcore, Missionary, Squirting, Swallow]

Screenshot :-

[url=http://imgtorrnt.in/view.php?id=gsMRr9x][color=green] View Screen 1 [/color] [/url]

[url=http://imgtorrnt.in/view.php?id=EkBRFDm][color=green] View Screen 2 [/color] [/url]

[img]http://i.imgur.com/gsMRr9x.jpg[/img]

]]>