GloDLS.to - Download Movies, TV, Games and Other Torrents Free RSS 2.0enGloDLS.to - Download Movies, TV, Games and Other Torrents FreeGloDLS.to - Download Movies, TV, Games and Other Torrents Free RSS Feedhttp://glodls.toCopyright GloDLS.to - Download Movies, TV, Games and Other Torrents FreeTue, 28 Mar 2017 11:02:41 +0100 [Brazzers Hot and Mean] Gabriella Paltrova [*New Porn*][March 2017] mp4 http://glodls.to/torrent.php?id=2333214 http://glodls.to/torrent.php?id=2333214 Tue, 28 Mar 2017 10:01:58 +0100 Adult XXX [b]MRF... Presents:[/b]

[b]Screens:[/b]
[url=https://www.bulkyimg.org/XXX/BRHAM0328/images.html]https://www.bulkyimg.org/XXX/BRHAM0328/images.html[/url]


[code]

Format : MPEG-4
Format profile : Base Media
Codec ID : isom (isom/iso2/avc1/mp41)
File size : 570 MiB
Duration : 37 min 10 s
Overall bit rate : 2 143 kb/s
Writing application : Lavf57.28.100

Video
ID : 1
Format : AVC
Format/Info : Advanced Video Codec
Format profile : High@L3
Format settings, CABAC : Yes
Format settings, ReFrames : 5 frames
Codec ID : avc1
Codec ID/Info : Advanced Video Coding
Duration : 37 min 10 s
Bit rate : 2 000 kb/s
Width : 854 pixels
Height : 480 pixels
Display aspect ratio : 16:9
Original display aspect ratio : 16:9
Frame rate mode : Constant
Frame rate : 23.976 (23976/1000) FPS
Color space : YUV
Chroma subsampling : 4:2:0
Bit depth : 8 bits
Scan type : Progressive
Bits/(Pixel*Frame) : 0.203
Stream size : 535 MiB (94%)
Writing library : x264 core 148 r2665 a01e339
Encoding settings : cabac=1 / ref=5 / deblock=1:0:0 / analyse=0x3:0x113 / me=umh / subme=8 / psy=1 / psy_rd=1.00:0.00 / mixed_ref=1 / me_range=16 / chroma_me=1 / trellis=1 / 8x8dct=1 / cqm=0 / deadzone=21,11 / fast_pskip=1 / chroma_qp_offset=-2 / threads=18 / lookahead_threads=3 / sliced_threads=0 / nr=0 / decimate=1 / interlaced=0 / bluray_compat=0 / constrained_intra=0 / bframes=3 / b_pyramid=2 / b_adapt=2 / b_bias=0 / direct=3 / weightb=1 / open_gop=0 / weightp=2 / keyint=60 / keyint_min=6 / scenecut=40 / intra_refresh=0 / rc_lookahead=50 / rc=abr / mbtree=1 / bitrate=2000 / ratetol=1.0 / qcomp=0.60 / qpmin=0 / qpmax=69 / qpstep=4 / ip_ratio=1.40 / aq=1:1.00
Language : English
Tagged date : UTC 2017-03-27 21:18:10

Audio
ID : 2
Format : AAC
Format/Info : Advanced Audio Codec
Format profile : LC
Codec ID : 40
Duration : 37 min 10 s
Duration_LastFrame : 21 ms
Bit rate mode : Constant
Bit rate : 129 kb/s
Channel(s) : 2 channels
Channel positions : Front: L R
Sampling rate : 48.0 kHz
Frame rate : 46.875 FPS (1024 spf)
Compression mode : Lossy
Stream size : 34.2 MiB (6%)
Language : English
Default : Yes
Alternate group : 1
Tagged date : UTC 2017-03-27 21:18:10



[/code]
[/center]
]]>
15 Most Amazing Collection of Smartphone Wallpapers - 4596 [ECLiPSE] http://glodls.to/torrent.php?id=2333211 http://glodls.to/torrent.php?id=2333211 Tue, 28 Mar 2017 10:01:02 +0100 Mobile Gautamiputra Satakarni (2017) - Telugu - WebRip - X265 - 720P - 1CD [Team Jaffa] http://glodls.to/torrent.php?id=2333170 http://glodls.to/torrent.php?id=2333170 Tue, 28 Mar 2017 10:00:37 +0100 Movies BBC Life 2009 1080p BluRay Remux DTS VC1-HDME [RiCK] x265.AAC.ACai http://glodls.to/torrent.php?id=2333166 http://glodls.to/torrent.php?id=2333166 Tue, 28 Mar 2017 10:00:35 +0100 Movies Monster.Trucks.2016.HDRip.XviD.AC3-EVO http://glodls.to/torrent.php?id=2333160 http://glodls.to/torrent.php?id=2333160 Tue, 28 Mar 2017 10:00:32 +0100 Movies Monster.Trucks.2016.HDRip.XviD.AC3-EVO http://glodls.to/torrent.php?id=2333156 http://glodls.to/torrent.php?id=2333156 Tue, 28 Mar 2017 10:00:30 +0100 Movies Miles Ahead(2015)MPEG-4[DaScubaDude] http://glodls.to/torrent.php?id=2333150 http://glodls.to/torrent.php?id=2333150 Tue, 28 Mar 2017 10:00:26 +0100 Movies Medal.of.Victory.2016.HDRip.XviD.AC3-EVO http://glodls.to/torrent.php?id=2333147 http://glodls.to/torrent.php?id=2333147 Tue, 28 Mar 2017 10:00:24 +0100 Movies Medal.of.Victory.2016.HDRip.XviD.AC3-EVO http://glodls.to/torrent.php?id=2333145 http://glodls.to/torrent.php?id=2333145 Tue, 28 Mar 2017 10:00:22 +0100 Movies Bates.Motel.S05E06.WEB-DL.XviD-FUM[ettv] http://glodls.to/torrent.php?id=2333144 http://glodls.to/torrent.php?id=2333144 Tue, 28 Mar 2017 10:00:22 +0100 TV http://www.tvrage.com/schedule.php?show_yesterday=1. ]]> Dr.Phil.Show.2017.03.27.HDTV.x264.mp4 http://glodls.to/torrent.php?id=2333143 http://glodls.to/torrent.php?id=2333143 Tue, 28 Mar 2017 10:00:20 +0100 TV http://www.tvrage.com/schedule.php?show_yesterday=1. ]]> Monster.Trucks.2016.720p.WEB-DL.H264.AC3-EVO http://glodls.to/torrent.php?id=2333142 http://glodls.to/torrent.php?id=2333142 Tue, 28 Mar 2017 10:00:20 +0100 Movies The Marine.5.Battleground.2017.HDRip.XviD.AC3-EVO http://glodls.to/torrent.php?id=2333134 http://glodls.to/torrent.php?id=2333134 Tue, 28 Mar 2017 10:00:16 +0100 Movies Wheel.of.Fortune.2017.03.27.720p.WEBRip.H264.AAC-PRiNCE.mkv http://glodls.to/torrent.php?id=2333129 http://glodls.to/torrent.php?id=2333129 Tue, 28 Mar 2017 10:00:13 +0100 TV http://www.tvrage.com/schedule.php?show_yesterday=1. ]]> Street.Outlaws.S06E13.Vs.Fast.N.Loud-Mega.Race.720p.HDTV.x264-SnD http://glodls.to/torrent.php?id=2333128 http://glodls.to/torrent.php?id=2333128 Tue, 28 Mar 2017 10:00:11 +0100 TV http://www.tvrage.com/schedule.php?show_yesterday=1. ]]> The Marine.5.Battleground.2017.HDRip.XviD.AC3-EVO http://glodls.to/torrent.php?id=2333127 http://glodls.to/torrent.php?id=2333127 Tue, 28 Mar 2017 10:00:11 +0100 Movies Dancing.With.The.Stars.US.S24E02.HDTV.x264-SnD http://glodls.to/torrent.php?id=2333125 http://glodls.to/torrent.php?id=2333125 Tue, 28 Mar 2017 10:00:10 +0100 TV http://www.tvrage.com/schedule.php?show_yesterday=1. ]]> WWE Network Exclusive Interview with Kurt Angle WEB h264-HEEL [TJET] http://glodls.to/torrent.php?id=2333122 http://glodls.to/torrent.php?id=2333122 Tue, 28 Mar 2017 10:00:08 +0100 TV http://www.tvrage.com/schedule.php?show_yesterday=1. ]]> The.Voice.S12E11.WEB.x264.mp4 http://glodls.to/torrent.php?id=2333120 http://glodls.to/torrent.php?id=2333120 Tue, 28 Mar 2017 10:00:07 +0100 TV http://www.tvrage.com/schedule.php?show_yesterday=1. ]]> WWE Network Exclusive Interview with Kurt Angle 720p WEB h264-HEEL [TJET] http://glodls.to/torrent.php?id=2333117 http://glodls.to/torrent.php?id=2333117 Tue, 28 Mar 2017 10:00:05 +0100 TV http://www.tvrage.com/schedule.php?show_yesterday=1. ]]> Dancing.With.The.Stars.US.S24E02.WEB.x264.mp4 http://glodls.to/torrent.php?id=2333112 http://glodls.to/torrent.php?id=2333112 Tue, 28 Mar 2017 10:00:03 +0100 TV http://www.tvrage.com/schedule.php?show_yesterday=1. ]]> SketchUp For Dummies - 1E (2017) (Epub) Gooner http://glodls.to/torrent.php?id=2333111 http://glodls.to/torrent.php?id=2333111 Tue, 28 Mar 2017 09:56:47 +0100 Books
[b]Publisher: John Wiley & Sons (14 April 2017)
Author: Aidan Chopra & Rebecca Huehls
Language: English
ISBN-10: 1119336155
ISBN-13: 9781119336150
ASIN: B06XGNPR8Z

Design almost anything in 3D with SketchUp

Whether you've dabbled in drawing in 3D or are interested in learning the basics of design, SketchUp For Dummies makes it fast and easy to learn the ropes of a powerful, user-friendly tool to bring your design ideas to life. From creating a basic 3D model to showing off your work via 3D print or animation, this all-access guide pulls back the curtain on using SketchUp to do anything from redesigning your house to mocking up the next great invention.

With an emphasis on usability, SketchUp has found very wide success as a tool even non-designers can use to make basic drawings. And now, thanks to the insight and expert tips from former SketchUp product director Aidan Chopra and co-author Rebecca Huehls, this easy-to-follow guide makes it more accessible than ever!

> Create buildings and components
> Alter the appearance of your model
> Tour your designs via SketchUp
> Get quick tips on troubleshooting

If you're a designer with sketchy computer modeling skills, SketchUp For Dummies is the trusted reference you'll turn to again and again.[/b][/center] ]]>
Dark Emily - Dark Romance Between A Dark Lord And His Big-Town Nymph http://glodls.to/torrent.php?id=2333110 http://glodls.to/torrent.php?id=2333110 Tue, 28 Mar 2017 09:56:16 +0100 Adult XXX
[b]Date[/b]: 2017
[b]Cast[/b]: Dark Emily
[b]Genre[/b]: Hardcore, Blowjob, All Sex, Brunette, Amateur, Bdsm
[b]Name[/b]: Dark Romance Between A Dark Lord And His Big-Town Nymph


[b]Video[/b]: AVC, 1920x1080, 25.000 FPS, 6031 kb/s
[b]Audio[/b]: AAC LC, 48.0 kHz, 2 channels, 317 kb/s
[b]Format[/b]: mp4
[b]Duration[/b]: 00:19:49
]]>
BlacksOnBlondes 17 03 28 Alena Croft XXX XviD SD http://glodls.to/torrent.php?id=2333109 http://glodls.to/torrent.php?id=2333109 Tue, 28 Mar 2017 09:52:42 +0100 Adult XXX
[b]Screenshots:[/b]

[url]http://imgkings.com/img-58da326aea20c.html[/url]

[url]http://imgkings.com/img-58da326ae5bf3.html[/url]

[url]http://imgkings.com/img-58da326adf5ab.html[/url]

[url]http://imgkings.com/img-58da3268760e7.html[/url] ]]>
Deadman.Apocalypse.2016.HDRip.XviD.AC3-iFT[PRiME] http://glodls.to/torrent.php?id=2333108 http://glodls.to/torrent.php?id=2333108 Tue, 28 Mar 2017 09:48:44 +0100 Movies Deadman.Apocalypse.2016.HDRip.XviD.AC3-iFT[PRiME]

ImDb: [URL]http://www.imdb.com/title/tt4606498[/URL]

[url=https://www.sparrowpics.com/image/LwB][img]https://www.sparrowpics.com/images/2015/12/10/Info.png[/img][/url]

[color=green]Complete name : Deadman.Apocalypse.2016.HDRip.XviD.AC3-iFT[PRiME].avi
Format : AVI
Format/Info : Audio Video Interleave
Format profile : OpenDML
Format settings : rec
File size : 1.27 GiB
Duration : 1 h 18 min
Overall bit rate : 2 323 kb/s
Writing application : AVI-Mux GUI 1.17.8.3, Feb 16 201019:42:50

Video
ID : 0
Format : MPEG-4 Visual
Format profile : Advanced Simple@L5
Format settings, BVOP : 2
Format settings, QPel : No
Format settings, GMC : No warppoints
Format settings, Matrix : Default (H.263)
Muxing mode : Packed bitstream
Codec ID : XVID
Codec ID/Hint : XviD
Duration : 1 h 18 min
Bit rate : 1 933 kb/s
Width : 720 pixels
Height : 304 pixels
Display aspect ratio : 2.35:1
Frame rate : 25.000 FPS
Color space : YUV
Chroma subsampling : 4:2:0
Bit depth : 8 bits
Scan type : Progressive
Compression mode : Lossy
Bits/(Pixel*Frame) : 0.353
Stream size : 1.06 GiB (83%)
Writing library : XviD 73

Audio
ID : 1
Format : AC-3
Format/Info : Audio Coding 3
Mode extension : CM (complete main)
Format settings, Endianness : Big
Codec ID : 2000
Duration : 1 h 18 min
Bit rate mode : Constant
Bit rate : 384 kb/s
Channel(s) : 6 channels
Channel positions : Front: L C R, Side: L R, LFE
Sampling rate : 48.0 kHz
Frame rate : 31.250 FPS (1536 spf)
Compression mode : Lossy
Stream size : 215 MiB (17%)
Alignment : Aligned on interleaves
Interleave, duration : 64 ms (1.60 video frames)
Interleave, preload duration : 192 ms
Title : Deadman.track_2[/color]

[url=https://www.sparrowpics.com/image/UYe][img]https://www.sparrowpics.com/images/2015/12/10/Screens.png[/img][/url]

[color=red]Click Image To View Full Size[/color]

[URL=https://www.sparrowpics.com/image/DuyWM][IMG]https://www.sparrowpics.com/images/2017/03/28/DuyWM.th.jpg[/IMG][/URL]
[URL=https://www.sparrowpics.com/image/DuzyV][b]Click To View Screenshot[/b][/URL]
[URL=https://www.sparrowpics.com/image/DuXDd][b]Click To View Screenshot[/b][/URL]
[URL=https://www.sparrowpics.com/image/Dur11][b]Click To View Screenshot[/b][/URL]

[/center] ]]>
GloryHole 17 03 27 Jaye Summers XXX XviD SD http://glodls.to/torrent.php?id=2333106 http://glodls.to/torrent.php?id=2333106 Tue, 28 Mar 2017 09:48:27 +0100 Adult XXX
[b]Screenshots:[/b]

[url]http://imgkings.com/img-58da316be1ae7.html[/url]

[url]http://imgkings.com/img-58da316bdd339.html[/url]

[url]http://imgkings.com/img-58da316bd7bf4.html[/url]

[url]http://imgkings.com/img-58da3169f1a23.html[/url] ]]>
Spizoo 17 03 28 Sarah Jessie Missing Date With Sarah XXX 480p MP4-TK http://glodls.to/torrent.php?id=2333104 http://glodls.to/torrent.php?id=2333104 Tue, 28 Mar 2017 09:42:03 +0100 Adult XXX
[b]Screenshots:[/b]

[url]http://imgkings.com/img-58da2fec4f8a9.html[/url]

[url]http://imgkings.com/img-58da2fec48db1.html[/url]

[url]http://imgkings.com/img-58da2fec4105c.html[/url]

[url]http://imgkings.com/img-58da2f7a728f7.html[/url]

File Size : 178 MiB
Duration : 21mn 32s
Video : h264, yuv420p, 854x480p, 1024 Kbps
Audio : aac , 2 ch, stereo , 128 Kbps ]]>
Essentials of Biology - 5E (2017) (Pdf) Gooner http://glodls.to/torrent.php?id=2333103 http://glodls.to/torrent.php?id=2333103 Tue, 28 Mar 2017 09:41:55 +0100 Books
[b]Publisher: McGraw-Hill Education; 5 edition (1 Mar. 2017)
Author: Sylvia Mader & Michael Windelspecht
Language: English
ISBN-10: 1259660265
ISBN-13: 9781259660269
ASIN: B01MSDTSOY

Mader/Windelspecht,Essentials of Biology, 5e

Essentials of Biology is an introductory biology text for non-major students that can be used in a one- or two-semester course. It was prepared to provide non-science majors with a fundamental understanding of the science of biology.

The overall focus of this edition addresses the learning styles of modern students, and in the process, increases their understanding of the importance of science in their lives. It was prepared to engage today's students in the science of biology by providing a fundamental understanding of life. Digital resources and Connections boxes encourage the student to integrate scientific concepts into their lives.

Essentials of Biology is fully integrated into McGraw-Hill’s adaptive learning and Connect platforms,and is associated with a number of online assets that allow instructors to use this text as a content foundation for traditional, online, hybrid and"flipped" classrooms.[/b][/center] ]]>
The.Voice.S12E11.720p.WEB.x264-WEBSTER[PRiME] http://glodls.to/torrent.php?id=2333100 http://glodls.to/torrent.php?id=2333100 Tue, 28 Mar 2017 09:33:09 +0100 TV The.Voice.S12E11.720p.WEB.x264-WEBSTER[PRiME]

[url=https://www.sparrowpics.com/image/LwB][img]https://www.sparrowpics.com/images/2015/12/10/Info.png[/img][/url]

[color=green]Complete name : the.voice.s12e11.720p.web.x264-webster[PRiME].mkv
Format : Matroska
Format version : Version 4 / Version 2
File size : 1.07 GiB
Duration : 1 h 25 min
Overall bit rate : 1 800 kb/s
Encoded date : UTC 2017-03-28 09:24:04
Writing application : mkvmerge v9.9.0 ('Pick Up') 64bit
Writing library : libebml v1.3.4 + libmatroska v1.4.5

Video
ID : 1
Format : AVC
Format/Info : Advanced Video Codec
Format profile : High@L3.1
Format settings, CABAC : Yes
Format settings, ReFrames : 1 frame
Format settings, GOP : M=1, N=48
Codec ID : V_MPEG4/ISO/AVC
Duration : 1 h 25 min
Bit rate : 1 696 kb/s
Width : 1 280 pixels
Height : 720 pixels
Display aspect ratio : 16:9
Frame rate mode : Constant
Frame rate : 23.976 (24000/1001) FPS
Color space : YUV
Chroma subsampling : 4:2:0
Bit depth : 8 bits
Scan type : Progressive
Bits/(Pixel*Frame) : 0.077
Stream size : 1.02 GiB (95%)
Writing library : x264 core 120
Encoding settings : cabac=1 / ref=1 / deblock=1:0:0 / analyse=0x3:0x113 / me=hex / subme=6 / psy=1 / psy_rd=1.00:0.00 / mixed_ref=0 / me_range=16 / chroma_me=0 / trellis=1 / 8x8dct=1 / cqm=0 / deadzone=21,11 / fast_pskip=1 / chroma_qp_offset=-2 / threads=8 / sliced_threads=0 / nr=0 / decimate=1 / interlaced=0 / bluray_compat=0 / constrained_intra=0 / bframes=0 / weightp=2 / keyint=48 / keyint_min=25 / scenecut=0 / intra_refresh=0 / rc=abr / mbtree=0 / bitrate=1696 / ratetol=1.0 / qcomp=0.60 / qpmin=10 / qpmax=51 / qpstep=4 / ip_ratio=1.40 / aq=1:1.00
Default : Yes
Forced : No

Audio
ID : 2
Format : AAC
Format/Info : Advanced Audio Codec
Format profile : LC
Codec ID : A_AAC
Duration : 1 h 25 min
Bit rate : 96.0 kb/s
Channel(s) : 2 channels
Channel positions : Front: L R
Sampling rate : 44.1 kHz
Frame rate : 43.066 FPS (1024 spf)
Compression mode : Lossy
Stream size : 58.6 MiB (5%)
Default : Yes
Forced : No[/color]

[url=https://www.sparrowpics.com/image/UYe][img]https://www.sparrowpics.com/images/2015/12/10/Screens.png[/img][/url]

[color=red]Click Image To View Full Size[/color]

[URL=https://www.sparrowpics.com/image/DuTwb][IMG]https://www.sparrowpics.com/images/2017/03/28/DuTwb.th.jpg[/IMG][/URL]
[URL=https://www.sparrowpics.com/image/Du6Y3][b]Click To View Screenshot[/b][/URL]
[URL=https://www.sparrowpics.com/image/DuAbK][b]Click To View Screenshot[/b][/URL]
[URL=https://www.sparrowpics.com/image/DudkX][b]Click To View Screenshot[/b][/URL]

[/center] ]]>
The Marine.5.Battleground.2017.HDRip.XviD.AC3-iFT[PRiME] http://glodls.to/torrent.php?id=2333099 http://glodls.to/torrent.php?id=2333099 Tue, 28 Mar 2017 09:33:07 +0100 Movies The Marine.5.Battleground.2017.HDRip.XviD.AC3-iFT[PRiME]

ImDb: [URL]http://www.imdb.com/title/tt5781798[/URL]

[url=https://www.sparrowpics.com/image/LwB][img]https://www.sparrowpics.com/images/2015/12/10/Info.png[/img][/url]

[color=green]Complete name : The Marine.5.Battleground.2017.HDRip.XviD.AC3-iFT[PRiME].avi
Format : AVI
Format/Info : Audio Video Interleave
Format profile : OpenDML
Format settings : rec
File size : 1.50 GiB
Duration : 1 h 31 min
Overall bit rate : 2 337 kb/s
Writing application : AVI-Mux GUI 1.17.8.3, Feb 16 201019:42:50

Video
ID : 0
Format : MPEG-4 Visual
Format profile : Advanced Simple@L5
Format settings, BVOP : 2
Format settings, QPel : No
Format settings, GMC : No warppoints
Format settings, Matrix : Default (H.263)
Muxing mode : Packed bitstream
Codec ID : XVID
Codec ID/Hint : XviD
Duration : 1 h 31 min
Bit rate : 1 948 kb/s
Width : 720 pixels
Height : 400 pixels
Display aspect ratio : 16:9
Frame rate : 23.976 (23976/1000) FPS
Color space : YUV
Chroma subsampling : 4:2:0
Bit depth : 8 bits
Scan type : Progressive
Compression mode : Lossy
Bits/(Pixel*Frame) : 0.282
Stream size : 1.25 GiB (83%)
Writing library : XviD 73

Audio
ID : 1
Format : AC-3
Format/Info : Audio Coding 3
Mode extension : CM (complete main)
Format settings, Endianness : Big
Codec ID : 2000
Duration : 1 h 31 min
Bit rate mode : Constant
Bit rate : 384 kb/s
Channel(s) : 6 channels
Channel positions : Front: L C R, Side: L R, LFE
Sampling rate : 48.0 kHz
Frame rate : 31.250 FPS (1536 spf)
Compression mode : Lossy
Stream size : 252 MiB (16%)
Alignment : Aligned on interleaves
Interleave, duration : 64 ms (1.53 video frames)
Interleave, preload duration : 192 ms
Title : The Marine.track_1[/color]

[url=https://www.sparrowpics.com/image/UYe][img]https://www.sparrowpics.com/images/2015/12/10/Screens.png[/img][/url]

[color=red]Click Image To View Full Size[/color]

[URL=https://www.sparrowpics.com/image/Duocx][IMG]https://www.sparrowpics.com/images/2017/03/28/Duocx.th.jpg[/IMG][/URL]
[URL=https://www.sparrowpics.com/image/DusqN][b]Click To View Screenshot[/b][/URL]
[URL=https://www.sparrowpics.com/image/DuZTY][b]Click To View Screenshot[/b][/URL]
[URL=https://www.sparrowpics.com/image/Du0e9][b]Click To View Screenshot[/b][/URL]

[/center] ]]>
[NaughtyOffice/NaughtyAmerica]Jill Kassidy, Johnny Castle(NEW***28 03 2017) http://glodls.to/torrent.php?id=2333098 http://glodls.to/torrent.php?id=2333098 Tue, 28 Mar 2017 09:32:29 +0100 Adult XXX [center][URL=http://imgclick.net/clp1at1k1wv1/Jill_Kassidy_thumb.jpg.html][IMG]http://main.imgclick.net/i/00929/clp1at1k1wv1_t.jpg[/IMG][/URL]
[size=4]

Jill Kassidy, Johnny Castle
Category: All Sex, Blowjob, Hardcore, Natural tits, Pornstar, Pornstar
File size: 383 MiB
Duration: 31mn 2s

[b]SCREENS:[/b]
[url]http://damimage.com/img-58da2c712c9c0.html[/url]
[url]http://imgclick.net/cjp93k9qzl9i/Jill_Kassidy_v2.jpg.html[/url]

[b]SHOOT:[/b]
[url]http://imageteam.org/img-58da2d275ae53.html[/url]
[/size]
[/center]
]]>
AllOver30 17 03 28 Isabella B XXX 480p MP4-TK http://glodls.to/torrent.php?id=2333097 http://glodls.to/torrent.php?id=2333097 Tue, 28 Mar 2017 09:31:46 +0100 Adult XXX
[b]Screenshots:[/b]

[url]http://imgkings.com/img-58da2d8342680.html[/url]

[url]http://imgkings.com/img-58da2d833befe.html[/url]

[url]http://imgkings.com/img-58da2d8335475.html[/url]

[url]http://imgkings.com/img-58da2d10b5469.html[/url]

File Size : 83.0 MiB
Duration : 9mn 57s
Video : h264, yuv420p, 854x480p, 1024 Kbps
Audio : aac , 2 ch, stereo , 128 Kbps ]]>
[Indecentes-Voisines]Lucie - Vraie pucelle! Lucie, 20 ans, etudiante en BTS sanitaire et social a Melun, deviergee en direct! http://glodls.to/torrent.php?id=2333095 http://glodls.to/torrent.php?id=2333095 Tue, 28 Mar 2017 09:22:53 +0100 Adult XXX [center][URL=http://imageteam.org/img-58da28ba0acfb.html][IMG]http://imageteam.org/upload/small/2017/03/28/58da28ba0ace9.jpeg[/IMG][/URL]
[size=4]

Lucie - Vraie pucelle! Lucie, 20 ans, etudiante en BTS sanitaire et social a Melun, deviergee en direct!
Category: Anal sex , ass licking , squirt , big boobs , blowjob , brunette , teens
File size: 297 MB
Duration: 00:32:25

[b]SCREENS:[/b]
[url]https://xeimg.yt/img-58da28e61cda3.html[/url]
[url]http://imageteam.org/img-58da28c4eaa75.html[/url]

[b]SHOOT:[/b]
[url]http://damimage.com/img-58da2aa5c3659.html[/url]
[/size]
[/center] ]]>
Prevenge.2016.HDRip.XviD.AC3-iFT[PRiME] http://glodls.to/torrent.php?id=2333093 http://glodls.to/torrent.php?id=2333093 Tue, 28 Mar 2017 09:19:47 +0100 Movies Prevenge.2016.HDRip.XviD.AC3-iFT[PRiME]

ImDb: [URL]http://www.imdb.com/title/tt5154288[/URL]

[url=https://www.sparrowpics.com/image/LwB][img]https://www.sparrowpics.com/images/2015/12/10/Info.png[/img][/url]

[color=green]Complete name : Prevenge.2016.HDRip.XviD.AC3-iFT[PRiME].avi
Format : AVI
Format/Info : Audio Video Interleave
Format profile : OpenDML
Format settings : rec
File size : 1.41 GiB
Duration : 1 h 27 min
Overall bit rate : 2 301 kb/s
Writing application : AVI-Mux GUI 1.17.8.3, Feb 16 201019:42:50

Video
ID : 0
Format : MPEG-4 Visual
Format profile : Advanced Simple@L5
Format settings, BVOP : 2
Format settings, QPel : No
Format settings, GMC : No warppoints
Format settings, Matrix : Default (H.263)
Muxing mode : Packed bitstream
Codec ID : XVID
Codec ID/Hint : XviD
Duration : 1 h 27 min
Bit rate : 1 911 kb/s
Width : 720 pixels
Height : 304 pixels
Display aspect ratio : 2.35:1
Frame rate : 25.000 FPS
Color space : YUV
Chroma subsampling : 4:2:0
Bit depth : 8 bits
Scan type : Progressive
Compression mode : Lossy
Bits/(Pixel*Frame) : 0.349
Stream size : 1.17 GiB (83%)
Writing library : XviD 73

Audio
ID : 1
Format : AC-3
Format/Info : Audio Coding 3
Mode extension : CM (complete main)
Format settings, Endianness : Big
Codec ID : 2000
Duration : 1 h 27 min
Bit rate mode : Constant
Bit rate : 384 kb/s
Channel(s) : 6 channels
Channel positions : Front: L C R, Side: L R, LFE
Sampling rate : 48.0 kHz
Frame rate : 31.250 FPS (1536 spf)
Compression mode : Lossy
Stream size : 241 MiB (17%)
Alignment : Aligned on interleaves
Interleave, duration : 64 ms (1.60 video frames)
Interleave, preload duration : 192 ms
Title : Prevenge.track_2[/color]

[url=https://www.sparrowpics.com/image/UYe][img]https://www.sparrowpics.com/images/2015/12/10/Screens.png[/img][/url]

[color=red]Click Image To View Full Size[/color]

[URL=https://www.sparrowpics.com/image/Du3b6][IMG]https://www.sparrowpics.com/images/2017/03/28/Du3b6.th.jpg[/IMG][/URL]
[URL=https://www.sparrowpics.com/image/DuIKh][b]Click To View Screenshot[/b][/URL]
[URL=https://www.sparrowpics.com/image/DuRUt][b]Click To View Screenshot[/b][/URL]
[URL=https://www.sparrowpics.com/image/DuYyZ][b]Click To View Screenshot[/b][/URL]

[/center] ]]>
Asuka Ayanami - Pink Bikini Double Bj http://glodls.to/torrent.php?id=2333092 http://glodls.to/torrent.php?id=2333092 Tue, 28 Mar 2017 09:19:21 +0100 Adult XXX
[b]Date[/b]: 2017
[b]Cast[/b]: Asuka Ayanami
[b]Genre[/b]: Hardcore, Blowjob, Brunette, Asian
[b]Name[/b]: Pink Bikini Double Bj


[b]Video[/b]: AVC, 1920x1080, 29.970 FPS, 6513 kb/s
[b]Audio[/b]: AAC LC, 48.0 kHz, 2 channels, 317 kb/s
[b]Format[/b]: mp4
[b]Duration[/b]: 00:10:47
]]>
[2ChicksSameTime/NaughtyAmerica]Jessica Bangkok , Mia Lelani , Derrick Pierce http://glodls.to/torrent.php?id=2333091 http://glodls.to/torrent.php?id=2333091 Tue, 28 Mar 2017 09:17:36 +0100 Adult XXX [center][URL=https://img.yt/img-58da2829c1969.html][IMG]https://img.yt/upload/small/2017/03/28/58da2829c192d.jpg[/IMG][/URL]
[size=4]

Jessica Bangkok , Mia Lelani , Derrick Pierce
Category: American, Asian, Ball licking, BGG, Big Fake Tits, Big Tits, Blow Job, Brunette, Bubble Butt, Cum in Mouth, Cum Swapping, Deepthroating, Facial, Fake Tits, Girl on Girl, Innie Pussy, Lesbian, Remastered, Tattoos, Threesome, Threesome BGG
File size: 401 MiB
Duration: 32mn 29s

[b]SCREENS:[/b]
[url]http://imagedecode.com/img-58da283786f3f.html[/url]
[url]https://img.yt/img-58da28370ba17.html[/url]

[b]SHOOT:[/b]
[url]http://damimage.com/img-58da29d88832f.html[/url]
[/size]
[/center] ]]>
Demon Hunter - Outlive (Deluxe Edition) (2017) [Mp3~320kbps] http://glodls.to/torrent.php?id=2333062 http://glodls.to/torrent.php?id=2333062 Tue, 28 Mar 2017 09:00:23 +0100 Music
[img]https://extraimago.com/images/2016/10/28/f7a5336e77407b7dee00d04d696947d5.png[/img]
[color=red][size=3]
Artist : Demon Hunter

Album : Outlive (Deluxe Edition)

Genre : Metalcore

Release : 2017

Tracks : 14

Quality: 320Kbps/Joint Stereo/44100Hz

Total Time: 00:59:09

Total Size: 136 Mb
[/size][/color]
[img]https://extraimago.com/images/2016/10/28/99616de520d7b3ae31e87aceba477ea3.png[/img]
[color=green][size=3]
1. Trying Times

2. Jesus Wept

3. Cold Winter Sun

4. Died in My Sleep

5. Half as Dead

6. Cold Blood

7. One Step Behind

8. Raining Down

9. The End

10. One Less

11. Patience

12. Slight the Odds

13. A Fear I Used To Know (Bonus Track)

14. Savage (Bonus Track)
[/size][/color]
[img]https://extraimago.com/images/2015/10/09/CjjF0uX3.gif[/img]
[/center] ]]>
Yellow Claw - Los Amsterdam (2017) [Mp3~320kbps] http://glodls.to/torrent.php?id=2333035 http://glodls.to/torrent.php?id=2333035 Tue, 28 Mar 2017 08:55:15 +0100 Music
[img]https://extraimago.com/images/2016/10/28/f7a5336e77407b7dee00d04d696947d5.png[/img]
[color=red][size=3]
Artist : Yellow Claw

Album : Los Amsterdam

Genre : Electronic, Dubstep, Dance

Release : 2017

Tracks : 13

Quality: 320Kbps/Joint Stereo/44100Hz

Total Time: 00:42:55

Total Size: 104 Mb
[/size][/color]
[img]https://extraimago.com/images/2016/10/28/99616de520d7b3ae31e87aceba477ea3.png[/img]
[color=green][size=3]
1. Home (feat. Sophie Simmons)

2. Without You (feat. The Galaxy & Gia Koka)

3. Love & War (feat. Yade Lauren)

4. Good Day (feat. DJ Snake & Elliphant)

5. Open (feat. Moksi & Jonna Fraser)

6. City on Lockdown (feat. Juicy J & Lil Debbie)

7. Friends In The Dark (feat. Otis Parker)

8. Stacks (feat. Quavo, Tinie Tempah & Cesqeaux)

9. Last Paradise (feat. Sody)

10. Light Years (feat. Rochelle)

11. Hold On to Me (feat. GTA)

12. Rose Horizon (feat. STORi)

13. Invitation (feat. Yade Lauren)
[/size][/color]
[img]https://extraimago.com/images/2015/10/09/CjjF0uX3.gif[/img]
[/center] ]]>
60 Minutes S49e27 Web H264-WEBSTER http://glodls.to/torrent.php?id=2333034 http://glodls.to/torrent.php?id=2333034 Tue, 28 Mar 2017 08:55:07 +0100 TV [center][IMG]https://extraimago.com/images/2016/07/28/nDEMX0bZiv.gif[/IMG][/center]
[center][IMG]https://extraimago.com/images/2016/07/28/w4oGJhLlpm.gif[/IMG][/center]



[center][color=Blue][b]===================== Video =====================
Id : 1
Format : AVC
Format info : Advanced Video Codec
Format profile : Main@L3.1
Use of CABAC : Yes
RefFrames : 4 frames
Codec Id : V_MPEG4/ISO/AVC
Duration (ms) : 44mn 20s
Width : 720 pixels
Height : 404 pixels
Aspect ratio : 16:9
DisplayAspectRatio_Original : 16:9
Framerate mode : Constant
Framerate : 29.970 fps
Colorimetry : YUV
Colos space : 4:2:0
Bit depth : 8 bits
Scan type : Progressive
Encoded library : x264 core 148 r2708 86b7198
Encoded library settings : cabac=1 / ref=1 / deblock=1:0:0 / analyse=0x1:0x111 / me=hex / subme=2 / psy=1 / psy_rd=1.00:0.00 / mixed_ref=0 / me_range=16 / chroma_me=1 / trellis=0 / 8x8dct=0 / cqm=0 / deadzone=21,11 / fast_pskip=1 / chroma_qp_offset=0 / threads=12 / lookahead_threads=3 / sliced_threads=0 / nr=0 / decimate=1 / interlaced=0 / bluray_compat=0 / constrained_intra=0 / bframes=3 / b_pyramid=2 / b_adapt=1 / b_bias=0 / direct=1 / weightb=1 / open_gop=0 / weightp=1 / keyint=300 / keyint_min=30 / scenecut=40 / intra_refresh=0 / rc_lookahead=10 / rc=crf / mbtree=1 / crf=22.0 / qcomp=0.60 / qpmin=0 / qpmax=69 / qpstep=4 / vbv_maxrate=14000 / vbv_bufsize=14000 / crf_max=0.0 / nal_hrd=none / filler=0 / ip_ratio=1.40 / aq=1:1.00
Default/String : Yes
Forced/String : No
colour_primaries : BT.709
transfer_characteristics : BT.709
matrix_coefficients : BT.709

===================== Audio =====================
Id : 2
Format : AAC
Format info : Advanced Audio Codec
Format profile : LC
Codec Id : A_AAC
Duration (ms) : 44mn 20s
Channel(s) : 2 channels
ChannelPositions : Front: L R
Sampling rate : 48.0 KHz
Compression_Mode/String : Lossy
Video_Delay/String : -21ms
Title : Stereo
Default/String : Yes
Forced/String : No[/b][/color][/center]



[center][img]https://extraimago.com/images/2015/10/12/Screens1.jpg[/img][/center]
[center][url=https://extraimage.net/image/2o6H][img]https://extraimage.net/images/2017/03/28/85714b48c7ce2ec1587b38f172a42ee9.th.jpg[/img][/url][/center] ]]>
The.Bye.Bye.Man.2017.HDRip.XviD.AC3-EVO[PRiME] http://glodls.to/torrent.php?id=2333033 http://glodls.to/torrent.php?id=2333033 Tue, 28 Mar 2017 08:53:06 +0100 Movies The.Bye.Bye.Man.2017.HDRip.XviD.AC3-EVO[PRiME]

ImDb: [URL]http://www.imdb.com/title/tt4030600[/URL]

[url=https://www.sparrowpics.com/image/LwB][img]https://www.sparrowpics.com/images/2015/12/10/Info.png[/img][/url]

[color=green]Complete name : The.Bye.Bye.Man.2017.HDRip.XviD.AC3-EVO[PRiME].avi
Format : AVI
Format/Info : Audio Video Interleave
Format profile : OpenDML
Format settings : rec
File size : 1.33 GiB
Duration : 1 h 39 min
Overall bit rate : 1 903 kb/s
Writing application : AVI-Mux GUI 1.17.8.3, Feb 16 201019:42:50

Video
ID : 0
Format : MPEG-4 Visual
Format profile : Advanced Simple@L5
Format settings, BVOP : 2
Format settings, QPel : No
Format settings, GMC : No warppoints
Format settings, Matrix : Default (H.263)
Muxing mode : Packed bitstream
Codec ID : XVID
Codec ID/Hint : XviD
Duration : 1 h 39 min
Bit rate : 1 514 kb/s
Width : 720 pixels
Height : 384 pixels
Display aspect ratio : 1.85:1
Frame rate : 23.976 (24000/1001) FPS
Color space : YUV
Chroma subsampling : 4:2:0
Bit depth : 8 bits
Scan type : Progressive
Compression mode : Lossy
Bits/(Pixel*Frame) : 0.228
Stream size : 1.06 GiB (80%)
Writing library : XviD 66

Audio
ID : 1
Format : AC-3
Format/Info : Audio Coding 3
Mode extension : CM (complete main)
Format settings, Endianness : Big
Codec ID : 2000
Duration : 1 h 39 min
Bit rate mode : Constant
Bit rate : 384 kb/s
Channel(s) : 6 channels
Channel positions : Front: L C R, Side: L R, LFE
Sampling rate : 48.0 kHz
Frame rate : 31.250 FPS (1536 spf)
Compression mode : Lossy
Stream size : 274 MiB (20%)
Alignment : Aligned on interleaves
Interleave, duration : 64 ms (1.53 video frames)
Interleave, preload duration : 192 ms[/color]

[url=https://www.sparrowpics.com/image/UYe][img]https://www.sparrowpics.com/images/2015/12/10/Screens.png[/img][/url]

[color=red]Click Image To View Full Size[/color]

[URL=https://www.sparrowpics.com/image/DuL0n][IMG]https://www.sparrowpics.com/images/2017/03/28/DuL0n.th.jpg[/IMG][/URL]
[URL=https://www.sparrowpics.com/image/DuMey][b]Click To View Screenshot[/b][/URL]
[URL=https://www.sparrowpics.com/image/DuUwJ][b]Click To View Screenshot[/b][/URL]
[URL=https://www.sparrowpics.com/image/DugRc][b]Click To View Screenshot[/b][/URL]

[/center] ]]>
North Woods Law New Hampshire S01E04 Manhunt HDTV x264-[NY2] http://glodls.to/torrent.php?id=2333032 http://glodls.to/torrent.php?id=2333032 Tue, 28 Mar 2017 08:52:47 +0100 TV [center][IMG]https://extraimago.com/images/2016/07/28/nDEMX0bZiv.gif[/IMG][/center]
[center][IMG]https://extraimago.com/images/2016/07/28/w4oGJhLlpm.gif[/IMG][/center]



[center][color=Blue][b]===================== Video =====================
Id : 1
Format : AVC
Format info : Advanced Video Codec
Format profile : Main@L3.1
Use of CABAC : Yes
RefFrames : 4 frames
Codec Id : V_MPEG4/ISO/AVC
Duration (ms) : 41mn 22s
Width : 720 pixels
Height : 404 pixels
Aspect ratio : 16:9
DisplayAspectRatio_Original : 16:9
Framerate mode : Constant
Framerate : 29.970 fps
Colorimetry : YUV
Colos space : 4:2:0
Bit depth : 8 bits
Scan type : Progressive
Encoded library : x264 core 148 r2708 86b7198
Encoded library settings : cabac=1 / ref=1 / deblock=1:0:0 / analyse=0x1:0x111 / me=hex / subme=2 / psy=1 / psy_rd=1.00:0.00 / mixed_ref=0 / me_range=16 / chroma_me=1 / trellis=0 / 8x8dct=0 / cqm=0 / deadzone=21,11 / fast_pskip=1 / chroma_qp_offset=0 / threads=12 / lookahead_threads=3 / sliced_threads=0 / nr=0 / decimate=1 / interlaced=0 / bluray_compat=0 / constrained_intra=0 / bframes=3 / b_pyramid=2 / b_adapt=1 / b_bias=0 / direct=1 / weightb=1 / open_gop=0 / weightp=1 / keyint=300 / keyint_min=30 / scenecut=40 / intra_refresh=0 / rc_lookahead=10 / rc=crf / mbtree=1 / crf=22.0 / qcomp=0.60 / qpmin=0 / qpmax=69 / qpstep=4 / vbv_maxrate=14000 / vbv_bufsize=14000 / crf_max=0.0 / nal_hrd=none / filler=0 / ip_ratio=1.40 / aq=1:1.00
Default/String : Yes
Forced/String : No
colour_primaries : BT.709
transfer_characteristics : BT.709
matrix_coefficients : BT.709

===================== Audio =====================
Id : 2
Format : AAC
Format info : Advanced Audio Codec
Format profile : LC
Codec Id : A_AAC
Duration (ms) : 41mn 22s
Channel(s) : 2 channels
ChannelPositions : Front: L R
Sampling rate : 48.0 KHz
Compression_Mode/String : Lossy
Video_Delay/String : 21ms
Title : Stereo
Default/String : Yes
Forced/String : No[/b][/color][/center]



[center][img]https://extraimago.com/images/2015/10/12/Screens1.jpg[/img][/center]
[center][url=https://extraimage.net/image/2o64][img]https://extraimage.net/images/2017/03/28/e69a58e809b2d03d135a325cac3ae0ed.th.jpg[/img][/url][/center] ]]>
The Marine.5.Battleground.2017.720p.WEB-DL.H264.AC3-EVO[PRiME] http://glodls.to/torrent.php?id=2333030 http://glodls.to/torrent.php?id=2333030 Tue, 28 Mar 2017 08:50:44 +0100 Movies The Marine.5.Battleground.2017.720p.WEB-DL.H264.AC3-EVO[PRiME]

ImDb: [URL]http://www.imdb.com/title/tt5781798[/URL]

[url=https://www.sparrowpics.com/image/LwB][img]https://www.sparrowpics.com/images/2015/12/10/Info.png[/img][/url]

[color=green]Complete name : The Marine.5.Battleground.2017.720p.WEB-DL.H264.AC3-EVO[PRiME].mkv
Format : Matroska
Format version : Version 4 / Version 2
File size : 2.85 GiB
Duration : 1 h 31 min
Overall bit rate : 4 459 kb/s
Movie name : EVO
Encoded date : UTC 2017-03-28 00:17:51
Writing application : mkvmerge v6.7.0 ('Back to the Ground') 64bit built on Jan 8 2014 15:10:52
Writing library : libebml v1.3.0 + libmatroska v1.4.1

Video
ID : 2
Format : AVC
Format/Info : Advanced Video Codec
Format profile : High@L3.1
Format settings, CABAC : No
Format settings, ReFrames : 2 frames
Codec ID : V_MPEG4/ISO/AVC
Duration : 1 h 31 min
Bit rate : 3 986 kb/s
Width : 1 280 pixels
Height : 720 pixels
Display aspect ratio : 16:9
Frame rate mode : Constant
Frame rate : 23.976 FPS
Color space : YUV
Chroma subsampling : 4:2:0
Bit depth : 8 bits
Scan type : Progressive
Bits/(Pixel*Frame) : 0.180
Stream size : 2.55 GiB (89%)
Language : English
Default : Yes
Forced : No
Color range : Limited
Color primaries : BT.709
Transfer characteristics : BT.709
Matrix coefficients : BT.709

Audio
ID : 1
Format : AC-3
Format/Info : Audio Coding 3
Mode extension : CM (complete main)
Format settings, Endianness : Big
Codec ID : A_AC3
Duration : 1 h 31 min
Bit rate mode : Constant
Bit rate : 384 kb/s
Channel(s) : 6 channels
Channel positions : Front: L C R, Side: L R, LFE
Sampling rate : 48.0 kHz
Frame rate : 31.250 FPS (1536 spf)
Compression mode : Lossy
Stream size : 252 MiB (9%)
Language : English
Default : Yes
Forced : No

Menu
00:00:00.000 : en:1
00:04:52.876 : en:2
00:10:27.042 : en:3
00:17:42.310 : en:4
00:22:27.595 : en:5
00:26:58.656 : en:6
00:31:00.397 : en:7
00:36:43.114 : en:8
00:41:29.775 : en:9
00:47:42.188 : en:10
00:53:51.222 : en:11
01:00:28.493 : en:12
01:06:53.628 : en:13
01:13:34.027 : en:14
01:19:05.733 : en:15
01:24:11.997 : en:16[/color]

[url=https://www.sparrowpics.com/image/UYe][img]https://www.sparrowpics.com/images/2015/12/10/Screens.png[/img][/url]

[color=red]Click Image To View Full Size[/color]

[URL=https://www.sparrowpics.com/image/DshUP][IMG]https://www.sparrowpics.com/images/2017/03/28/DshUP.th.jpg[/IMG][/URL]
[URL=https://www.sparrowpics.com/image/Dsqpm][b]Click To View Screenshot[/b][/URL]
[URL=https://www.sparrowpics.com/image/Du1cr][b]Click To View Screenshot[/b][/URL]
[URL=https://www.sparrowpics.com/image/DuFqW][b]Click To View Screenshot[/b][/URL]

[/center] ]]>
Long Lost Family S02E07 All The Leaves Fell Off My Family Tree HDTV x264-[NY2] http://glodls.to/torrent.php?id=2333029 http://glodls.to/torrent.php?id=2333029 Tue, 28 Mar 2017 08:50:13 +0100 TV [center][IMG]https://extraimago.com/images/2016/07/28/nDEMX0bZiv.gif[/IMG][/center]
[center][IMG]https://extraimago.com/images/2016/07/28/w4oGJhLlpm.gif[/IMG][/center]


[center][color=Red][b]humming sound in audio, Still watchable, only download if you're okay with hearing the humming sound here and there[/b][/color][/center]



[center][color=Blue][b]===================== Video =====================
Id : 1
Format : AVC
Format info : Advanced Video Codec
Format profile : Main@L3.1
Use of CABAC : Yes
RefFrames : 4 frames
Codec Id : V_MPEG4/ISO/AVC
Duration (ms) : 41mn 18s
Width : 720 pixels
Height : 402 pixels
Aspect ratio : 16:9
Framerate mode : Constant
Framerate : 29.970 fps
Colorimetry : YUV
Colos space : 4:2:0
Bit depth : 8 bits
Scan type : Progressive
Encoded library : x264 core 148 r2708 86b7198
Encoded library settings : cabac=1 / ref=1 / deblock=1:0:0 / analyse=0x1:0x111 / me=hex / subme=2 / psy=1 / psy_rd=1.00:0.00 / mixed_ref=0 / me_range=16 / chroma_me=1 / trellis=0 / 8x8dct=0 / cqm=0 / deadzone=21,11 / fast_pskip=1 / chroma_qp_offset=0 / threads=12 / lookahead_threads=3 / sliced_threads=0 / nr=0 / decimate=1 / interlaced=0 / bluray_compat=0 / constrained_intra=0 / bframes=3 / b_pyramid=2 / b_adapt=1 / b_bias=0 / direct=1 / weightb=1 / open_gop=0 / weightp=1 / keyint=300 / keyint_min=30 / scenecut=40 / intra_refresh=0 / rc_lookahead=10 / rc=crf / mbtree=1 / crf=22.0 / qcomp=0.60 / qpmin=0 / qpmax=69 / qpstep=4 / vbv_maxrate=14000 / vbv_bufsize=14000 / crf_max=0.0 / nal_hrd=none / filler=0 / ip_ratio=1.40 / aq=1:1.00
Default/String : Yes
Forced/String : No
colour_primaries : BT.709
transfer_characteristics : BT.709
matrix_coefficients : BT.709

===================== Audio =====================
Id : 2
Format : AAC
Format info : Advanced Audio Codec
Format profile : LC
Codec Id : A_AAC
Duration (ms) : 41mn 18s
Channel(s) : 2 channels
ChannelPositions : Front: L R
Sampling rate : 48.0 KHz
Compression_Mode/String : Lossy
Title : Stereo
Default/String : Yes
Forced/String : No[/b][/color][/center]



[center][img]https://extraimago.com/images/2015/10/12/Screens1.jpg[/img][/center]
[center][url=https://extraimage.net/image/2o6e][img]https://extraimage.net/images/2017/03/28/33107cacb1775333a497365a92598563.th.jpg[/img][/url][/center] ]]>
The.Bye.Bye.Man.2017.HDRip.XviD.AC3-iFT[PRiME] http://glodls.to/torrent.php?id=2333027 http://glodls.to/torrent.php?id=2333027 Tue, 28 Mar 2017 08:46:44 +0100 Movies The.Bye.Bye.Man.2017.HDRip.XviD.AC3-iFT[PRiME]

ImDb: [URL]http://www.imdb.com/title/tt4030600[/URL]

[url=https://www.sparrowpics.com/image/LwB][img]https://www.sparrowpics.com/images/2015/12/10/Info.png[/img][/url]

[color=green]Complete name : The.Bye.Bye.Man.2017.HDRip.XviD.AC3-iFT[PRiME].avi
Format : AVI
Format/Info : Audio Video Interleave
Format profile : OpenDML
Format settings : rec
File size : 1.61 GiB
Duration : 1 h 39 min
Overall bit rate : 2 309 kb/s
Writing application : AVI-Mux GUI 1.17.8.3, Feb 16 201019:42:50

Video
ID : 0
Format : MPEG-4 Visual
Format profile : Advanced Simple@L5
Format settings, BVOP : 2
Format settings, QPel : No
Format settings, GMC : No warppoints
Format settings, Matrix : Default (H.263)
Muxing mode : Packed bitstream
Codec ID : XVID
Codec ID/Hint : XviD
Duration : 1 h 39 min
Bit rate : 1 920 kb/s
Width : 720 pixels
Height : 384 pixels
Display aspect ratio : 1.85:1
Frame rate : 23.976 (23976/1000) FPS
Color space : YUV
Chroma subsampling : 4:2:0
Bit depth : 8 bits
Scan type : Progressive
Compression mode : Lossy
Bits/(Pixel*Frame) : 0.290
Stream size : 1.34 GiB (83%)
Writing library : XviD 73

Audio
ID : 1
Format : AC-3
Format/Info : Audio Coding 3
Mode extension : CM (complete main)
Format settings, Endianness : Big
Codec ID : 2000
Duration : 1 h 39 min
Bit rate mode : Constant
Bit rate : 384 kb/s
Channel(s) : 6 channels
Channel positions : Front: L C R, Side: L R, LFE
Sampling rate : 48.0 kHz
Frame rate : 31.250 FPS (1536 spf)
Compression mode : Lossy
Stream size : 274 MiB (17%)
Alignment : Aligned on interleaves
Interleave, duration : 64 ms (1.53 video frames)
Interleave, preload duration : 192 ms
Title : The.track_2[/color]

[url=https://www.sparrowpics.com/image/UYe][img]https://www.sparrowpics.com/images/2015/12/10/Screens.png[/img][/url]

[color=red]Click Image To View Full Size[/color]

[URL=https://www.sparrowpics.com/image/Dsffe][IMG]https://www.sparrowpics.com/images/2017/03/28/Dsffe.th.jpg[/IMG][/URL]
[URL=https://www.sparrowpics.com/image/DsxRs][b]Click To View Screenshot[/b][/URL]
[URL=https://www.sparrowpics.com/image/Ds2Of][b]Click To View Screenshot[/b][/URL]
[URL=https://www.sparrowpics.com/image/DsBK5][b]Click To View Screenshot[/b][/URL]

[/center] ]]>
Long Island Medium S07E06 Beauty School Drop-In HDTV x264-[NY2] http://glodls.to/torrent.php?id=2333026 http://glodls.to/torrent.php?id=2333026 Tue, 28 Mar 2017 08:46:04 +0100 TV [center][IMG]https://extraimago.com/images/2016/07/28/nDEMX0bZiv.gif[/IMG][/center]
[center][IMG]https://extraimago.com/images/2016/07/28/w4oGJhLlpm.gif[/IMG][/center]


[center][color=Red][b]humming sound in audio, Still watchable, only download if you're okay with hearing the humming sound here and there[/b][/color][/center]



[center][color=Blue][b]
===================== Video =====================
Id : 1
Format : AVC
Format info : Advanced Video Codec
Format profile : Main@L3.1
Use of CABAC : Yes
RefFrames : 4 frames
Codec Id : V_MPEG4/ISO/AVC
Duration (ms) : 42mn 30s
Width : 720 pixels
Height : 402 pixels
Aspect ratio : 16:9
Framerate mode : Constant
Framerate : 29.970 fps
Colorimetry : YUV
Colos space : 4:2:0
Bit depth : 8 bits
Scan type : Progressive
Encoded library : x264 core 148 r2708 86b7198
Encoded library settings : cabac=1 / ref=1 / deblock=1:0:0 / analyse=0x1:0x111 / me=hex / subme=2 / psy=1 / psy_rd=1.00:0.00 / mixed_ref=0 / me_range=16 / chroma_me=1 / trellis=0 / 8x8dct=0 / cqm=0 / deadzone=21,11 / fast_pskip=1 / chroma_qp_offset=0 / threads=12 / lookahead_threads=3 / sliced_threads=0 / nr=0 / decimate=1 / interlaced=0 / bluray_compat=0 / constrained_intra=0 / bframes=3 / b_pyramid=2 / b_adapt=1 / b_bias=0 / direct=1 / weightb=1 / open_gop=0 / weightp=1 / keyint=300 / keyint_min=30 / scenecut=40 / intra_refresh=0 / rc_lookahead=10 / rc=crf / mbtree=1 / crf=22.0 / qcomp=0.60 / qpmin=0 / qpmax=69 / qpstep=4 / vbv_maxrate=14000 / vbv_bufsize=14000 / crf_max=0.0 / nal_hrd=none / filler=0 / ip_ratio=1.40 / aq=1:1.00
Default/String : Yes
Forced/String : No
colour_primaries : BT.709
transfer_characteristics : BT.709
matrix_coefficients : BT.709

===================== Audio =====================
Id : 2
Format : AAC
Format info : Advanced Audio Codec
Format profile : LC
Codec Id : A_AAC
Duration (ms) : 42mn 30s
Channel(s) : 2 channels
ChannelPositions : Front: L R
Sampling rate : 48.0 KHz
Compression_Mode/String : Lossy
Title : Stereo
Default/String : Yes
Forced/String : No[/b][/color][/center]



[center][img]https://extraimago.com/images/2015/10/12/Screens1.jpg[/img][/center]
[center][url=https://extraimage.net/image/2o6M][img]https://extraimage.net/images/2017/03/28/535afb18a029d72b4131f850d9aa6e58.th.jpg[/img][/url][/center]
]]>
Lone Star Law S02E06 Border Bust HDTV x264-[NY2] http://glodls.to/torrent.php?id=2333024 http://glodls.to/torrent.php?id=2333024 Tue, 28 Mar 2017 08:42:01 +0100 TV [center][IMG]https://extraimago.com/images/2016/07/28/nDEMX0bZiv.gif[/IMG][/center]
[center][IMG]https://extraimago.com/images/2016/07/28/w4oGJhLlpm.gif[/IMG][/center]



[center][color=Blue][b]===================== Video =====================
Id : 1
Format : AVC
Format info : Advanced Video Codec
Format profile : Main@L3.1
Use of CABAC : Yes
RefFrames : 4 frames
Codec Id : V_MPEG4/ISO/AVC
Duration (ms) : 41mn 11s
Width : 718 pixels
Height : 402 pixels
Aspect ratio : 16:9
Framerate mode : Constant
Framerate : 29.970 fps
Colorimetry : YUV
Colos space : 4:2:0
Bit depth : 8 bits
Scan type : Progressive
Encoded library : x264 core 148 r2708 86b7198
Encoded library settings : cabac=1 / ref=1 / deblock=1:0:0 / analyse=0x1:0x111 / me=hex / subme=2 / psy=1 / psy_rd=1.00:0.00 / mixed_ref=0 / me_range=16 / chroma_me=1 / trellis=0 / 8x8dct=0 / cqm=0 / deadzone=21,11 / fast_pskip=1 / chroma_qp_offset=0 / threads=12 / lookahead_threads=3 / sliced_threads=0 / nr=0 / decimate=1 / interlaced=0 / bluray_compat=0 / constrained_intra=0 / bframes=3 / b_pyramid=2 / b_adapt=1 / b_bias=0 / direct=1 / weightb=1 / open_gop=0 / weightp=1 / keyint=300 / keyint_min=30 / scenecut=40 / intra_refresh=0 / rc_lookahead=10 / rc=crf / mbtree=1 / crf=22.0 / qcomp=0.60 / qpmin=0 / qpmax=69 / qpstep=4 / vbv_maxrate=14000 / vbv_bufsize=14000 / crf_max=0.0 / nal_hrd=none / filler=0 / ip_ratio=1.40 / aq=1:1.00
Default/String : Yes
Forced/String : No
colour_primaries : BT.709
transfer_characteristics : BT.709
matrix_coefficients : BT.709

===================== Audio =====================
Id : 2
Format : AAC
Format info : Advanced Audio Codec
Format profile : LC
Codec Id : A_AAC
Duration (ms) : 41mn 11s
Channel(s) : 2 channels
ChannelPositions : Front: L R
Sampling rate : 48.0 KHz
Compression_Mode/String : Lossy
Video_Delay/String : 21ms
Title : Stereo
Default/String : Yes
Forced/String : No[/b][/color][/center]



[center][img]https://extraimago.com/images/2015/10/12/Screens1.jpg[/img][/center]
[center][url=https://extraimage.net/image/2o63][img]https://extraimage.net/images/2017/03/28/2b0b7d1766d912068f451857bb88c7bf.th.jpg[/img][/url][/center]
]]>
MetArtX 17 03 28 Kalisy Thirst Quenching XXX 480p MP4-TK http://glodls.to/torrent.php?id=2333022 http://glodls.to/torrent.php?id=2333022 Tue, 28 Mar 2017 08:39:39 +0100 Adult XXX
[b]Screenshots:[/b]

[url]http://imgkings.com/img-58da214c80c9d.html[/url]

[url]http://imgkings.com/img-58da214c761dd.html[/url]

[url]http://imgkings.com/img-58da214c6f843.html[/url]

[url]http://imgkings.com/img-58da20da727da.html[/url]

File Size : 116 MiB
Duration : 14mn 13s
Video : h264, yuv420p, 854x480p, 1024 Kbps
Audio : aac , 2 ch, stereo , 128 Kbps ]]>
Little Big Shots S02E04 The Princess and the Hot Dog HDTV x264-[NY2] http://glodls.to/torrent.php?id=2333021 http://glodls.to/torrent.php?id=2333021 Tue, 28 Mar 2017 08:39:26 +0100 TV [center][IMG]https://extraimago.com/images/2016/07/28/nDEMX0bZiv.gif[/IMG][/center]
[center][IMG]https://extraimago.com/images/2016/07/28/w4oGJhLlpm.gif[/IMG][/center]



[center][color=Blue][b]===================== Video =====================
Id : 1
Format : AVC
Format info : Advanced Video Codec
Format profile : Main@L3.1
Use of CABAC : Yes
RefFrames : 4 frames
Codec Id : V_MPEG4/ISO/AVC
Duration (ms) : 41mn 53s
Width : 720 pixels
Height : 406 pixels
Aspect ratio : 16:9
DisplayAspectRatio_Original : 16:9
Framerate mode : Constant
Framerate : 29.970 fps
Colorimetry : YUV
Colos space : 4:2:0
Bit depth : 8 bits
Scan type : Progressive
Encoded library : x264 core 148 r2708 86b7198
Encoded library settings : cabac=1 / ref=1 / deblock=1:0:0 / analyse=0x1:0x111 / me=hex / subme=2 / psy=1 / psy_rd=1.00:0.00 / mixed_ref=0 / me_range=16 / chroma_me=1 / trellis=0 / 8x8dct=0 / cqm=0 / deadzone=21,11 / fast_pskip=1 / chroma_qp_offset=0 / threads=12 / lookahead_threads=3 / sliced_threads=0 / nr=0 / decimate=1 / interlaced=0 / bluray_compat=0 / constrained_intra=0 / bframes=3 / b_pyramid=2 / b_adapt=1 / b_bias=0 / direct=1 / weightb=1 / open_gop=0 / weightp=1 / keyint=300 / keyint_min=30 / scenecut=40 / intra_refresh=0 / rc_lookahead=10 / rc=crf / mbtree=1 / crf=22.0 / qcomp=0.60 / qpmin=0 / qpmax=69 / qpstep=4 / vbv_maxrate=14000 / vbv_bufsize=14000 / crf_max=0.0 / nal_hrd=none / filler=0 / ip_ratio=1.40 / aq=1:1.00
Default/String : Yes
Forced/String : No
colour_primaries : BT.709
transfer_characteristics : BT.709
matrix_coefficients : BT.709

===================== Audio =====================
Id : 2
Format : AAC
Format info : Advanced Audio Codec
Format profile : LC
Codec Id : A_AAC
Duration (ms) : 41mn 53s
Channel(s) : 2 channels
ChannelPositions : Front: L R
Sampling rate : 48.0 KHz
Compression_Mode/String : Lossy
Video_Delay/String : 57ms
Title : Stereo
Language : English
Default/String : Yes
Forced/String : No[/b][/color][/center]



[center][img]https://extraimago.com/images/2015/10/12/Screens1.jpg[/img][/center]
[center][url=https://extraimage.net/image/2o6s][img]https://extraimage.net/images/2017/03/28/bacb759c1013ad877ffffbc55e7de752.th.jpg[/img][/url][/center]
]]>
[JulesJordan] Chloe Couture Anal, Teen Gives Her Creepy Old Driver A Blow Job and Then Her Asshole (28.03.2017) .mp4 http://glodls.to/torrent.php?id=2333020 http://glodls.to/torrent.php?id=2333020 Tue, 28 Mar 2017 08:39:22 +0100 Adult XXX
[b]Screenshots:[/b]

[url]http://imgkings.com/img-58da213a92aeb.html[/url]

[url]http://imgkings.com/img-58da213a8c3a5.html[/url]

[url]http://imgkings.com/img-58da213a85bec.html[/url]

[url]http://imgkings.com/img-58da2133f22a0.html[/url] ]]>
[Spizoo] Missing Date With Sarah Jessie (28.03.2017) .mp4 http://glodls.to/torrent.php?id=2333019 http://glodls.to/torrent.php?id=2333019 Tue, 28 Mar 2017 08:37:54 +0100 Adult XXX
[b]Screenshots:[/b]

[url]http://imgkings.com/img-58da20e331279.html[/url]

[url]http://imgkings.com/img-58da20e32aaa2.html[/url]

[url]http://imgkings.com/img-58da20e309f4b.html[/url]

[url]http://imgkings.com/img-58da20df957cb.html[/url] ]]>