Download Schumacher (2021) [Bengali Dub] 1080p WEB-DLRip Saicord torrent - GloDLS
HTML tutorial
Torrent Details For "Schumacher (2021) [Bengali Dub] 1080p WEB-DLRip Saicord"

Schumacher (2021) [Bengali Dub] 1080p WEB-DLRip Saicord

To download this torrent, you need a BitTorrent client: Vuze or BTGuard
Download this torrent
Download using Magnet Link

Health:
Seeds: 1
Leechers: 1
Completed:
Last Checked: 25-11-2021 18:49:42

Uploader Reputation points : 5499





Write a Review for the Uploader:   5   Say Thanks with one good review:
Share on Facebook


Details
Name:Schumacher (2021) [Bengali Dub] 1080p WEB-DLRip Saicord
Description:


https://www.imdb.com/title/tt10322274






Video
ID                          : 1
Format                      : AVC
Format/Info                 : Advanced Video Codec
Format profile              : [email protected]
Format settings             : CABAC / 1 Ref Frames
Format settings, CABAC      : Yes
Format settings, ReFrames   : 1 frame
Codec ID                    : avc1
Codec ID/Info               : Advanced Video Coding
Duration                    : 1 h 54 min
Bit rate mode               : Constant
Bit rate                    : 4 000 kb/s
Width                       : 1 920 pixels
Height                      : 1 080 pixels
Display aspect ratio        : 16:9
Frame rate mode             : Constant
Frame rate                  : 25.000 FPS
Color space                 : YUV
Chroma subsampling          : 4:2:0
Bit depth                   : 8 bits
Scan type                   : Progressive
Bits/(Pixel*Frame)          : 0.077
Stream size                 : 3.20 GiB (95%)
Codec configuration box     : avcC

Audio
ID                          : 2
Format                      : AAC
Format/Info                 : Advanced Audio Codec
Format profile              : LC
Codec ID                    : mp4a-40-2
Duration                    : 1 h 54 min
Source duration             : 1 h 54 min
Bit rate mode               : Constant
Bit rate                    : 192 kb/s
Channel(s)                  : 2 channels
Channel positions           : Front: L R
Sampling rate               : 48.0 kHz
Frame rate                  : 46.875 FPS (1024 SPF)
Compression mode            : Lossy
Stream size                 : 158 MiB (5%)
Source stream size          : 158 MiB (5%)
Default                     : Yes
Alternate group             : 1
mdhd_Duration               : 6876715
YouTube Video:   
Category:Movies
Language:Bengali
Total Size:3.36 GB
Info Hash:8C287CAE635E653E992CE69AA17B5694CC574468
Added By:Saicord Verified Uploader
Date Added:2021-11-26 02:49:40
Torrent Status:Torrent Verified


Ratings:Not Yet Rated (Log in to rate it)


Tracker:
udp://opentor.org:2710/announce

This Torrent also has backup trackers
URLSeedersLeechersCompleted
udp://opentor.org:2710/announce000
udp://tracker.torrent.eu.org:451/announce000
udp://tracker.cyberia.is:6969/announce000
udp://exodus.desync.com:6969/announce000
udp://tracker.moeking.me:6969/announce000
udp://tracker.opentrackr.org:1337/announce000
udp://tracker.tiny-vps.com:6969/announce000
udp://open.stealth.si:80/announce000
udp://tracker.iamhansen.xyz:2000/announce000
udp://tracker.theoks.net:6969/announce000
udp://retracker.lanta-net.ru:2710/announce000
udp://open.demonii.si:1337/announce000
udp://tracker.uw0.xyz:6969/announce000
udp://ipv4.tracker.harry.lu:80/announce000
udp://tracker.coppersurfer.tk:6969/announce000


File List: 





Comments
No comments still posted