Download The Umbrella Academy S03 2022 x264 720p Nf Esub AAC English Hindi Mr-X torrent - GloDLS
Torrent Details For "The Umbrella Academy S03 2022 x264 720p Nf Esub AAC English Hindi Mr-X"

The Umbrella Academy S03 2022 x264 720p Nf Esub AAC English Hindi Mr-X

To download this torrent, you need a BitTorrent client: Vuze or BTGuard
Download this torrent
Download using Magnet Link

Health:
Seeds: 0
Leechers: 0
Completed:
Last Checked: 23-06-2022 16:32:17

Uploader Reputation points : 4358





Write a Review for the Uploader:   10   Say Thanks with one good review:
Share on Facebook
TV Info

The Umbrella Academy

Reunited by their father's death, estranged siblings with extraordinary powers uncover shocking family secrets—and a looming threat to humanity.



Details
Name:The Umbrella Academy S03 2022 x264 720p Nf Esub AAC English Hindi Mr-X
Description:
Join Telegram

www.mr-x.ml



The Umbrella Academy S03 2022 x264 720p Nf Esub AAC English Hindi Mr-X


Format                         : Matroska
Format version                 : Version 4
File size                      : 2.48 GiB
Duration                       : 8 h 9 min
Overall bit rate               : 727 kb/s
Movie name                     : The Umbrella Academy S03 2022 Mr-X
Encoded date                   : UTC 2022-06-23 14:46:55

Video
Format                         : AVC
Format/Info                    : Advanced Video Codec
Format profile                 : [email protected]
Format settings                : CABAC / 12 Ref Frames
Format settings, CABAC         : Yes
Format settings, Reference fra : 12 frames
Codec ID                       : V_MPEG4/ISO/AVC
Duration                       : 8 h 9 min
Bit rate                       : 599 kb/s
Width                          : 1 280 pixels
Height                         : 534 pixels
Display aspect ratio           : 2.000
Frame rate mode                : Constant
Frame rate                     : 23.976 (23976/1000) FPS
Color space                    : YUV
Chroma subsampling             : 4:2:0
Bit depth                      : 8 bits
Scan type                      : Progressive
Bits/(Pixel*Frame)             : 0.037
Stream size                    : 2.05 GiB (83%)
Title                          : Mr-X
Writing library                : x264 core 163 r3059 b684ebe0

Audio #1
Format                         : AAC LC
Duration                       : 8 h 9 min
Bit rate                       : 62.1 kb/s
Channel(s)                     : 2 channels
Channel layout                 : L R
Sampling rate                  : 48.0 kHz
Frame rate                     : 46.875 FPS (1024 SPF)
Compression mode               : Lossy
Delay relative to video        : -12 ms
Stream size                    : 217 MiB (9%)
Title                          : Mr-X
Language                       : Hindi

Audio #2
Format/Info                    : Advanced Audio Codec Low Complexity
Codec ID                       : A_AAC-2
Duration                       : 8 h 9 min
Bit rate                       : 62.1 kb/s
Channel(s)                     : 2 channels
Channel layout                 : L R
Sampling rate                  : 48.0 kHz
Frame rate                     : 46.875 FPS (1024 SPF)
Compression mode               : Lossy
Delay relative to video        : -12 ms
Stream size                    : 217 MiB (9%)
Title                          : Mr-X
Language                       : English

Text (0%)
Language                       : English

8oUis2ibsp63ycb6Yybe3AMgFwYz9zbl4GW6nozQeg_jqEoaFcZXwa2WlMdvE2kr_uWBGbvirPbQc36IiDah1rYE6BS0KeFA4IiHbc7OA/w640-h356/The%20Umbrella%20Academy%20S03%202022%20x264%20720p%20Nf%20Esub%20AAC%20English%20Hindi%20Mr-X.mkv_thumbs.png" alt=""onload="NcodeImageResizer.createOn(this);">
YouTube Video:
Category:TV
Language:Hindi  Hindi
Total Size:2.48 GB
Info Hash:0CF5957816782DFC073E243F74501918B230D68F
Added By:GOPISAHI Verified UploaderMovie Pirate
Date Added:2022-06-23 23:32:15
Torrent Status:Torrent Verified


Ratings:Not Yet Rated (Log in to rate it)


Tracker:
udp://p4p.arenabg.com:1337/announce

This Torrent also has backup trackers
URLSeedersLeechersCompleted
udp://p4p.arenabg.com:1337/announce000
udp://exodus.desync.com:6969/announce000
udp://tracker.sbsub.com:2710/announce000
udp://tracker.opentrackr.org:1337/announce000
udp://open.stealth.si:80/announce000
udp://retracker.lanta-net.ru:2710/announce000
http://bt1.archive.org:6969/announce000
http://bt2.archive.org:6969/announce000
http://tracker.files.fm:6969/announce000
udp://tracker.zerobytes.xyz:1337/announce000
https://tracker.nitrix.me:443/announce000
udp://cutiegirl.ru:6969/announce000
udp://vibe.community:6969/announce000
udp://wassermann.online:6969/announce000
udp://mts.tvbit.co:6969/announce000


File List: 





Comments
No comments still posted