Download Yakuza Princess 2021 HDRip XviD B4ND1T69 torrent - GloDLS
HTML tutorial
Torrent Details For "Yakuza Princess 2021 HDRip XviD B4ND1T69"

Yakuza Princess 2021 HDRip XviD B4ND1T69

To download this torrent, you need a BitTorrent client: Vuze or BTGuard
Download this torrent
Download using Magnet Link

Health:
Seeds: 693
Leechers: 324
Completed: 2,708 
Last Checked: 14-09-2021 08:55:20

Uploader Reputation points : 1182





Write a Review for the Uploader:   0   Say Thanks with one good review:
Share on Facebook


Details
Name:Yakuza Princess 2021 HDRip XviD B4ND1T69
Description:
Yakuza.Princess.2021.HDRip.XviD.B4ND1T69



Director: Vicente Amorim
Writers: Vicente Amorim(Co-writer), Danilo Beyruth(graphic novel "Samurai Shiro";), Kimi Lee
Stars: MASUMI, Jonathan Rhys Meyers, Tsuyoshi Ihara

Plot/Story:
The heiress to half of the Yakuza crime syndicate forges an uneasy alliance with an amnesiac stranger who believes an ancient sword binds their two fates. She must unleash war against the other half of the syndicate who wants her dead.

General
Complete name               : Yakuza.Princess.2021.HDRip.XviD.B4ND1T69.avi
Format                      : AVI
Format/Info                 : Audio Video Interleave
File size                   : 1.04 GiB
Duration                    : 1 h 51 min
Overall bit rate            : 1 345 kb/s
Subtitles                   : Yes...Hardcoded for non-English parts + file included(HI)

Video
ID                          : 0
Format                      : MPEG-4 Visual
Format profile              : Advanced [email protected]
Format settings, BVOP       : 2
Format settings, QPel       : No
Format settings, GMC        : No warppoints
Format settings, Matrix     : Default (H.263)
Codec ID                    : XVID
Codec ID/Hint               : XviD
Duration                    : 1 h 51 min
Bit rate                    : 1 204 kb/s
Width                       : 720 pixels
Height                      : 304 pixels
Display aspect ratio        : 2.35:1
Frame rate                  : 23.976 (24000/1001) FPS
Color space                 : YUV
Chroma subsampling          : 4:2:0
Bit depth                   : 8 bits
Scan type                   : Progressive
Compression mode            : Lossy
Bits/(Pixel*Frame)          : 0.229
Stream size                 : 958 MiB (90%)
Writing library             : XviD 64

Audio
ID                          : 1
Format                      : MPEG Audio
Format version              : Version 1
Format profile              : Layer 3
Codec ID                    : 55
Codec ID/Hint               : MP3
Duration                    : 1 h 51 min
Bit rate mode               : Constant
Bit rate                    : 128 kb/s
Channel(s)                  : 2 channels
Sampling rate               : 48.0 kHz
Compression mode            : Lossy
Stream size                 : 102 MiB (10%)
Alignment                   : Aligned on interleaves
Interleave, duration        : 24  ms (0.58 video frame)

Screenshots:










Please Seed For As Long As Possible
Or At Least 1:1 Ratio...Thanks
Enjoy Peeps
YouTube Video:   
Category:Movies
Language:English  English
Total Size:1.04 GB
Info Hash:A952032FD5D8A909AA5A4074DB5587671E4EBD4D
Added By:B4ND1T69 Verified UploaderMovie Pirate
Date Added:2021-09-13 19:51:16
Torrent Status:Torrent Verified


Ratings:Not Yet Rated (Log in to rate it)


Tracker:
udp://tracker.opentrackr.org:1337/announce

This Torrent also has backup trackers
URLSeedersLeechersCompleted
udp://tracker.opentrackr.org:1337/announce9245382
udp://open.stealth.si:80/announce7336211
udp://exodus.desync.com:6969/announce6530183
udp://9.rarbg.to:2790/announce7937629
udp://opentor.org:2710/announce7233172
udp://explodie.org:6969/announce000
udp://tracker.uw0.xyz:6969/announce000
udp://opentracker.i2p.rocks:6969/announce000
udp://9.rarbg.me:2980/announce7938629
udp://tracker.tiny-vps.com:6969/announce000
udp://tracker.moeking.me:6969/announce783372
udp://tracker.zerobytes.xyz:1337/announce7432196
udp://retracker.netbynet.ru:2710/announce000
udp://tracker.torrent.eu.org:451/announce6536172
udp://p4p.arenabg.com:1337/announce16462


File List: 





Comments

[Report] Posted: 15-09-2021 at 05:59:26
Portos

avatar

profile message
Thx