Download 18+ Climax 2020 720p WEB-DL AAC 2 0H 264 With Sample LLG torrent - GloDLS
Torrent Details For "18+ Climax 2020 720p WEB-DL AAC 2 0H 264 With Sample LLG"

18+ Climax 2020 720p WEB-DL AAC 2 0H 264 With Sample LLG

To download this torrent, you need a BitTorrent client: Vuze or BTGuard
Download this torrent
Download using Magnet Link

Health:
Seeds: 1
Leechers: 0
Completed:
Last Checked: 01-08-2020 18:27:40

Uploader Reputation points : 5790
External: Torrent






Write a Review for the Uploader:   0   Say Thanks with one good review:
Share on Facebook


Details
Name:18+ Climax 2020 720p WEB-DL AAC 2 0H 264 With Sample LLG
Description:

Quote:



******************************Thumbnail:**********************



******************************Screenshots:********************

screenshot 1

screenshot 2

screenshot 3

screenshot 4

screenshot 5

screenshot 6

screenshot 7

screenshot 8

screenshot 9

screenshot 0


******************************************************

18+.Climax.2020.720p.WEB-DL.AAC.2.0H.264.With.Sample.LLG.mp4
Format                                   : MPEG-4
Format profile                           : Base Media
Codec ID                                 : isom (isom/iso2/avc1/mp41)
File size                                : 497 MiB
Duration                                 : 52 min 6 s
Overall bit rate mode                    : Variable
Overall bit rate                         : 1 333 kb/s
Writing application                      : Lavf57.83.100

Video
ID                                       : 1
Format                                   : AVC
Format/Info                              : Advanced Video Codec
Format profile                           : [email protected]
Format settings                          : CABAC / 1 Ref Frames
Format settings, CABAC                   : Yes
Format settings, Reference frames        : 1 frame
Codec ID                                 : avc1
Codec ID/Info                            : Advanced Video Coding
Duration                                 : 52 min 6 s
Bit rate mode                            : Variable
Bit rate                                 : 1 200 kb/s
Maximum bit rate                         : 3 600 kb/s
Width                                    : 1 280 pixels
Height                                   : 544 pixels
Display aspect ratio                     : 2.35:1
Original display aspect ratio            : 2.35:1
Frame rate mode                          : Constant
Frame rate                               : 24.000 FPS
Color space                              : YUV
Chroma subsampling                       : 4:2:0
Bit depth                                : 8 bits
Scan type                                : Progressive
Bits/(Pixel*Frame)                       : 0.072
Stream size                              : 447 MiB (90%)
Codec configuration box                  : avcC

Audio
ID                                       : 2
Format                                   : AAC LC
Format/Info                              : Advanced Audio Codec Low Complexity
Codec ID                                 : mp4a-40-2
Duration                                 : 52 min 6 s
Bit rate mode                            : Constant
Bit rate                                 : 130 kb/s
Channel(s)                               : 2 channels
Channel layout                           : L R
Sampling rate                            : 48.0 kHz
Frame rate                               : 46.875 FPS (1024 SPF)
Compression mode                         : Lossy
Stream size                              : 48.3 MiB (10%)
Default                                  : Yes
Alternate group                          : 1




********************************************************


[quote]
YouTube Video:
Category:Movies
Language:English  English
Total Size:509.71 MB
Info Hash:D48178B828AD51BA571011FC66AE1A3F91E0F820
Added By:LifeLongg Verified Uploader
Date Added:2020-08-02 01:27:39
Torrent Status:Torrent Verified


Ratings:Not Yet Rated (Log in to rate it)


Tracker:
udp://tracker.openbittorrent.com:80/announce

This Torrent also has backup trackers
URLSeedersLeechersCompleted
udp://tracker.openbittorrent.com:80/announce000
udp://tracker.opentrackr.org:1337/announce000
UDP://TRACKER.LEECHERS-PARADISE.ORG:6969/ANNOUNCE000
UDP://TRACKER.COPPERSURFER.TK:6969/ANNOUNCE000
UDP://TRACKER.OPENTRACKR.ORG:1337/ANNOUNCE000
UDP://TRACKER.ZER0DAY.TO:1337/ANNOUNCE000
UDP://EDDIE4.NL:6969/ANNOUNCE000


File List: 





Comments
No comments still posted