Login
Username:
Password:
Remember Me:
[Signup]
[Recover Account]
Friends
BTScene
Friendly site

Free Courses Online
Friendly site

Anime RG
Friendly site

KaranPC
Friendly site

P2PDL.com
Friendly site

Free Tutorials & Courses
Friendly site
Torrent Details For "18+ Nude (2017) 720p HDRip x264 AAC by Full4movies"

18+ Nude (2017) 720p HDRip x264 AAC by Full4movies

To download this torrent, you need a BitTorrent client: Vuze or BTGuard
Download this torrent
Download using Magnet Link

Direct Download - no client needed

Download Faster - High Speed Download

Health:
Seeds: 1,548
Leechers: 438
Completed: 16,850 
Last Checked: 15-07-2018 16:14:58

Uploader Reputation points : 1694
External: Torrent



BTGuard - BitTorrent Anonymously


Write a Review for the Uploader:   0   Say Thanks with one good review:
Share on Facebook


Details
Name:18+ Nude (2017) 720p HDRip x264 AAC by Full4movies
Description:


General
Complete name                  : Nude (2017) 720p HDRip x264 AAC by Full4movies.mkv
Format                         : Matroska
Format version                 : Version 4 / Version 2
File size                      : 896 MiB
Duration                       : 1 h 30 min
Overall bit rate               : 1 385 kb/s
Movie name                     : www.Full4movies.co
Encoded date                   : UTC 2018-07-11 15:33:26
Writing application            : mkvmerge v8.1.0 ('Psychedelic Postcard') 32bit
Writing library                : libebml v1.3.1 + libmatroska v1.4.2

Video
ID                             : 1
Format                         : AVC
Format/Info                    : Advanced Video Codec
Format profile                 : [email protected]
Format settings, CABAC         : Yes
Format settings, RefFrames     : 5 frames
Codec ID                       : V_MPEG4/ISO/AVC
Duration                       : 1 h 30 min
Bit rate                       : 1 280 kb/s
Width                          : 1 280 pixels
Height                         : 720 pixels
Display aspect ratio           : 16:9
Frame rate mode                : Constant
Frame rate                     : 23.976 (23976/1000) FPS
Color space                    : YUV
Chroma subsampling             : 4:2:0
Bit depth                      : 8 bits
Scan type                      : Progressive
Bits/(Pixel*Frame)             : 0.058
Stream size                    : 811 MiB (90%)
Writing library                : x264 core 148 r2643 5c65704
Default                        : Yes
Forced                         : No

Audio
ID                             : 2
Format                         : AAC
Format/Info                    : Advanced Audio Codec
Format profile                 : LC
Codec ID                       : A_AAC
Duration                       : 1 h 30 min
Bit rate                       : 132 kb/s
Channel(s)                     : 2 channels
Channel positions              : Front: L R
Sampling rate                  : 48.0 kHz
Frame rate                     : 46.875 FPS (1024 SPF)
Compression mode               : Lossy
Delay relative to video        : -21 ms
Stream size                    : 84.1 MiB (9%)
Language                       : English
Default                        : Yes
Forced                         : No

Screen Shoots
YouTube Video:   
Category:Movies
Language:English  English
Total Size:896.24 MB
Info Hash:ED180327069C4EEDC585ADF87D7CC4A876CD29A0
Added By:india4movie Verified Uploader
Date Added:12-07-2018 17:40:53
Torrent Status:Torrent Verified


Ratings:Not Yet Rated (Log in to rate it)


Tracker:
udp://tracker.coppersurfer.tk:6969/announce

This Torrent also has backup trackers
URLSeedersLeechersCompleted
udp://tracker.coppersurfer.tk:6969/announce132482,499
udp://tracker.opentrackr.org:1337/announce115401,138
udp://9.rarbg.me:2710/announce116311,159
udp://tracker.torrent.eu.org:451/announce12229215
udp://open.stealth.si:80/announce10932838
udp://public.popcorn-tracker.org:6969/announce11132809
udp://p4p.arenabg.ch:1337/announce000
udp://tracker.zer0day.to:1337/announce000
udp://tracker.pirateparty.gr:6969/announce132502,499
udp://tracker.leechers-paradise.org:6969/announce117281,521
udp://tracker.tiny-vps.com:6969/announce12631967
udp://bt.firebit.co.uk:6969/announce117281,521
udp://inferno.demonoid.pw:3397/announce118291,004
udp://shadowshq.yi.org:6969/announce117281,521
udp://9.rarbg.to:2780/announce116321,159


File List: 





Comments
No comments still posted