Download A AA 2 ( Chal Mohan Ranga ) 2018 Hindi Dubbed 1080p WEB-DL x264 AAC { TaRa } mkv torrent - GloDLS
Torrent Details For "A AA 2 ( Chal Mohan Ranga ) 2018 Hindi Dubbed 1080p WEB-DL x264 AAC { TaRa } mkv"

A AA 2 ( Chal Mohan Ranga ) 2018 Hindi Dubbed 1080p WEB-DL x264 AAC { TaRa } mkv

To download this torrent, you need a BitTorrent client: Vuze or BTGuard
Download this torrent
Download using Magnet Link

Health:
Seeds: 1,174
Leechers: 718
Completed: 980 
Last Checked: 07-10-2019 13:30:03

Uploader Reputation points : 496
External: Torrent






Write a Review for the Uploader:   0   Say Thanks with one good review:
Share on Facebook


Details
Name:A AA 2 ( Chal Mohan Ranga ) 2018 Hindi Dubbed 1080p WEB-DL x264 AAC { TaRa } mkv
Description:

A.. AA... 2 ( Chal Mohan Ranga ) 2018 Hindi Dubbed 1080p WEB-DL x264 AAC { TaRa }.mkv


===================================================================
General
Complete name               : A.. AA... 2 ( Chal Mohan Ranga ) 2018 Hindi Dubbed 1080p WEB-DL x264 AAC { TaRa }.mkv
Format                      : Matroska
Format version              : Version 4
File size                   : 1.77 GiB
Duration                    : 2 h 4 min
Overall bit rate            : 2 030 kb/s
===================================================================
Video
ID                          : 1
Format                      : AVC
Format/Info                 : Advanced Video Codec
Format profile              : [email protected]
Format settings             : CABAC / 3 Ref Frames
Format settings, CABAC      : Yes
Format settings, Reference  : 3 frames
Codec ID                    : V_MPEG4/ISO/AVC
Duration                    : 2 h 4 min
Bit rate                    : 1 900 kb/s
Width                       : 1 920 pixels
Height                      : 1 080 pixels
Display aspect ratio        : 16:9
Frame rate mode             : Constant
Frame rate                  : 24.000 FPS
Color space                 : YUV
Chroma subsampling          : 4:2:0
Bit depth                   : 8 bits
Scan type                   : Progressive
Bits/(Pixel*Frame)          : 0.038
Stream size                 : 1.65 GiB (94%)
Title                       : .....::::: TaRa :::::....
Writing library             : x264 core 155 r2901 7d0ff22
Language                    : Hindi
Default                     : Yes
Forced                      : No
===================================================================
Audio
ID                          : 2
Format                      : AAC LC
Format/Info                 : Advanced Audio Codec Low Complexity
Codec ID                    : A_AAC-2
Duration                    : 2 h 4 min
Bit rate                    : 128 kb/s
Channel(s)                  : 2 channels
Channel layout              : L R
Sampling rate               : 44.1 kHz
Frame rate                  : 43.066 FPS (1024 SPF)
Compression mode            : Lossy
Stream size                 : 114 MiB (6%)
Title                       : .....::::: TaRa :::::....
Language                    : Hindi
Default                     : Yes
Forced                      : No
===================================================================


































YouTube Video:
Category:Movies
Language:Hindi  Hindi
Total Size:1.77 GB
Info Hash:09985C0FFC3D8A6CF471BC87CE1D509EC3A47F24
Added By:SkTaRa Verified UploaderMovie Pirate
Date Added:2019-10-07 10:49:28
Torrent Status:Torrent Verified


Ratings:Not Yet Rated (Log in to rate it)


Tracker:
udp://tracker.coppersurfer.tk:6969/announce

This Torrent also has backup trackers
URLSeedersLeechersCompleted
udp://tracker.coppersurfer.tk:6969/announce000
udp://tracker.leechers-paradise.org:6969/announce173112262
udp://bt.xxx-tracker.com:2710/announce000
udp://tracker.internetwarriors.net:1337/announce000
udp://tracker.openbittorrent.com:80/announce1619610
udp://explodie.org:6969/announce1257680
udp://tracker.opentrackr.org:1337/announce150100142
udp://tracker.tiny-vps.com:6969/announce15784111
udp://open.demonii.si:1337/announce1348392
udp://tracker.torrent.eu.org:451/announce000
udp://tracker.pirateparty.gr:6969/announce000
udp://ipv4.tracker.harry.lu:80/announce27250
udp://tracker.cyberia.is:6969/announce14187133
udp://9.rarbg.to:2750/announce7540127
udp://denis.stalker.upeer.me:6969/announce311523


File List: 





Comments
No comments still posted