Login
Username:
Password:
Remember Me:
[Signup]
[Recover Account]
Friends
BTScene
Friendly site

Free Courses Online
Friendly site

Anime RG
Friendly site

KaranPC
Friendly site

P2PDL.com
Friendly site

Free Tutorials & Courses
Friendly site
Torrent Details For "Alien Convergence 2017 720p BluRay x264"

Alien Convergence 2017 720p BluRay x264

To download this torrent, you need a BitTorrent client: Vuze or BTGuard
Download this torrent
Download using Magnet Link

Direct Download - no client needed

Download Faster - High Speed Download

Health:
Seeds: 6
Leechers: 0
Completed: 298 
Last Checked: 05-06-2018 02:41:25

Uploader Reputation points : 4444
External: Torrent



BTGuard - BitTorrent Anonymously


Write a Review for the Uploader:   20   Say Thanks with one good review:
Share on Facebook


Details
Name:Alien Convergence 2017 720p BluRay x264
Description:




General
Format                                   : Matroska
Format version                           : Version 4 / Version 2
File size                                : 1.01 GiB
Duration                                 : 1 h 26 min
Overall bit rate                         : 1 672 kb/s

Video
ID                                       : 1
Format                                   : AVC
Format/Info                              : Advanced Video Codec
Format profile                           : [email protected]
Format settings                          : CABAC / 4 Ref Frames
Format settings, CABAC                   : Yes
Format settings, RefFrames               : 4 frames
Codec ID                                 : V_MPEG4/ISO/AVC
Duration                                 : 1 h 26 min
Bit rate                                 : 1 500 kb/s
Width                                    : 1 280 pixels
Height                                   : 720 pixels
Display aspect ratio                     : 16:9
Frame rate mode                          : Constant
Frame rate                               : 23.976 (23976/1000) FPS
Color space                              : YUV
Chroma subsampling                       : 4:2:0
Bit depth                                : 8 bits
Scan type                                : Progressive
Bits/(Pixel*Frame)                       : 0.068
Stream size                              : 919 MiB (88%)
Writing library                          : x264 core 148 r2643 5c65704
Language                                 : English
Default                                  : Yes
Forced                                   : No

Audio
ID                                       : 2
Format                                   : AAC
Format/Info                              : Advanced Audio Codec
Format profile                           : LC
Codec ID                                 : A_AAC-2
Duration                                 : 1 h 26 min
Bit rate                                 : 192 kb/s
Channel(s)                               : 6 channels
Channel positions                        : Front: L C R, Side: L R, LFE
Sampling rate                            : 48.0 kHz
Frame rate                               : 46.875 FPS (1024 SPF)
Compression mode                         : Lossy
Stream size                              : 119 MiB (11%)
Language                                 : English
Default                                  : Yes
Forced                                   : No












YouTube Video:
Category:Movies
Language:English  English
Total Size:1.01 GB
Info Hash:D3D7114449E6E703679664EE8EBCE55673D150F9
Added By:MovieFreak Verified UploaderMovie Pirate
Date Added:12-11-2017 22:11:56
Torrent Status:Torrent Verified


Ratings:Not Yet Rated (Log in to rate it)


Tracker:
http://ipv4.tracker.harry.lu/announce

This Torrent also has backup trackers
URLSeedersLeechersCompleted
http://ipv4.tracker.harry.lu/announce000
http://ipv4.tracker.harry.lu:80/announce000
udp://tracker.pirateparty.gr:6969/announce10149
http://tracker.devil-torrents.pl:80/announce000
http://tracker.devil-torrents.pl/announce000
http://open.kickasstracker.com/announce000
https://open.kickasstracker.com:443/announce000
udp://p4p.arenabg.com:1337/announce000
udp://9.rarbg.me:2770/announce100
udp://9.rarbg.com:2740/announce100
udp://9.rarbg.to:2750/announce100
udp://tracker.coppersurfer.tk:6969/announce10149
udp://tracker.leechers-paradise.org:6969/announce100
udp://tracker.zer0day.to:1337/announce000
http://tracker.devil-torrents.pl/announce000


File List: 





Comments
No comments still posted