Download American Gods S03E07 Fire and Ice WEB-DL XviD B4ND1T69 torrent - GloDLS
Login
Username:
Password:
Remember Me:
[Signup]
[Recover Account]
Friends
Angie Torrents
Friendly Site

Pirateiro
Friendly site

Free Courses Online
Friendly site

ETTV
Friendly site

ProStyleX
Friendly site

KaranPC
Friendly site

P2PDL.com
Friendly site

OneHack
Friendly site

IGGGames
Friendly site

Torrent Details For "American Gods S03E07 Fire and Ice WEB-DL XviD B4ND1T69"

American Gods S03E07 Fire and Ice WEB-DL XviD B4ND1T69

To download this torrent, you need a BitTorrent client: Vuze or BTGuard
Download this torrent
Download using Magnet Link

Health:
Seeds: 97
Leechers: 23
Completed: 213 
Last Checked: 28-02-2021 17:44:52

Uploader Reputation points : 702
External: Torrent






Write a Review for the Uploader:   0   Say Thanks with one good review:
Share on Facebook
TV Info

American Gods

A recently released ex-convict named Shadow meets a mysterious man who calls himself "Wednesday" and who knows more than he first seems to about Shadow's life and past.



Details
Name:American Gods S03E07 Fire and Ice WEB-DL XviD B4ND1T69
Description:
American.Gods.S03E07.Fire.and.Ice.WEB-DL.XviD.B4ND1T69



Creators: Bryan Fuller, Michael Green
Stars: Ricky Whittle, Emily Browning, Crispin Glover, Yetide Badaki

Plot/Story:
Fire and Ice
In Lakeside, Shadow grows closer with Marguerite and uncovers the surprising truth behind a local crime spree. Wednesday makes his own shocking discovery with deadly consequences. Laura and Salim negotiate with the enemy of their enemy as Bilquis follows her new path.

General
Complete name               : American.Gods.S03E07.Fire.and.Ice.WEB-DL.XviD.B4ND1T69.avi
Format                      : AVI
Format/Info                 : Audio Video Interleave
File size                   : 464 MiB
Duration                    : 48 min 29 s
Overall bit rate            : 1 337 kb/s
Subtitles                   : Yes...Included(HI)

Video
ID                          : 0
Format                      : MPEG-4 Visual
Format profile              : Advanced [email protected]
Format settings, BVOP       : 2
Format settings, QPel       : No
Format settings, GMC        : No warppoints
Format settings, Matrix     : Default (H.263)
Codec ID                    : XVID
Codec ID/Hint               : XviD
Duration                    : 48 min 29 s
Bit rate                    : 1 195 kb/s
Width                       : 640 pixels
Height                      : 360 pixels
Display aspect ratio        : 16:9
Frame rate                  : 23.976 (24000/1001) FPS
Color space                 : YUV
Chroma subsampling          : 4:2:0
Bit depth                   : 8 bits
Scan type                   : Progressive
Compression mode            : Lossy
Bits/(Pixel*Frame)          : 0.216
Stream size                 : 414 MiB (89%)
Writing library             : XviD 64

Audio
ID                          : 1
Format                      : MPEG Audio
Format version              : Version 1
Format profile              : Layer 3
Codec ID                    : 55
Codec ID/Hint               : MP3
Duration                    : 48 min 29 s
Bit rate mode               : Constant
Bit rate                    : 128 kb/s
Channel(s)                  : 2 channels
Sampling rate               : 48.0 kHz
Compression mode            : Lossy
Stream size                 : 44.4 MiB (10%)
Alignment                   : Aligned on interleaves
Interleave, duration        : 24  ms (0.58 video frame)

Screenshots:







Please Seed For As Long As Possible
Or At Least 1:1 Ratio...Thanks
Enjoy Peeps
YouTube Video:   
Category:TV
Language:English  English
Total Size:463.62 MB
Info Hash:B4F6524F27BA618FE3ADF557DA4672863E50E267
Added By:B4ND1T69 Verified UploaderMovie Pirate
Date Added:2021-02-28 21:57:36
Torrent Status:Torrent Verified


Ratings:Not Yet Rated (Log in to rate it)


Tracker:
udp://tracker.opentrackr.org:1337/announce

This Torrent also has backup trackers
URLSeedersLeechersCompleted
udp://tracker.opentrackr.org:1337/announce191237
udp://exodus.desync.com:6969/announce15233
udp://open.demonii.si:1337/announce000
udp://tracker.pirateparty.gr:6969/announce000
udp://tracker.leechers-paradise.org:6969/announce000
udp://9.rarbg.to:2770/announce17354
udp://open.stealth.si:80/announce15231
udp://tracker.uw0.xyz:6969/announce16230
udp://tracker.tiny-vps.com:6969/announce15228


File List: 





Comments
No comments still posted