Download Anastasia Once Upon a Time (2020) 1080p H264 ita Ac3-5 1 sub ita eng-MIRCrew torrent - GloDLS
Torrent Details For "Anastasia Once Upon a Time (2020) 1080p H264 ita Ac3-5 1 sub ita eng-MIRCrew"

Anastasia Once Upon a Time (2020) 1080p H264 ita Ac3-5 1 sub ita eng-MIRCrew

To download this torrent, you need a BitTorrent client: Vuze or BTGuard
Download this torrent
Download using Magnet Link

Health:
Seeds: 62
Leechers: 3
Completed: 5,125 
Last Checked: 04-01-2021 22:34:47

Uploader Reputation points : 4074
External: Torrent






Write a Review for the Uploader:   5   Say Thanks with one good review:
Share on Facebook


Details
Name:Anastasia Once Upon a Time (2020) 1080p H264 ita Ac3-5 1 sub ita eng-MIRCrew
Description:
Anastasia: Once Upon a Time (2020).1080p.H264.ita.Ac3-5.1.sub.ita.eng-MIRCrew


NO FOUND ONLY ORIGINAL RELEASE

My release is always in double track audio italian and Original audio
for select it use VLC or dvd player home
not use wmp

Anastasia: Once Upon a Time (2020)

Quality MIRCrew on HD 1080p da 1,63 gb









USA, 2020
Genere: Fantasy
durata 89 m.
Regia di Blake Harris



Emily Carey, Brandon Routh, Donna Murphy, Amiah Miller, Shanna Collins, Kendall Vertes, Claire Crosby, Jo Koy, Sadie Heim.



Sfuggita a un grosso pericolo grazie a un portale magico, la giovane principessa Anastasia desidera salvare la sua famiglia rimasta nella Russia di inizio Novecento. Piombata negli Stati Uniti degli anni Ottanta



Anastasia: Once Upon a Time is a 2019 American fantasy-adventure film based on the legend of Grand Duchess Anastasia Nikolaevna of Russia

 














General

Complete name                            : Anastasia Once Upon a Time (2020).1080p.h264.ita.eng.sub.ita.eng-MIRCrew\Anastasia Once Upon a Time (2020).1080p.h264.ita.eng.sub.ita.eng-MIRCrew.mkv
Format                                   : Matroska
Format version                           : Version 2
File size                                : 1.64 GiB
Duration                                 : 1h 29mn
Overall bit rate                         : 2 630 Kbps
Movie name                               : MIRCrew
Encoded date                             : UTC 2020-11-29 14:08:43
Writing application                      : mkvmerge v5.8.0 ('No Sleep / Pillow') built on Sep  2 2012 15:37:04
Writing library                          : Lavf54.63.100
COMMENT                                  : MIRCrew

Video
ID                                       : 1
Format                                   : AVC
Format/Info                              : Advanced Video Codec
Format profile                           : [email protected]
Format settings, CABAC                   : Yes
Format settings, ReFrames                : 2 frames
Codec ID                                 : V_MPEG4/ISO/AVC
Duration                                 : 1h 29mn
Bit rate                                 : 1 809 Kbps
Nominal bit rate                         : 1 900 Kbps
Width                                    : 1 920 pixels
Height                                   : 1 080 pixels
Display aspect ratio                     : 16:9
Frame rate mode                          : Variable
Frame rate                               : 23.976 fps
Color space                              : YUV
Chroma subsampling                       : 4:2:0
Bit depth                                : 8 bits
Scan type                                : Progressive
Bits/(Pixel*Frame)                       : 0.036
Stream size                              : 1.13 GiB (69%)
Title                                    : MIRCrew
Writing library                          : x264 core 130 r2273
Encoding settings                        : cabac=1 / ref=2 / deblock=1:-1:-1 / analyse=0x1:0x131 / me=hex / subme=7 / psy=1 / psy_rd=1.00:0.10 / mixed_ref=0 / me_range=16 / chroma_me=1 / trellis=1 / 8x8dct=0 / cqm=0 / deadzone=21,11 / fast_pskip=1 / chroma_qp_offset=-3 / threads=9 / lookahead_threads=1 / sliced_threads=0 / nr=0 / decimate=1 / interlaced=0 / bluray_compat=0 / constrained_intra=0 / bframes=3 / b_pyramid=0 / b_adapt=1 / b_bias=0 / direct=3 / weightb=1 / open_gop=0 / weightp=2 / keyint=230 / keyint_min=23 / scenecut=40 / intra_refresh=0 / rc_lookahead=40 / rc=abr / mbtree=1 / bitrate=1900 / ratetol=1.0 / qcomp=0.60 / qpmin=10 / qpmax=69 / qpstep=4 / vbv_maxrate=24000 / vbv_bufsize=24000 / nal_hrd=none / ip_ratio=1.40 / aq=1:1.00
Language                                 : Italian
Default                                  : Yes
Forced                                   : No
DURATION                                 : 01:29:15.475000000
NUMBER_OF_FRAMES                         : 128403
NUMBER_OF_BYTES                          : 5490433446
_STATISTICS_WRITING_APP                  : mkvmerge v51.0.0 ('I Wish') 64-bit
_STATISTICS_WRITING_DATE_UTC             : 2020-11-24 14:53:07
_STATISTICS_TAGS                         : BPS DURATION NUMBER_OF_FRAMES NUMBER_OF_BYTES

Audio #1
ID                                       : 2
Format                                   : AC-3
Format/Info                              : Audio Coding 3
Mode extension                           : CM (complete main)
Codec ID                                 : A_AC3
Duration                                 : 1h 29mn
Bit rate mode                            : Constant
Bit rate                                 : 384 Kbps
Channel(s)                               : 6 channels
Channel positions                        : Front: L C R, Side: L R, LFE
Sampling rate                            : 48.0 KHz
Bit depth                                : 16 bits
Compression mode                         : Lossy
Delay relative to video                  : -5ms
Stream size                              : 245 MiB (15%)
Title                                    : Ita Ac3 5.1
Language                                 : Italian
Default                                  : Yes
Forced                                   : No
DURATION                                 : 01:29:15.392000000
NUMBER_OF_FRAMES                         : 167356
NUMBER_OF_BYTES                          : 428431360
_STATISTICS_WRITING_APP                  : mkvmerge v51.0.0 ('I Wish') 64-bit
_STATISTICS_WRITING_DATE_UTC             : 2020-11-24 14:53:07
_STATISTICS_TAGS                         : BPS DURATION NUMBER_OF_FRAMES NUMBER_OF_BYTES

Audio #2
ID                                       : 3
Format                                   : AC-3
Format/Info                              : Audio Coding 3
Mode extension                           : CM (complete main)
Codec ID                                 : A_AC3
Duration                                 : 1h 29mn
Bit rate mode                            : Constant
Bit rate                                 : 384 Kbps
Channel(s)                               : 6 channels
Channel positions                        : Front: L C R, Side: L R, LFE
Sampling rate                            : 48.0 KHz
Bit depth                                : 16 bits
Compression mode                         : Lossy
Delay relative to video                  : -5ms
Stream size                              : 245 MiB (15%)
Title                                    : Eng Ac3 5.1
Language                                 : English
Default                                  : No
Forced                                   : No
DURATION                                 : 01:29:15.392000000
NUMBER_OF_FRAMES                         : 167356
NUMBER_OF_BYTES                          : 428431360
_STATISTICS_WRITING_APP                  : mkvmerge v51.0.0 ('I Wish') 64-bit
_STATISTICS_WRITING_DATE_UTC             : 2020-11-24 14:53:07
_STATISTICS_TAGS                         : BPS DURATION NUMBER_OF_FRAMES NUMBER_OF_BYTES







YouTube Video:
Category:Movies
Language:English  English
Total Size:1.64 GB
Info Hash:F4BB76F57F718124224C49645F1CD69462BC79E3
Added By:MIRCrewRS Verified Uploader
Date Added:2020-12-01 00:14:51
Torrent Status:Torrent Verified


Ratings:Not Yet Rated (Log in to rate it)


Tracker:
udp://tracker.torrent.eu.org:451/announce

This Torrent also has backup trackers
URLSeedersLeechersCompleted
udp://tracker.torrent.eu.org:451/announce1311,472
udp://tracker.coppersurfer.tk:6969/announce000
udp://tracker.torrent.eu.org:451/announce1311,472
udp://tracker.pirateparty.gr:6969/announce000
udp://tracker.leechers-paradise.org:6969/announce000
udp://tracker.cyberia.is:6969/announce5032
udp://tracker.iamhansen.xyz:2000/announce000
udp://p4p.arenabg.com:1337/announce50591
udp://explodie.org:6969/announce100
udp://tracker.opentrackr.org:1337/announce61840
udp://tracker.tiny-vps.com:6969/announce5059
udp://exodus.desync.com:6969/announce7017
udp://ipv4.tracker.harry.lu:80/announce100
udp://open.stealth.si:80/announce60642
udp://9.rarbg.to:2710/announce000


File List: 





Comments
No comments still posted