Download Arch Enemy - As The Stages Burn! 2016 bdrip 1080p h 265 hevc frank torrent - GloDLS
Torrent Details For "Arch Enemy - As The Stages Burn! 2016 bdrip 1080p h 265 hevc frank"

Arch Enemy - As The Stages Burn! 2016 bdrip 1080p h 265 hevc frank

To download this torrent, you need a BitTorrent client: Vuze or BTGuard
Download this torrent
Download using Magnet Link

Health:
Seeds: 7
Leechers: 0
Completed: 91 
Last Checked: 13-02-2019 14:22:07

Uploader Reputation points : 222
External: Torrent






Write a Review for the Uploader:   0   Say Thanks with one good review:
Share on Facebook


Details
Name:Arch Enemy - As The Stages Burn! 2016 bdrip 1080p h 265 hevc frank
Description:
Tokyo Sacrifice  







General
Unique ID                                : 67965282214858422418082152932608065485 (0x3321A320D369FCC29A5D8C7084643FCD)
Complete name                            : /downloads/Arch Enemy - As The Stages Burn! 2016 bdrip 1080p h.265 hevc frank/Tokyo Sacrifice  bdrip 1080p h.265 hevc frank.mkv
Format                                   : Matroska
Format version                           : Version 4 / Version 2
File size                                : 247 MiB
Duration                                 : 33 min 56 s
Overall bit rate                         : 1 016 kb/s
Encoded date                             : UTC 2019-02-11 00:48:34
Writing application                      : mkvmerge v24.0.0 ('Beyond The Pale') 64-bit
Writing library                          : libebml v1.3.6 + libmatroska v1.4.9
Writing frontend                         : StaxRip v1.8.2.0

Video
ID                                       : 1
Format                                   : HEVC
Format/Info                              : High Efficiency Video Coding
Format profile                           : Main [email protected]@High
Codec ID                                 : V_MPEGH/ISO/HEVC
Duration                                 : 33 min 56 s
Bit rate                                 : 711 kb/s
Width                                    : 1 920 pixels
Height                                   : 1 080 pixels
Display aspect ratio                     : 16:9
Frame rate mode                          : Constant
Frame rate                               : 29.970 (30000/1001) FPS
Color space                              : YUV
Chroma subsampling                       : 4:2:0 (Type 2)
Bit depth                                : 10 bits
Bits/(Pixel*Frame)                       : 0.011
Stream size                              : 173 MiB (70%)
Writing library                          : x265 2.9+1-169e76b6bbcc:[Windows][GCC 8.2.0][64 bit] 10bit
Encoding settings                        : cpuid=1111039 / frame-threads=2 / numa-pools=4 / wpp / no-pmode / no-pme / no-psnr / no-ssim / log-level=2 / input-csp=1 / input-res=1920x1080 / interlace=0 / total-frames=61028 / level-idc=41 / high-tier=1 / uhd-bd=0 / ref=2 / no-allow-non-conformance / repeat-headers / annexb / aud / hrd / info / hash=0 / no-temporal-layers / no-open-gop / min-keyint=24 / keyint=240 / gop-lookahead=0 / bframes=4 / b-adapt=0 / b-pyramid / bframe-bias=0 / rc-lookahead=15 / lookahead-slices=6 / scenecut=40 / radl=0 / no-intra-refresh / ctu=64 / min-cu-size=8 / no-rect / no-amp / max-tu-size=32 / tu-inter-depth=1 / tu-intra-depth=1 / limit-tu=0 / rdoq-level=0 / dynamic-rd=0.00 / no-ssim-rd / signhide / no-tskip / nr-intra=0 / nr-inter=0 / no-constrained-intra / no-strong-intra-smoothing / max-merge=2 / limit-refs=3 / no-limit-modes / me=1 / subme=2 / merange=57 / temporal-mvp / weightp / no-weightb / no-analyze-src-pics / deblock=3:3 / no-sao / no-sao-non-deblock / rd=2 / early-skip / rskip / fast-intra / no-tskip-fast / no-cu-lossless / no-b-intra / no-splitrd-skip / rdpenalty=0 / psy-rd=2.00 / psy-rdoq=0.00 / no-rd-refine / no-lossless / cbqpoffs=0 / crqpoffs=0 / rc=abr / bitrate=700 / qcomp=0.60 / qpstep=4 / stats-write=0 / stats-read=2 / cplxblur=20.0 / qblur=0.5 / vbv-maxrate=50000 / vbv-bufsize=50000 / vbv-init=0.9 / ipratio=1.40 / pbratio=1.30 / aq-mode=1 / aq-strength=1.00 / cutree / zone-count=0 / no-strict-cbr / qg-size=32 / no-rc-grain / qpmax=69 / qpmin=0 / no-const-vbv / sar=1 / overscan=0 / videoformat=5 / range=0 / colorprim=9 / transfer=16 / colormatrix=9 / chromaloc=1 / chromaloc-top=2 / chromaloc-bottom=2 / display-window=0 / max-cll=0,0 / min-luma=0 / max-luma=1023 / log2-max-poc-lsb=8 / vui-timing-info / vui-hrd-info / slices=1 / no-opt-qp-pps / no-opt-ref-list-length-pps / no-multi-pass-opt-rps / scenecut-bias=0.05 / no-opt-cu-delta-qp / no-aq-motion / hdr / hdr-opt / no-dhdr10-opt / no-idr-recovery-sei / analysis-reuse-level=5 / scale-factor=0 / refine-intra=0 / refine-inter=0 / refine-mv=0 / no-limit-sao / ctu-info=0 / no-lowpass-dct / refine-mv-type=0 / copy-pic=1 / max-ausize-factor=1.0 / no-dynamic-refine / no-single-sei
Default                                  : Yes
Forced                                   : No
Color range                              : Limited
Color primaries                          : BT.2020
Transfer characteristics                 : PQ
Matrix coefficients                      : BT.2020 non-constant

Audio
ID                                       : 2
Format                                   : Opus
Codec ID                                 : A_OPUS
Duration                                 : 33 min 56 s
Bit rate                                 : 301 kb/s
Channel(s)                               : 2 channels
Channel positions                        : Front: L R
Sampling rate                            : 48.0 kHz
Frame rate                               : 50.000 FPS (960 SPF)
Compression mode                         : Lossy
Stream size                              : 73.2 MiB (30%)
Default                                  : Yes
Forced                                   : No



Tracklist

00:00:00.000                             : Tempore Nihil Sanat
00:01:18.978                             : Never Forgive, Never Forget
00:05:05.271                             : Bury Me An Angel
00:09:43.749                             :Taking Back My Soul
00:14:38.878                             : Burning Angel
00:19:04.676                             : The Day You Died
00:24:07.112                             : :No More Regrets
00:28:28.139                             ::Silverwing
---------------------------------------------------------------------------------------------------


2-Wacken







General
Unique ID                                : 162454032576816224308690854982980755680 (0x7A37823320285B7AF017DDD9BC3060E0)
Complete name                            : /downloads/Arch Enemy - As The Stages Burn! 2016 bdrip 1080p h.265 hevc frank/Wacken 2016  bdrip 1080p h.265 hevc frank.mkv
Format                                   : Matroska
Format version                           : Version 4 / Version 2
File size                                : 524 MiB
Duration                                 : 1 h 12 min
Overall bit rate                         : 1 008 kb/s
Encoded date                             : UTC 2019-02-10 21:28:54
Writing application                      : mkvmerge v24.0.0 ('Beyond The Pale') 64-bit
Writing library                          : libebml v1.3.6 + libmatroska v1.4.9
Writing frontend                         : StaxRip v1.8.2.0

Video
ID                                       : 1
Format                                   : HEVC
Format/Info                              : High Efficiency Video Coding
Format profile                           : Main [email protected]@High
Codec ID                                 : V_MPEGH/ISO/HEVC
Duration                                 : 1 h 12 min
Bit rate                                 : 710 kb/s
Width                                    : 1 920 pixels
Height                                   : 1 080 pixels
Display aspect ratio                     : 16:9
Frame rate mode                          : Constant
Frame rate                               : 29.970 (30000/1001) FPS
Color space                              : YUV
Chroma subsampling                       : 4:2:0 (Type 2)
Bit depth                                : 10 bits
Bits/(Pixel*Frame)                       : 0.011
Stream size                              : 370 MiB (70%)
Writing library                          : x265 2.9+1-169e76b6bbcc:[Windows][GCC 8.2.0][64 bit] 10bit
Encoding settings                        : cpuid=1111039 / frame-threads=2 / numa-pools=4 / wpp / no-pmode / no-pme / no-psnr / no-ssim / log-level=2 / input-csp=1 / input-res=1920x1080 / interlace=0 / total-frames=130789 / level-idc=41 / high-tier=1 / uhd-bd=0 / ref=2 / no-allow-non-conformance / repeat-headers / annexb / aud / hrd / info / hash=0 / no-temporal-layers / no-open-gop / min-keyint=24 / keyint=240 / gop-lookahead=0 / bframes=4 / b-adapt=0 / b-pyramid / bframe-bias=0 / rc-lookahead=15 / lookahead-slices=6 / scenecut=40 / radl=0 / no-intra-refresh / ctu=64 / min-cu-size=8 / no-rect / no-amp / max-tu-size=32 / tu-inter-depth=1 / tu-intra-depth=1 / limit-tu=0 / rdoq-level=0 / dynamic-rd=0.00 / no-ssim-rd / signhide / no-tskip / nr-intra=0 / nr-inter=0 / no-constrained-intra / no-strong-intra-smoothing / max-merge=2 / limit-refs=3 / no-limit-modes / me=1 / subme=2 / merange=57 / temporal-mvp / weightp / no-weightb / no-analyze-src-pics / deblock=3:3 / no-sao / no-sao-non-deblock / rd=2 / early-skip / rskip / fast-intra / no-tskip-fast / no-cu-lossless / no-b-intra / no-splitrd-skip / rdpenalty=0 / psy-rd=2.00 / psy-rdoq=0.00 / no-rd-refine / no-lossless / cbqpoffs=0 / crqpoffs=0 / rc=abr / bitrate=700 / qcomp=0.60 / qpstep=4 / stats-write=0 / stats-read=2 / cplxblur=20.0 / qblur=0.5 / vbv-maxrate=50000 / vbv-bufsize=50000 / vbv-init=0.9 / ipratio=1.40 / pbratio=1.30 / aq-mode=1 / aq-strength=1.00 / cutree / zone-count=0 / no-strict-cbr / qg-size=32 / no-rc-grain / qpmax=69 / qpmin=0 / no-const-vbv / sar=1 / overscan=0 / videoformat=5 / range=0 / colorprim=9 / transfer=16 / colormatrix=9 / chromaloc=1 / chromaloc-top=2 / chromaloc-bottom=2 / display-window=0 / max-cll=0,0 / min-luma=0 / max-luma=1023 / log2-max-poc-lsb=8 / vui-timing-info / vui-hrd-info / slices=1 / no-opt-qp-pps / no-opt-ref-list-length-pps / no-multi-pass-opt-rps / scenecut-bias=0.05 / no-opt-cu-delta-qp / no-aq-motion / hdr / hdr-opt / no-dhdr10-opt / no-idr-recovery-sei / analysis-reuse-level=5 / scale-factor=0 / refine-intra=0 / refine-inter=0 / refine-mv=0 / no-limit-sao / ctu-info=0 / no-lowpass-dct / refine-mv-type=0 / copy-pic=1 / max-ausize-factor=1.0 / no-dynamic-refine / no-single-sei
Default                                  : Yes
Forced                                   : No
Color range                              : Limited
Color primaries                          : BT.2020
Transfer characteristics                 : PQ
Matrix coefficients                      : BT.2020 non-constant

Audio
ID                                       : 2
Format                                   : Opus
Codec ID                                 : A_OPUS
Duration                                 : 1 h 12 min
Bit rate                                 : 294 kb/s
Channel(s)                               : 2 channels
Channel positions                        : Front: L R
Sampling rate                            : 48.0 kHz
Frame rate                               : 50.000 FPS (960 SPF)
Compression mode                         : Lossy
Stream size                              : 153 MiB (29%)
Default                                  : Yes
Forced                                   : No

Tracklist
00:00:00.000                             : en:Khaos Overture
00:01:45.605                             : en:Yesterday Is Dead And Gone
00:06:21.481                             : en:War Eternal
00:11:27.686                             : en:Ravenous
00:15:32.932                             : en:Stolen Life
00:18:33.612                             : en:My Apocalpyse
00:24:30.902                             : en:You Will Know My Name
00:29:03.675                             : en:Bloodstained Cross
00:34:43.581                             : en:Under Black Flags We March
00:39:56.127                             : en:As The Pages Burn
00:44:19.657                             : en:Dead Eyes See No Future
00:48:49.593                             : en:Avalanche
00:54:01.605                             : en:No Gods, No Masters
00:58:34.477                             : en:We Will Rise
01:03:18.194                             : en:Nemesis
01:07:39.155                             : en:Fields Of Desolation
01:10:38.334                             : en:Outro







YouTube Video:   
Category:Music
Language:English  English
Total Size:771.02 MB
Info Hash:69F9C3CBED92940AACD379948A0F64D68F4AA78A
Added By:hevcfrank
Date Added:11-02-2019 01:26:09
Torrent Status:Torrent Verified by SaM Super Administrator on 11th February, 2019


Ratings:Not Yet Rated (Log in to rate it)


Tracker:
udp://glotorrents.pw:6969/announce

This Torrent also has backup trackers
URLSeedersLeechersCompleted
udp://glotorrents.pw:6969/announce000
udp://tracker.pubt.net:2710/announce000
udp://tracker.openbittorrent.com:80/announce000
udp://open.demonii.com:1337/announce000
udp://tracker.torrent.eu.org:451/announce0010
http://tracker.city9x.com:2710/announce000
udp://open.demonii.com:1337/announce000
udp://tracker.openbittorrent.com:80/announce000
udp://9.rarbg.com:2710/announce2023
udp://tracker.coppersurfer.tk:6969/announce109
udp://tracker.opentrackr.org:1337109
udp://tracker.tiny-vps.com:6969/announce1010
udp://tracker.internetwarriors.net:1337/announce007
udp://9.rarbg.to:2710/announce2023


File List: 





Comments
No comments still posted