Download Arch Enemy Tyrants of the Rising Sun Live in Japan 2008 DVDRip h 265 hevc frank torrent - GloDLS
Torrent Details For "Arch Enemy Tyrants of the Rising Sun Live in Japan 2008 DVDRip h 265 hevc frank"

Arch Enemy Tyrants of the Rising Sun Live in Japan 2008 DVDRip h 265 hevc frank

To download this torrent, you need a BitTorrent client: Vuze or BTGuard
Download this torrent
Download using Magnet Link

Health:
Seeds: 1
Leechers: 0
Completed:
Last Checked: 04-03-2019 23:05:57

Uploader Reputation points : 348
External: Torrent






Write a Review for the Uploader:   0   Say Thanks with one good review:
Share on Facebook


Details
Name:Arch Enemy Tyrants of the Rising Sun Live in Japan 2008 DVDRip h 265 hevc frank
Description:
[img]https://i.ibb.co/k3wpWXG/Arch-Enemy-Tyrants-of-the-Rising-Sun-Live-in-Japan-2008-DVDRip-h-265 hevc-frank-mkv-002434-340.png[/img]


Tracklist

01. Intro/Blood On Your Hands
02. Ravenous
03. Taking Back My Soul
04. Dead Eyes See No Future
05. Dark Insanity
06. The Day You Died
07. Christopher Solo
08. Silverwing
09. Night Falls Fast
10. Daniel Solo
11. Burning Angel
12. Michael Amott Solo (incl. Intermezzo Liberte)
13. Dead Bury Their Dead
14. Vultures
15. Enemy Within
16. Snowbound
17. Shadows And Dust
18. Nemesis
19. We Will Rise
20. Fields Of Desolation/Outro




General
Unique ID                                : 49539755607124898614978882653777991489 (0x254502873E1CDC6E06F8910D92529741)
Complete name                            : /downloads/Arch.Enemy Tyrants.of.the.Rising.Sun_Live.in.Japan 2008.DVDRip.h.265 hevc frank/Arch.Enemy Tyrants.of.the.Rising.Sun_Live.in.Japan.2008.DVDRip.h.265 hevc frank.mkv
Format                                   : Matroska
Format version                           : Version 4 / Version 2
File size                                : 683 MiB
Duration                                 : 1 h 34 min
Overall bit rate                         : 1 006 kb/s
Movie name                               : 01-Arch.Enemy_Tyrants.of.the.Rising.Sun_Live.in.Japan.2008.DVDRip.x264.Eng.2.0.AC3-MK664.mkv
Encoded date                             : UTC 2019-02-10 10:35:36
Writing application                      : mkvmerge v24.0.0 ('Beyond The Pale') 64-bit
Writing library                          : libebml v1.3.6 + libmatroska v1.4.9
Writing frontend                         : StaxRip v1.8.2.0

Video
ID                                       : 1
Format                                   : HEVC
Format/Info                              : High Efficiency Video Coding
Format profile                           : Main [email protected]@High
Codec ID                                 : V_MPEGH/ISO/HEVC
Duration                                 : 1 h 34 min
Bit rate                                 : 712 kb/s
Width                                    : 720 pixels
Height                                   : 480 pixels
Display aspect ratio                     : 3:2
Frame rate mode                          : Constant
Frame rate                               : 29.970 (30000/1001) FPS
Standard                                 : NTSC
Color space                              : YUV
Chroma subsampling                       : 4:2:0 (Type 2)
Bit depth                                : 10 bits
Bits/(Pixel*Frame)                       : 0.069
Stream size                              : 483 MiB (71%)
Writing library                          : x265 2.9+1-169e76b6bbcc:[Windows][GCC 8.2.0][64 bit] 10bit
Encoding settings                        : cpuid=1111039 / frame-threads=2 / numa-pools=4 / wpp / no-pmode / no-pme / no-psnr / no-ssim / log-level=2 / input-csp=1 / input-res=720x480 / interlace=0 / total-frames=170676 / level-idc=41 / high-tier=1 / uhd-bd=0 / ref=2 / no-allow-non-conformance / repeat-headers / annexb / aud / hrd / info / hash=0 / no-temporal-layers / no-open-gop / min-keyint=24 / keyint=240 / gop-lookahead=0 / bframes=4 / b-adapt=0 / b-pyramid / bframe-bias=0 / rc-lookahead=15 / lookahead-slices=0 / scenecut=40 / radl=0 / no-intra-refresh / ctu=64 / min-cu-size=8 / no-rect / no-amp / max-tu-size=32 / tu-inter-depth=1 / tu-intra-depth=1 / limit-tu=0 / rdoq-level=0 / dynamic-rd=0.00 / no-ssim-rd / signhide / no-tskip / nr-intra=0 / nr-inter=0 / no-constrained-intra / no-strong-intra-smoothing / max-merge=2 / limit-refs=3 / no-limit-modes / me=1 / subme=2 / merange=57 / temporal-mvp / weightp / no-weightb / no-analyze-src-pics / deblock=3:3 / no-sao / no-sao-non-deblock / rd=2 / early-skip / rskip / fast-intra / no-tskip-fast / no-cu-lossless / no-b-intra / no-splitrd-skip / rdpenalty=0 / psy-rd=2.00 / psy-rdoq=0.00 / no-rd-refine / no-lossless / cbqpoffs=0 / crqpoffs=0 / rc=abr / bitrate=700 / qcomp=0.60 / qpstep=4 / stats-write=0 / stats-read=2 / cplxblur=20.0 / qblur=0.5 / vbv-maxrate=50000 / vbv-bufsize=50000 / vbv-init=0.9 / ipratio=1.40 / pbratio=1.30 / aq-mode=1 / aq-strength=1.00 / cutree / zone-count=0 / no-strict-cbr / qg-size=32 / no-rc-grain / qpmax=69 / qpmin=0 / no-const-vbv / sar=1 / overscan=0 / videoformat=5 / range=0 / colorprim=9 / transfer=16 / colormatrix=9 / chromaloc=1 / chromaloc-top=2 / chromaloc-bottom=2 / display-window=0 / max-cll=0,0 / min-luma=0 / max-luma=1023 / log2-max-poc-lsb=8 / vui-timing-info / vui-hrd-info / slices=1 / no-opt-qp-pps / no-opt-ref-list-length-pps / no-multi-pass-opt-rps / scenecut-bias=0.05 / no-opt-cu-delta-qp / no-aq-motion / hdr / hdr-opt / no-dhdr10-opt / no-idr-recovery-sei / analysis-reuse-level=5 / scale-factor=0 / refine-intra=0 / refine-inter=0 / refine-mv=0 / no-limit-sao / ctu-info=0 / no-lowpass-dct / refine-mv-type=0 / copy-pic=1 / max-ausize-factor=1.0 / no-dynamic-refine / no-single-sei
Default                                  : Yes
Forced                                   : No
Color range                              : Limited
Color primaries                          : BT.2020
Transfer characteristics                 : PQ
Matrix coefficients                      : BT.2020 non-constant

Audio
ID                                       : 2
Format                                   : Opus
Codec ID                                 : A_OPUS
Duration                                 : 1 h 34 min
Bit rate                                 : 293 kb/s
Channel(s)                               : 6 channels
Channel positions                        : Front: L C R, Rear: L R, LFE
Sampling rate                            : 48.0 kHz
Frame rate                               : 50.000 FPS (960 SPF)
Compression mode                         : Lossy
Stream size                              : 198 MiB (29%)
Language                                 : English
Default                                  : No
Forced                                   : Yes

Menu
00:00:00.000                             : en:Chapter 1
00:00:06.800                             : en:00. Intro
00:01:39.600                             : en:01. Blood On Your Hands
00:06:12.400                             : en:02. Ravenous
00:10:07.600                             : en:03. Taking Back My Soul
00:15:19.200                             : en:04. Dead Eyes See No Future
00:19:45.200                             : en:05. Dark Insanity
00:23:17.200                             : en:"Thank You"
00:23:43.600                             : en:06. The Day You Died
00:28:53.200                             : en:07. Chris Solo
00:31:26.400                             : en:08. Silverwing
00:36:47.600                             : en:09. Night Falls Fast
00:40:29.200                             : en:10. Daniel Solo
00:43:54.800                             : en:11. Burning Angel
00:48:31.200                             : en:12. Michael Solo (incl. "Intermezzo Libert?";)
00:51:54.400                             : en:13. Dead Bury Their Dead
00:56:48.800                             : en:14. Vultures
01:04:22.000                             : en:15. Enemy Within
01:08:49.600                             : en:16. Snowbound
01:11:07.600                             : en:17. Shadows And Dust
01:16:27.200                             : en:18. Nemesis
01:24:32.800                             : en:19. We Will Rise
01:29:18.000                             : en:20. Fields Of Desolation
01:33:14.800                             : en:Titles
01:34:46.000                             : en:Savage Messiah Logo

YouTube Video:   
Category:Music
Language:English  English
Total Size:683.27 MB
Info Hash:407671DD695BEF045C4BDDC6ED0D742FBDE3D4C7
Added By:hevcfrank
Date Added:2019-02-11 01:13:58
Torrent Status:Torrent Verified by SaM Super Administrator on 11th February, 2019


Ratings:Not Yet Rated (Log in to rate it)


Tracker:
udp://glotorrents.pw:6969/announce

This Torrent also has backup trackers
URLSeedersLeechersCompleted
udp://glotorrents.pw:6969/announce000
udp://tracker.pubt.net:2710/announce000
udp://tracker.openbittorrent.com:80/announce000
udp://open.demonii.com:1337/announce000
udp://tracker.torrent.eu.org:451/announce100
http://tracker.city9x.com:2710/announce000
udp://open.demonii.com:1337/announce000
udp://tracker.openbittorrent.com:80/announce000
udp://9.rarbg.com:2710/announce000
udp://tracker.coppersurfer.tk:6969/announce000
udp://tracker.opentrackr.org:1337000
udp://tracker.tiny-vps.com:6969/announce000
udp://tracker.internetwarriors.net:1337/announce000
udp://9.rarbg.to:2710/announce000


File List: 





Comments
No comments still posted