Download At Eternity s Gate - Van Gogh - Sulla soglia dell eternità (2018) 720p H264 italian english Ac3-5 1 sub ita NUita-MIRCrew torrent - GloDLS
Login
Username:
Password:
Remember Me:
[Signup]
[Recover Account]
Latest Forums Topics
Will Be Updated Soon
Friends
Pirateiro
Friendly site

Free Courses Online
Friendly site

ETTV Community
Friendly site

KaranPC
Friendly site

P2PDL.com
Friendly site

Free Tutorials & Courses
Friendly site

Torrent Details For "At Eternity s Gate - Van Gogh - Sulla soglia dell eternità (2018) 720p H264 italian ..."

At Eternity s Gate - Van Gogh - Sulla soglia dell eternità (2018) 720p H264 italian ...

To download this torrent, you need a BitTorrent client: Vuze or BTGuard
Download this torrent
Download using Magnet Link

Health:
Seeds: 220
Leechers: 7
Completed: 4,859 
Last Checked: 22-06-2019 07:36:07

Uploader Reputation points : 3053
External: Torrent






Write a Review for the Uploader:   0   Say Thanks with one good review:
Share on Facebook


Details
Name:At Eternity s Gate - Van Gogh - Sulla soglia dell eternità (2018) 720p H264 italian ...
Description:
At Eternity's Gate - Van Gogh - Sulla soglia dell'eternità (2018).720p.H264.italian.english.Ac3-5.1.sub.ita.NUita-MIRCrew


NO FOUND ONLY ORIGINAL RELEASE

My release is always in double track audio italian and Original audio
for select it use VLC or dvd player home
not use wmp

PRESENTI I SOTTOTITOLI ITALIANI PER NON UDENTI

Van Gogh - Sulla soglia dell'eternità - At Eternity's Gate (2018)

Quality MIRCrew on HD 720p da  2,1 gb










GENERE: Biografico, Drammatico
ANNO: 2018
REGIA: Julian Schnabel
PAESE: Gran Bretagna, Francia, USA
DURATA: 110 Min



Willem Dafoe, Oscar Isaac, Mads Mikkelsen, Rupert Friend, Mathieu Amalric, Niels Arestrup, Stella Schnabel, Patrick Chesnais



Un ritratto dell'irrequieto pittore olandese - qui interpretato da un sorprendete Willem Dafoe - dal burrascoso rapporto con Gauguin (Oscar Isaac) nel 1988 fino al colpo di pistola che gli ha tolto la vita a soli 37 anni. Un frangente di vita frenetico quello preso in considerazione, che ha portato a momenti molto produttivi e alla conseguente creazione di capolavori che hanno fatto la storia dell’arte e che tutt'oggi continuano a incantare il mondo intero.



During a self-imposed exile in Arles and Auvers-Sur-Oise, France, Dutch painter Vincent van Gogh develops his unique, colorful style of painting. While grappling with religion, mental illness and a tumultuous friendship with French artist Paul Gauguin, van Gogh begins to focus on his relationship with eternity rather than the pain his art causes him in the present..





General
Unique ID                                : 173773472495981308995485050078326755968 (0x82BB8DAD10B486B2B2EEB813F01D1280)
Complete name                            : Van Gogh (2018).720p.h264.ita.eng.sub.ita.NUita-MIRCrew\Van Gogh (2018).720p.h264.ita.eng.sub.ita.NUita.eng-MIRCrew.mkv
Format                                   : Matroska
Format version                           : Version 2
File size                                : 2.11 GiB
Duration                                 : 1h 51mn
Overall bit rate                         : 2 701 Kbps
Movie name                               : MIRCrew
Encoded date                             : UTC 2019-04-13 20:29:54
Writing application                      : mkvmerge v5.8.0 ('No Sleep / Pillow') built on Sep  2 2012 15:37:04
Writing library                          : Lavf54.63.100
Language                                 : ita
DURATION                                 : 01:51:42.070000000
NUMBER_OF_FRAMES                         : 628319
NUMBER_OF_BYTES                          : 1264178036
_STATISTICS_WRITING_APP                  : mkvmerge v32.0.0 ('Astral Progressions') 64-bit
_STATISTICS_WRITING_DATE_UTC             : 2019-04-13 20:29:54
_STATISTICS_TAGS                         : BPS DURATION NUMBER_OF_FRAMES NUMBER_OF_BYTES

Video
ID                                       : 1
Format                                   : AVC
Format/Info                              : Advanced Video Codec
Format profile                           : [email protected]
Format settings, CABAC                   : Yes
Format settings, ReFrames                : 2 frames
Codec ID                                 : V_MPEG4/ISO/AVC
Duration                                 : 1h 51mn
Bit rate                                 : 1 751 Kbps
Nominal bit rate                         : 1 900 Kbps
Width                                    : 1 280 pixels
Height                                   : 528 pixels
Display aspect ratio                     : 2.40:1
Frame rate mode                          : Variable
Frame rate                               : 24.000 fps
Color space                              : YUV
Chroma subsampling                       : 4:2:0
Bit depth                                : 8 bits
Scan type                                : Progressive
Bits/(Pixel*Frame)                       : 0.108
Stream size                              : 1.37 GiB (65%)
Title                                    : MIRCrew
Writing library                          : x264 core 130 r2273
Encoding settings                        : cabac=1 / ref=2 / deblock=1:0:0 / analyse=0x1:0x131 / me=hex / subme=7 / psy=1 / psy_rd=1.00:0.00 / mixed_ref=0 / me_range=16 / chroma_me=1 / trellis=1 / 8x8dct=0 / cqm=0 / deadzone=21,11 / fast_pskip=1 / chroma_qp_offset=-2 / threads=9 / lookahead_threads=1 / sliced_threads=0 / nr=0 / decimate=1 / interlaced=0 / bluray_compat=0 / constrained_intra=0 / bframes=3 / b_pyramid=0 / b_adapt=1 / b_bias=0 / direct=3 / weightb=1 / open_gop=0 / weightp=2 / keyint=240 / keyint_min=24 / scenecut=40 / intra_refresh=0 / rc_lookahead=40 / rc=abr / mbtree=1 / bitrate=1900 / ratetol=1.0 / qcomp=0.60 / qpmin=10 / qpmax=69 / qpstep=4 / vbv_maxrate=24000 / vbv_bufsize=24000 / nal_hrd=none / ip_ratio=1.40 / aq=1:1.00
Language                                 : Italian
Default                                  : Yes
Forced                                   : No
DURATION                                 : 01:51:41.000000000
NUMBER_OF_FRAMES                         : 160824
NUMBER_OF_BYTES                          : 8464386793
_STATISTICS_WRITING_APP                  : mkvmerge v32.0.0 ('Astral Progressions') 64-bit
_STATISTICS_WRITING_DATE_UTC             : 2019-04-13 20:29:54
_STATISTICS_TAGS                         : BPS DURATION NUMBER_OF_FRAMES NUMBER_OF_BYTES

Audio #1
ID                                       : 2
Format                                   : AC-3
Format/Info                              : Audio Coding 3
Mode extension                           : CM (complete main)
Codec ID                                 : A_AC3
Duration                                 : 1h 51mn
Bit rate mode                            : Constant
Bit rate                                 : 448 Kbps
Channel(s)                               : 6 channels
Channel positions                        : Front: L C R, Side: L R, LFE
Sampling rate                            : 48.0 KHz
Bit depth                                : 16 bits
Compression mode                         : Lossy
Delay relative to video                  : -5ms
Stream size                              : 358 MiB (17%)
Title                                    : Ita Ac3 5.1
Language                                 : Italian
Default                                  : Yes
Forced                                   : Yes
DURATION                                 : 01:51:42.080000000
NUMBER_OF_FRAMES                         : 209440
NUMBER_OF_BYTES                          : 536166400
_STATISTICS_WRITING_APP                  : mkvmerge v32.0.0 ('Astral Progressions') 64-bit
_STATISTICS_WRITING_DATE_UTC             : 2019-04-13 20:29:54
_STATISTICS_TAGS                         : BPS DURATION NUMBER_OF_FRAMES NUMBER_OF_BYTES

Audio #2
ID                                       : 3
Format                                   : AC-3
Format/Info                              : Audio Coding 3
Mode extension                           : CM (complete main)
Codec ID                                 : A_AC3
Duration                                 : 1h 51mn
Bit rate mode                            : Constant
Bit rate                                 : 448 Kbps
Channel(s)                               : 6 channels
Channel positions                        : Front: L C R, Side: L R, LFE
Sampling rate                            : 48.0 KHz
Bit depth                                : 16 bits
Compression mode                         : Lossy
Delay relative to video                  : -5ms
Stream size                              : 358 MiB (17%)
Title                                    : Eng Ac3 5.1
Language                                 : English
Default                                  : No
Forced                                   : No


YouTube Video:
Category:Movies
Language:English  English
Total Size:2.11 GB
Info Hash:CE75C64754375111472EB9EEE98362910716E376
Added By:robbyrs Verified Uploader
Date Added:15-04-2019 22:13:10
Torrent Status:Torrent Verified


Ratings:Not Yet Rated (Log in to rate it)


Tracker:
udp://tracker.coppersurfer.tk:6969/announce

This Torrent also has backup trackers
URLSeedersLeechersCompleted
udp://tracker.coppersurfer.tk:6969/announce54187
udp://tracker.torrent.eu.org:451/announce14173
udp://tracker.pirateparty.gr:6969/announce54187
udp://tracker.opentrackr.org:1337/announce1511,486
udp://tracker.leechers-paradise.org:6969/announce1513
udp://tracker.eddie4.nl:6969/announce000
udp://shadowshq.yi.org:6969/announce000
udp://shadowshq.eddie4.nl:6969/announce000
udp://inferno.demonoid.pw:3391/announce000
udp://eddie4.nl:6969/announce000
udp://9.rarbg.to:2730/announce000
udp://9.rarbg.com:2710/announce000
udp://9.rarbg.me:2780/announce000
udp://62.138.0.158:6969/announce54187
udp://151.80.120.114:2710/announce1413,036


File List: 





Comments
No comments still posted