Download Avrodh (2020) Hindi S01 Complete 720p Sonyliv WEBRip ⭐1.7 GB⭐ AAC 2CH x264 - Shadow (BonsaiHD) torrent - GloDLS
Torrent Details For "Avrodh (2020) Hindi S01 Complete 720p Sonyliv WEBRip ⭐1.7 GB⭐ AAC 2CH x264 - Shad..."

Avrodh (2020) Hindi S01 Complete 720p Sonyliv WEBRip ⭐1.7 GB⭐ AAC 2CH x264 - Shad...

To download this torrent, you need a BitTorrent client: Vuze or BTGuard
Download this torrent
Download using Magnet Link

Health:
Seeds: 8,589
Leechers: 2,174
Completed: 74,842 
Last Checked: 08-08-2020 14:30:50

Uploader Reputation points : 972
External: Torrent






Write a Review for the Uploader:   5   Say Thanks with one good review:
Share on Facebook


Details
Name:Avrodh (2020) Hindi S01 Complete 720p Sonyliv WEBRip ⭐1.7 GB⭐ AAC 2CH x264 - Shad...
Description:
If You Need Best Quality in Low Size. Then This Is For You

Please Don't Stop Your Tourrent after download Complete. For seeding



Movie name :

Avrodh (2020) Hindi S01 Complete 720p Sonyliv WEBRip ⭐1.7 GB⭐ AAC 2CH x264 - Shadow (BonsaiHD)


Quote:

Storyline : It is a War Thriller based on the theme of Indian Army and Uri Surgical Strike.................

Release date : 31 July 2020 (India)

File size : 1.7 GB

Encoded by :- ⭐BonsaiHD⭐

Source :-⭐BonsaiHD⭐











General
Unique ID                                : 288533148211434287931214545369876484742 (0xD9117687BFDBBC5B40FC9E5C0FBD5286)
Complete name                            :Avrodh.S01.Complete.Ep 1-9.720p.Sonyliv.WEBRip.AAC.x264-BonsaiHD.mkv
Format                                   : Matroska
Format version                           : Version 4
File size                                : 1.73 GiB
Duration                                 : 4 h 43 min
Overall bit rate                         : 876 kb/s
Movie name                               : Shadow (BonsaiHD.Online)
Encoded date                             : UTC 2020-07-30 18:41:45
Writing application                      : mkvmerge v48.0.0 ('Fortress Around Your Heart') 64-bit
Writing library                          : libebml v1.4.0 + libmatroska v1.6.0

Video
ID                                       : 1
Format                                   : AVC
Format/Info                              : Advanced Video Codec
Format profile                           : [email protected]
Format settings                          : CABAC / 4 Ref Frames
Format settings, CABAC                   : Yes
Format settings, Reference frames        : 4 frames
Codec ID                                 : V_MPEG4/ISO/AVC
Duration                                 : 4 h 43 min
Bit rate                                 : 747 kb/s
Width                                    : 1 274 pixels
Height                                   : 720 pixels
Display aspect ratio                     : 16:9
Frame rate mode                          : Constant
Frame rate                               : 25.000 FPS
Color space                              : YUV
Chroma subsampling                       : 4:2:0
Bit depth                                : 8 bits
Scan type                                : Progressive
Bits/(Pixel*Frame)                       : 0.033
Stream size                              : 1.47 GiB (85%)
Title                                    : Shadow (BonsaiHD.Online)
Writing library                          : x264 core 155 r2917 0a84d98
Encoding settings                        : cabac=1 / ref=1 / deblock=1:0:0 / analyse=0x3:0x3 / me=dia / subme=1 / psy=1 / psy_rd=1.00:0.00 / mixed_ref=0 / me_range=16 / chroma_me=1 / trellis=0 / 8x8dct=1 / cqm=0 / deadzone=21,11 / fast_pskip=1 / chroma_qp_offset=0 / threads=22 / lookahead_threads=3 / sliced_threads=0 / nr=0 / decimate=1 / interlaced=0 / bluray_compat=0 / constrained_intra=0 / bframes=3 / b_pyramid=2 / b_adapt=1 / b_bias=0 / direct=1 / weightb=1 / open_gop=0 / weightp=1 / keyint=250 / keyint_min=25 / scenecut=40 / intra_refresh=0 / rc=abr / mbtree=0 / bitrate=747 / ratetol=1.0 / qcomp=0.60 / qpmin=0 / qpmax=69 / qpstep=4 / ip_ratio=1.40 / pb_ratio=1.30 / aq=1:1.00
Default                                  : Yes
Forced                                   : No

Audio
ID                                       : 2
Format                                   : AAC LC
Format/Info                              : Advanced Audio Codec Low Complexity
Codec ID                                 : A_AAC-2
Duration                                 : 4 h 43 min
Bit rate                                 : 128 kb/s
Channel(s)                               : 1 channel
Channel layout                           : C
Sampling rate                            : 44.1 kHz
Frame rate                               : 43.066 FPS (1024 SPF)
Compression mode                         : Lossy
Delay relative to video                  : -46 ms
Stream size                              : 259 MiB (15%)
Title                                    : Shadow (BonsaiHD.Online)
Language                                 : Hindi
Default                                  : Yes
Forced                                   : No


YouTube Video:
Category:TV
Language:Hindi  Hindi
Total Size:1.73 GB
Info Hash:92D96C037FD86A0318056FB9C46D35CD45D5AB71
Added By:trueHD Verified Uploader
Date Added:2020-07-31 02:50:54
Torrent Status:Torrent Verified


Ratings:Not Yet Rated (Log in to rate it)


Tracker:
udp://tracker.coppersurfer.tk:6969/announce

This Torrent also has backup trackers
URLSeedersLeechersCompleted
udp://tracker.coppersurfer.tk:6969/announce74124218,929
udp://tracker.leechers-paradise.org:6969/announce645160803
udp://tracker.cyberia.is:6969/announce5471167,598
http://tracker.nyap2p.com:8080/announce1,77370411,912
udp://p4p.arenabg.com:1337/announce5231094,059
udp://explodie.org:6969/announce158490
udp://tracker.opentrackr.org:1337/announce5471154,707
udp://tracker.tiny-vps.com:6969/announce6991205,111
udp://exodus.desync.com:6969/announce373752,817
udp://tracker.torrent.eu.org:451/announce7481074,834
udp://tracker.moeking.me:6969/announce6141072,668
udp://ipv4.tracker.harry.lu:80/announce150520
udp://open.stealth.si:80/announce5501024,713
udp://9.rarbg.to:2710/announce4901066,287
udp://opentor.org:2710/announce3110404


File List: 





Comments
No comments still posted