Login
Username:
Password:
Remember Me:
[Signup]
[Recover Account]
Friends
BTScene
Friendly site

Free Courses Online
Friendly site

Anime RG
Friendly site

KaranPC
Friendly site

P2PDL.com
Friendly site

Free Tutorials & Courses
Friendly site
Torrent Details For "Bad Grandmas 2017 720p WEB-DL DD 5 1 x264 ESub"

Bad Grandmas 2017 720p WEB-DL DD 5 1 x264 ESub

To download this torrent, you need a BitTorrent client: Vuze or BTGuard
Download this torrent
Download using Magnet Link

Direct Download - no client needed

Download Faster - High Speed Download

Health:
Seeds: 164
Leechers: 52
Completed: 527 
Last Checked: 14-03-2018 08:25:07

Uploader Reputation points : 4408
External: Torrent



BTGuard - BitTorrent Anonymously


Write a Review for the Uploader:   20   Say Thanks with one good review:
Share on Facebook


Details
Name:Bad Grandmas 2017 720p WEB-DL DD 5 1 x264 ESub
Description:




General
Format                                   : Matroska
Format version                           : Version 4 / Version 2
File size                                : 877 MiB
Duration                                 : 1 h 32 min
Overall bit rate                         : 1 332 kb/s

Video
ID                                       : 1
Format                                   : AVC
Format/Info                              : Advanced Video Codec
Format profile                           : [email protected]
Format settings                          : CABAC / 4 Ref Frames
Format settings, CABAC                   : Yes
Format settings, RefFrames               : 4 frames
Codec ID                                 : V_MPEG4/ISO/AVC
Duration                                 : 1 h 32 min
Bit rate                                 : 950 kb/s
Width                                    : 1 280 pixels
Height                                   : 636 pixels
Display aspect ratio                     : 2.013
Frame rate mode                          : Constant
Frame rate                               : 23.976 (24000/1001) FPS
Color space                              : YUV
Chroma subsampling                       : 4:2:0
Bit depth                                : 8 bits
Scan type                                : Progressive
Bits/(Pixel*Frame)                       : 0.049
Stream size                              : 623 MiB (71%)
Writing library                          : x264 core 148 r2708 86b7198
Default                                  : Yes
Forced                                   : No

Audio
ID                                       : 4
Format                                   : AC-3
Format/Info                              : Audio Coding 3
Codec ID                                 : A_AC3
Duration                                 : 1 h 32 min
Bit rate mode                            : Constant
Bit rate                                 : 384 kb/s
Channel(s)                               : 6 channels
Channel positions                        : Front: L C R, Side: L R, LFE
Sampling rate                            : 48.0 kHz
Frame rate                               : 31.250 FPS (1536 SPF)
Bit depth                                : 16 bits
Compression mode                         : Lossy
Stream size                              : 253 MiB (29%)
Language                                 : English
Service kind                             : Complete Main
Default                                  : Yes
Forced                                   : No

Text #1
ID                                       : 2
Format                                   : UTF-8
Codec ID                                 : S_TEXT/UTF8
Codec ID/Info                            : UTF-8 Plain Text
Duration                                 : 1 h 31 min
Bit rate                                 : 65 b/s
Count of elements                        : 1525
Stream size                              : 44.2 KiB (0%)
Language                                 : English
Default                                  : No
Forced                                   : No

Text #2
ID                                       : 3
Format                                   : UTF-8
Codec ID                                 : S_TEXT/UTF8
Codec ID/Info                            : UTF-8 Plain Text
Duration                                 : 1 h 31 min
Bit rate                                 : 71 b/s
Count of elements                        : 1712
Stream size                              : 48.2 KiB (0%)
Title                                    : SDH
Language                                 : English
Default                                  : No
Forced                                   : No







YouTube Video:
Category:Movies
Language:English  English
Total Size:876.81 MB
Info Hash:812151AA455E310EDD22E8C31E73DFE48FC4E238
Added By:MovieFreak Verified UploaderMovie Pirate
Date Added:13-03-2018 22:23:07
Torrent Status:Torrent Verified


Ratings:Not Yet Rated (Log in to rate it)


Tracker:
udp://tracker.pirateparty.gr:6969/announce

This Torrent also has backup trackers
URLSeedersLeechersCompleted
udp://tracker.pirateparty.gr:6969/announce16838
udp://tracker.opentrackr.org:1337/announce16537
http://tracker.opentrackr.org/announce000
udp://tracker.vanitycore.co:6969/announce14431
udp://public.popcorn-tracker.org:6969/announce16436
udp://9.rarbg.to:2710/announce13485
udp://9.rarbg.me:2710/announce13485
udp://9.rarbg.com:2770/announce13485
udp://inferno.demonoid.pw:3391/announce12431
udp://tracker.internetwarriors.net:1337/announce16532
udp://ipv4.tracker.harry.lu:80/announce520
udp://p4p.arenabg.ch:1337/announce000
http://tracker.vanitycore.co:6969/announce14431
http://public.popcorn-tracker.org:6969/announce16436
udp://tracker.zer0day.to:1337/announce000


File List: 





Comments
No comments still posted