Login
Username:
Password:
Remember Me:
[Signup]
[Recover Account]
Friends
BTScene
Friendly site

Free Courses Online
Friendly site

Anime RG
Friendly site

KaranPC
Friendly site

P2PDL.com
Friendly site

Free Tutorials & Courses
Friendly site
Torrent Details For "Best Part of Wakin Up"

Best Part of Wakin Up

To download this torrent, you need a BitTorrent client: Vuze or BTGuard
Download this torrent
Download using Magnet Link

Direct Download - no client needed

Download Faster - High Speed Download

Health:
Seeds: 15
Leechers: 0
Completed:
Last Checked: 12-07-2018 13:45:33

Uploader Reputation points : 8362
External: Torrent




Write a Review for the Uploader:   15   Say Thanks with one good review:
Share on Facebook


Details
Name:Best Part of Wakin Up
Description:
Starring: Ricky Flores ,  Levy Foxx ,  Angel Rios

[HD] The boys are sharing a bed after a busy, fun night. Angel wakes up first and, being next to sexy Ricky, wakes him up to start fooling around. This wakes up Levy, who’s really eager to get into the action himself. His little, tight ass is really begging for some attention, so the other boys give him some pleasure before returning to sucking Ricky. Angel decides he needs to Censored that boy, though, so he starts pounding Levy's ass while Levy sucks Ricky's big, uncut cock. Then its Ricky's turn to start his own ass-pounding of his young friend. Next, they start a train going… Angel Censoreding Ricky while Ricky Censoreds Levy. Ricky loves this, and grinds his ass back on Angel for some intense pleasure, finally shooting a big juicy load on Levy's ass. followed by Levy stroking out his load. A good start to the new day.


http://imagedecode.com/img-5b474509afa14.html



Format                                   : MPEG-4
Format profile                           : Base Media / Version 2
Codec ID                                 : mp42 (mp42)
File size                                : 2.25 GiB
Duration                                 : 30 min 46 s
Overall bit rate                         : 10.5 Mb/s
Codirector                               : codirector
Production studio                        : studio
ContentType                              : Unknown Type
Encoded date                             : UTC 2018-06-17 20:56:46
Tagged date                              : UTC 2018-06-17 20:56:46

Video
ID                                       : 1
Format                                   : AVC
Format/Info                              : Advanced Video Codec
Format profile                           : [email protected]
Format settings                          : 1 Ref Frames
Format settings, CABAC                   : No
Format settings, ReFrames                : 1 frame
Muxing mode                              : Container [email protected]
Codec ID                                 : avc1
Codec ID/Info                            : Advanced Video Coding
Duration                                 : 30 min 46 s
Bit rate                                 : 10.3 Mb/s
Width                                    : 1 920 pixels
Height                                   : 1 080 pixels
Display aspect ratio                     : 16:9
Frame rate mode                          : Constant
Frame rate                               : 29.970 (30000/1001) FPS
Original frame rate                      : 29.000 FPS
Color space                              : YUV
Chroma subsampling                       : 4:2:0
Bit depth                                : 8 bits
Scan type                                : Progressive
Bits/(Pixel*Frame)                       : 0.166
Stream size                              : 2.22 GiB (99%)
Language                                 : English
Encoded date                             : UTC 1952-06-16 20:56:46
Tagged date                              : UTC 1952-06-16 20:56:46

Audio
ID                                       : 2
Format                                   : AAC
Format/Info                              : Advanced Audio Codec
Format profile                           : LC
Codec ID                                 : mp4a-40-2
Duration                                 : 30 min 46 s
Bit rate mode                            : Constant
Bit rate                                 : 128 kb/s
Channel(s)                               : 2 channels
Channel positions                        : Front: L R
Sampling rate                            : 44.1 kHz
Frame rate                               : 43.066 FPS (1024 SPF)
Compression mode                         : Lossy
Stream size                              : 28.2 MiB (1%)
Title                                    : Stereo
Language                                 : English
Default                                  : Yes
Alternate group                          : 1
Encoded date                             : UTC 1952-06-16 20:56:46
Tagged date                              : UTC 1952-06-16 20:56:46
YouTube Video:
Category:Adult XXX
Language:Aucune/N/D
Total Size:2.25 GB
Info Hash:8A678DCBA200C43A42C3ED911179F58DF626A90C
Added By:nata24 Verified UploaderPorn Guy
Date Added:12-07-2018 13:32:13
Torrent Status:Torrent Verified


Ratings:Not Yet Rated (Log in to rate it)


Tracker:
udp://open.stealth.si:80/announce

This Torrent also has backup trackers
URLSeedersLeechersCompleted
udp://open.stealth.si:80/announce100
udp://tracker.internetwarriors.net:1337/announce100
udp://tracker.coppersurfer.tk:6969/announce100
udp://tracker.coppersurfer.tk:6969100
udp://tracker.pirateparty.gr:6969/announce100
udp://tracker.qt.is:6969/announce100
udp://eddie4.nl:6969/announce100
udp://shadowshq.yi.org:6969/announce100
udp://tracker.leechers-paradise.org:6969/announce100
udp://tracker.vanitycore.co:6969/announce100
udp://torr.ws:2710/announce100
udp://seedbay.net:2710/announce100
udp://tracker.ds.is:6969/announce100
udp://tracker.0o.is:6969/announce100
udp://tracker.open-internet.nl:6969/announce100


File List: 





Comments
No comments still posted