Login
Username:
Password:
Remember Me:
[Signup]
[Recover Account]
Friends
BTScene
Friendly site

Free Courses Online
Friendly site

Anime RG
Friendly site

KaranPC
Friendly site

P2PDL.com
Friendly site

Free Tutorials & Courses
Friendly site
Torrent Details For "Better Call Saul - Season 1 - Complete - X264 - Maxillion - [GloTV]"

Better Call Saul - Season 1 - Complete - X264 - Maxillion - [GloTV]

To download this torrent, you need a BitTorrent client: Vuze or BTGuard
Download this torrent
Download using Magnet Link

Direct Download - no client needed

Download Faster - High Speed Download

Health:
Seeds: 9
Leechers: 3
Completed: 11,493 
Last Checked: 04-04-2016 10:18:04

Uploader Reputation points : 2408
External: Torrent




Write a Review for the Uploader:   50   Say Thanks with one good review:
Share on Facebook


Details
Name:Better Call Saul - Season 1 - Complete - X264 - Maxillion - [GloTV]
Description:








Storyline:


Better Call Saul is the Breaking Bad spinoff series based on the show's popular Saul Goodman character. Plans call for Saul to be a one-hour prequel that will focus on the evolution of the popular Saul Goodman character before he ever became Walter White's lawyer.

The series is expected to star Bob Odenkirk with writer-producer Peter Gould set to run the effort. Breaking Bad creator Vince Gilligan, who conceived of the spinoff with Gould, will remain involved. Like Bad, the series will be produced by Sony, where Gilligan spent several years under an overall deal.


Format                                   : MPEG-4
Format profile                           : Base Media
Codec ID                                 : isom
Duration                                 : 52mn 53s
Overall bit rate                         : 405 Kbps

Video
ID                                       : 1
Format                                   : AVC
Format/Info                              : Advanced Video Codec
Format profile                           : [email protected]
Format settings, CABAC                   : Yes
Format settings, ReFrames                : 4 frames
Codec ID                                 : avc1
Codec ID/Info                            : Advanced Video Coding
Duration                                 : 52mn 53s
Bit rate                                 : 209 Kbps
Width                                    : 700 pixels
Height                                   : 400 pixels
Display aspect ratio                     : 16:9
Original display aspect ratio            : 16:9
Frame rate mode                          : Variable
Frame rate                               : 23.976 fps
Minimum frame rate                       : 23.810 fps
Maximum frame rate                       : 24.390 fps
Color space                              : YUV
Chroma subsampling                       : 4:2:0
Bit depth                                : 8 bits
Scan type                                : Progressive
Bits/(Pixel*Frame)                       : 0.031
Stream size                              : 79.0 MiB (51%)
Writing library                          : x264 core 142 r2431 a5831aa
Encoding settings                        : cabac=1 / ref=1 / deblock=1:0:0 / analyse=0x1:0x111 / me=hex / subme=2 / psy=1 / psy_rd=1.00:0.00 / mixed_ref=0 / me_range=16 / chroma_me=1 / trellis=0 / 8x8dct=0 / cqm=0 / deadzone=21,11 / fast_pskip=1 / chroma_qp_offset=0 / threads=12 / lookahead_threads=3 / sliced_threads=0 / nr=0 / decimate=1 / interlaced=0 / bluray_compat=0 / constrained_intra=0 / bframes=3 / b_pyramid=2 / b_adapt=1 / b_bias=0 / direct=1 / weightb=1 / open_gop=0 / weightp=1 / keyint=240 / keyint_min=24 / scenecut=40 / intra_refresh=0 / rc_lookahead=10 / rc=crf / mbtree=1 / crf=25.0 / qcomp=0.60 / qpmin=0 / qpmax=69 / qpstep=4 / vbv_maxrate=20000 / vbv_bufsize=25000 / crf_max=0.0 / nal_hrd=none / filler=0 / ip_ratio=1.40 / aq=1:1.00
Color primaries                          : BT.709
Transfer characteristics                 : BT.709
Matrix coefficients                      : BT.709

Audio
ID                                       : 2
Format                                   : AC-3
Format/Info                              : Audio Coding 3
Format profile                           : Dolby Digital
Mode extension                           : CM (complete main)
Format settings, Endianness              : Big
Codec ID                                 : ac-3
Duration                                 : 52mn 53s
Bit rate mode                            : Constant
Bit rate                                 : 192 Kbps
Channel(s)                               : 2 channels
Channel positions                        : Front: L R
Sampling rate                            : 32.0 KHz
Bit depth                                : 16 bits
Compression mode                         : Lossy
Stream size                              : 72.6 MiB (47%)
YouTube Video:
Category:Packs
Language:English  English
Total Size:1.33 GB
Info Hash:658EAFB176262A07216294588613783BED45C2D0
Added By:Maxillion
Date Added:07-04-2015 20:25:41
Torrent Status:Unverified Torrent


Ratings:Not Yet Rated (Log in to rate it)


Tracker:
udp://tracker.openbittorrent.com:80/announce

This Torrent also has backup trackers
URLSeedersLeechersCompleted
udp://tracker.openbittorrent.com:80/announce000
udp://tracker.publicbt.com:80/announce000
udp://open.demonii.com:1337/announce000
udp://tracker.glotorrents.com:6969/announce000
udp://glotorrents.com:6969/announce000
udp://glotorrents.pw:6969/announce000


File List: 





Comments

[Report] Posted: 07-04-2015 at 20:26:06
Maxillion

avatar

profile message
This is a great show! I highly recommend it!  B)