Login
Username:
Password:
Remember Me:
[Signup]
[Recover Account]
Friends
BTScene
Friendly site

Ale Torrenty Team
Friendly site

Anime RG
Friendly site

KaranPC
Friendly site

P2PDL.com
Friendly site

Free Tutorials & Courses
Friendly site
Torrent Details For "Birth of the Dragon 2016 10bit hevc-d3g."

Birth of the Dragon 2016 10bit hevc-d3g.

To download this torrent, you need a BitTorrent client: Vuze or BTGuard
Download this torrent
Download using Magnet Link

Direct Download - no client needed

Download Faster - High Speed Download

Health:
Seeds: 14
Leechers: 12
Completed:
Last Checked: 14-11-2017 23:15:21

Uploader Reputation points : 123802
External: Torrent




Write a Review for the Uploader:   60   Say Thanks with one good review:
Share on Facebook


Details
Name:Birth of the Dragon 2016 10bit hevc-d3g.
Description:
Birth of the Dragon 2016 10bit hevc-d3g.

ImDb: http://www.imdb.com/title/tt2720826



Complete name                            : Birth of the Dragon 2016 BluRay 10Bit 1080p DD5.1 H265-d3g.mkv
Format                                   : Matroska
Format version                           : Version 2
File size                                : 1.98 GiB
Duration                                 : 1 h 35 min
Overall bit rate                         : 2 967 kb/s
Movie name                               : Birth of the Dragon 2016 BluRay 10Bit 1080p DD5.1 H265-d3g
Encoded date                             : UTC 2017-11-14 22:18:11
Writing application                      : DVDFab 10.0.6.6
Writing library                          : libebml v1.3.4 + libmatroska v1.4.5

Video
ID                                       : 1
Format                                   : HEVC
Format/Info                              : High Efficiency Video Coding
Format profile                           : Main [email protected]@High
Codec ID                                 : V_MPEGH/ISO/HEVC
Duration                                 : 1 h 35 min
Bit rate                                 : 2 508 kb/s
Width                                    : 1 920 pixels
Height                                   : 800 pixels
Display aspect ratio                     : 2.40:1
Frame rate mode                          : Constant
Frame rate                               : 23.976 (24000/1001) FPS
Color space                              : YUV
Chroma subsampling                       : 4:2:0
Bit depth                                : 10 bits
Bits/(Pixel*Frame)                       : 0.068
Stream size                              : 1.67 GiB (85%)
Default                                  : Yes
Forced                                   : No
Color range                              : Limited
Color primaries                          : BT.709
Transfer characteristics                 : BT.709
Matrix coefficients                      : BT.709

Audio
ID                                       : 2
Format                                   : AC-3
Format/Info                              : Audio Coding 3
Format settings, Endianness              : Big
Codec ID                                 : A_AC3
Duration                                 : 1 h 35 min
Bit rate mode                            : Constant
Bit rate                                 : 448 kb/s
Channel(s)                               : 6 channels
Channel positions                        : Front: L C R, Side: L R, LFE
Sampling rate                            : 48.0 kHz
Frame rate                               : 31.250 FPS (1536 spf)
Bit depth                                : 16 bits
Compression mode                         : Lossy
Stream size                              : 306 MiB (15%)
Language                                 : English
Service kind                             : Complete Main
Default                                  : Yes
Forced                                   : No

Text
ID                                       : 3
Format                                   : VobSub
Codec ID                                 : S_VOBSUB
Codec ID/Info                            : Picture based subtitle format used on DVDs
Duration                                 : 1 h 31 min
Bit rate                                 : 9 122 b/s
Count of elements                        : 1262
Stream size                              : 5.98 MiB (0%)
Language                                 : English
Default                                  : No
Forced                                   : No

Menu
00:00:00.000                             : en:(01)00:00:00:000
00:03:53.191                             : en:(02)00:03:53:191
00:06:30.556                             : en:(03)00:06:30:556
00:11:43.411                             : en:(04)00:11:43:411
00:14:59.440                             : en:(05)00:14:59:440
00:19:37.843                             : en:(06)00:19:37:843
00:23:58.395                             : en:(07)00:23:58:395
00:30:41.297                             : en:(08)00:30:41:297
00:38:46.324                             : en:(09)00:38:46:324
00:42:36.679                             : en:(10)00:42:36:679
00:45:06.662                             : en:(11)00:45:06:662
00:49:24.169                             : en:(12)00:49:24:169
00:53:51.603                             : en:(13)00:53:51:603
01:00:02.223                             : en:(14)01:00:02:223
01:04:24.986                             : en:(15)01:04:24:986
01:08:57.508                             : en:(16)01:08:57:508
01:15:40.327                             : en:(17)01:15:40:327
01:19:23.759                             : en:(18)01:19:23:759
01:23:18.368                             : en:(19)01:23:18:368
01:28:10.493                             : en:(20)01:28:10:493
01:35:34.729                             : en:(21)01:35:34:729






Click To View Screenshot

Click To View Screenshot

Click To View Screenshot
YouTube Video:
Category:Movies
Language:English  English
Total Size:1.98 GB
Info Hash:AC882404A599A36D25B72E8E1EA2BFFD40336EAF
Added By:Simmoncelli VIPMovie Pirate
Date Added:14-11-2017 23:05:38
Torrent Status:Torrent Verified


Ratings:Not Yet Rated (Log in to rate it)


Tracker:
udp://tracker.coppersurfer.tk:6969/announce

This Torrent also has backup trackers
URLSeedersLeechersCompleted
udp://tracker.coppersurfer.tk:6969/announce110
udp://tracker.pirateparty.gr:6969/announce110
udp://shadowshq.yi.org:6969/announce110
udp://eddie4.nl:6969/announce110
udp://tracker.leechers-paradise.org:6969/announce110
udp://tracker.opentrackr.org:1337/announce110
udp://p4p.arenabg.ch:1337/announce110
udp://p4p.arenabg.com:1337/announce110
udp://9.rarbg.me:2710/announce100
udp://9.rarbg.to:2710/announce100
udp://ipv4.tracker.harry.lu:80/announce110
udp://tracker.grepler.com:6969/announce000
udp://public.popcorn-tracker.org:6969/announce110
udp://tracker.opentrackr.org:1337/announce110
udp://tracker.zer0day.to:1337/announce110


File List: 





Comments
No comments still posted