Download Chernovik - Guardiani dei mondi (2018) 720p H264 ita Ac3-5 1 rus Ac3 2 0 sub ita eng-MIRCrew torrent - GloDLS
Torrent Details For "Chernovik - Guardiani dei mondi (2018) 720p H264 ita Ac3-5 1 rus Ac3 2 0 sub ita eng-..."

Chernovik - Guardiani dei mondi (2018) 720p H264 ita Ac3-5 1 rus Ac3 2 0 sub ita eng-...

To download this torrent, you need a BitTorrent client: Vuze or BTGuard
Download this torrent
Download using Magnet Link

Health:
Seeds: 3
Leechers: 15
Completed:
Last Checked: 20-11-2020 14:37:11

Uploader Reputation points : 3952
External: Torrent






Write a Review for the Uploader:   5   Say Thanks with one good review:
Share on Facebook


Details
Name:Chernovik - Guardiani dei mondi (2018) 720p H264 ita Ac3-5 1 rus Ac3 2 0 sub ita eng-...
Description:
Chernovik - Guardiani dei mondi (2018).720p.H264.ita.Ac3-5.1.rus Ac3 2.0.sub.ita.eng-MIRCrew


NO FOUND ONLY ORIGINAL RELEASE


My release is always in double track audio italian and Original audio
for select it use VLC or dvd player home
not use wmp

ENGLISH SUBTITLE INSIDE

Guardiani dei mondi -  Chernovik (2018)

Quality MIRCrew on HD 720p da 2,0 gb







 

Genere: Fantasy
Regia: Sergey Mokritskiy
Nazione: Russia - 2018
Formato: Colore
Durata: 112 minuti



Nikita Volkov, Severija Janusauskaite, Vilen Babichev, Olga Borovskaya, Irina Demidkina.



A causa dell'inquinamento atmosferico, nel 2058 il professor John Robinson e la sua famiglia, composta dalla moglie Maureen e dai tre figli, Judy, Penny e Will, vengono scelti per una missione a bordo della Jupiter II. Il loro compito è quello di completare la costruzione di un portale per l'iperspazio in orbita attorno al pianeta Alpha Prime, l'unica speranza per gli abitanti della Terra. La Rivolta Globale, un gruppo terroristico contrario alla missione, riesce però ad assassinare il pilota designato per accompagnare la famiglia Robinson, così il maggiore Don West viene scelto come sostituto.



A video game designer is stripped of his identity and recruited by a mysterious force to be the gatekeeper of a multi-dimensional portal.

 












General

Complete name                            : Guardiani dei mondi (2018).720p-MIRCrew\Guardiani dei mondi (2018).720p.h264.ita.rus.sub.ita.eng-MIRCrew.mkv
Format                                   : Matroska
Format version                           : Version 2
File size                                : 2.03 GiB
Duration                                 : 1h 50mn
Overall bit rate                         : 2 618 Kbps
Movie name                               : MIRCrew
Encoded date                             : UTC 2020-10-15T13:44:54Z
Writing application                      : mkvmerge v5.8.0 ('No Sleep / Pillow') built on Sep  2 2012 15:37:04
Writing library                          : Lavf55.12.0

Video
ID                                       : 1
Format                                   : AVC
Format/Info                              : Advanced Video Codec
Format profile                           : [email protected]
Format settings, CABAC                   : Yes
Format settings, ReFrames                : 4 frames
Codec ID                                 : V_MPEG4/ISO/AVC
Duration                                 : 1h 50mn
Bit rate                                 : 2 000 Kbps
Width                                    : 1 280 pixels
Height                                   : 544 pixels
Display aspect ratio                     : 2.35:1
Frame rate mode                          : Variable
Frame rate                               : 25.000 fps
Color space                              : YUV
Chroma subsampling                       : 4:2:0
Bit depth                                : 8 bits
Scan type                                : Progressive
Bits/(Pixel*Frame)                       : 0.115
Stream size                              : 1.49 GiB (74%)
Title                                    : MIRCrew
Writing library                          : x264 core 142 r2479 dd79a61
Encoding settings                        : cabac=1 / ref=1 / deblock=1:0:0 / analyse=0x1:0x111 / me=hex / subme=2 / psy=1 / psy_rd=1.00:0.00 / mixed_ref=0 / me_range=16 / chroma_me=1 / trellis=0 / 8x8dct=0 / cqm=0 / deadzone=21,11 / fast_pskip=1 / chroma_qp_offset=0 / threads=9 / lookahead_threads=3 / sliced_threads=0 / nr=0 / decimate=1 / interlaced=0 / bluray_compat=0 / constrained_intra=0 / bframes=3 / b_pyramid=2 / b_adapt=1 / b_bias=0 / direct=1 / weightb=1 / open_gop=0 / weightp=1 / keyint=250 / keyint_min=25 / scenecut=40 / intra_refresh=0 / rc_lookahead=10 / rc=abr / mbtree=1 / bitrate=2000 / ratetol=1.0 / qcomp=0.60 / qpmin=0 / qpmax=69 / qpstep=4 / vbv_maxrate=50000 / vbv_bufsize=62500 / nal_hrd=none / filler=0 / ip_ratio=1.40 / aq=1:1.00
Default                                  : Yes
Forced                                   : No
Color primaries                          : BT.709-5, BT.1361, IEC 61966-2-4, SMPTE RP177
Transfer characteristics                 : BT.709-5, BT.1361
Matrix coefficients                      : BT.709-5, BT.1361, IEC 61966-2-4 709, SMPTE RP177

Audio #1
ID                                       : 2
Format                                   : AC-3
Format/Info                              : Audio Coding 3
Mode extension                           : CM (complete main)
Codec ID                                 : A_AC3
Duration                                 : 1h 50mn
Bit rate mode                            : Constant
Bit rate                                 : 448 Kbps
Channel(s)                               : 6 channels
Channel positions                        : Front: L C R, Side: L R, LFE
Sampling rate                            : 48.0 KHz
Bit depth                                : 16 bits
Compression mode                         : Lossy
Delay relative to video                  : -5ms
Stream size                              : 355 MiB (17%)
Title                                    : Ita Ac3 5.1
Language                                 : Italian
Default                                  : Yes
Forced                                   : No

Audio #2
ID                                       : 3
Format                                   : AC-3
Format/Info                              : Audio Coding 3
Mode extension                           : CM (complete main)
Codec ID                                 : A_AC3
Duration                                 : 1h 50mn
Bit rate mode                            : Constant
Bit rate                                 : 192 Kbps
Channel(s)                               : 2 channels
Channel positions                        : Front: L R
Sampling rate                            : 48.0 KHz
Bit depth                                : 16 bits
Compression mode                         : Lossy
Delay relative to video                  : -5ms
Stream size                              : 152 MiB (7%)
Title                                    : Rus Ac3 2.0
Language                                 : Russian
Default                                  : No
Forced                                   : No





YouTube Video:
Category:Movies
Language:English  English
Total Size:2.03 GB
Info Hash:1FC7BC6D12331B89699FD32C44C17AE00FFDEB7F
Added By:MIRCrewRS Verified Uploader
Date Added:2020-11-20 22:37:10
Torrent Status:Torrent Verified


Ratings:Not Yet Rated (Log in to rate it)


Tracker:
udp://tracker.torrent.eu.org:451/announce

This Torrent also has backup trackers
URLSeedersLeechersCompleted
udp://tracker.torrent.eu.org:451/announce000
udp://tracker.coppersurfer.tk:6969/announce000
udp://tracker.torrent.eu.org:451/announce000
udp://tracker.pirateparty.gr:6969/announce000
udp://tracker.leechers-paradise.org:6969/announce000
udp://tracker.cyberia.is:6969/announce000
udp://tracker.iamhansen.xyz:2000/announce000
udp://p4p.arenabg.com:1337/announce000
udp://explodie.org:6969/announce000
udp://tracker.opentrackr.org:1337/announce000
udp://tracker.tiny-vps.com:6969/announce000
udp://exodus.desync.com:6969/announce000
udp://ipv4.tracker.harry.lu:80/announce000
udp://open.stealth.si:80/announce000
udp://9.rarbg.to:2710/announce000


File List: 





Comments
No comments still posted